<?xml version="1.0" standalone="no"?>
<!DOCTYPE svg PUBLIC "-//W3C//DTD SVG 1.1//EN" "http://www.w3.org/Graphics/SVG/1.1/DTD/svg11.dtd">
<svg xmlns="http://www.w3.org/2000/svg">
<defs >
<font id="GreatVibes" horiz-adv-x="286" ><font-face
    font-family="Great Vibes"
    units-per-em="1000"
    panose-1="2 0 5 7 8 0 0 2 0 2"
    ascent="851"
    descent="-401"
    alphabetic="0" />
<glyph unicode=" " glyph-name="space" horiz-adv-x="259" />
<glyph unicode="!" glyph-name="exclam" horiz-adv-x="350" d="M502 620L533 619L538 617L540 611Q531 587 372 352T205 107L195 108L196 115L450 599Q461 620 502 620ZM171 -14T154 -14T128 -4T119 15Q119 42 135 55T168 68T194 58T203 39T201 21T185 -2Z" />
<glyph unicode="&quot;" glyph-name="quotedbl" horiz-adv-x="318" d="M308 657Q332 657 332 628Q332 597 315 530T297 459H287L279 625Q278 639 286 648T308 657ZM200 657Q223 657 223 623T189 459H179L170 624Q169 637 178 647T200 657Z" />
<glyph unicode="#" glyph-name="numbersign" horiz-adv-x="746" d="M719 465L691 417H542L459 276H620L591 229H430L291 0H238L375 229H237L98 0H45L183 229H25L55 276H211L295 417H125L154 465H324L462 696H517L377 465H517L656 696H710L571 465H719ZM488 417H349L264
276H404L488 417Z" />
<glyph unicode="$" glyph-name="dollar" horiz-adv-x="449" d="M439 566T457 542T475 489T460 441T423 421T389 434T376 465T389 496T415 509T439 504T452 492Q445 540 389 552L272 340Q339 252 339 192T297 86T198 19T83 -2L55 -55L21 -61L56 0Q-41 18 -67 53Q-66
60 -49 77H-40Q1 34 68 21L217 293Q157 367 157 419T194 508Q261 575 374 575L402 627L434 633L401 572Q439 566 457 542ZM364 556L350 557Q302 557 261 525T220 446Q220 425 227 411T244 381T256 362L364 556ZM276 174Q276 217 235 272L94 18Q163 18 219 62T276
174Z" />
<glyph unicode="%" glyph-name="percent" horiz-adv-x="621" d="M271 732Q346 732 346 660Q346 574 270 470Q253 446 238 432Q252 407 280 407Q327 407 413 476Q438 496 513 579T593 665T608 668T620 661L5 -84H-32L-33 -79Q110 71 278 277Q328 339 437 473Q340
390 278 390Q243 390 219 415Q175 381 134 381Q61 381 61 473Q61 516 83 564Q113 633 167 682T271 732ZM488 321Q564 321 564 245T502 79Q427 -29 351 -29Q278 -29 278 63Q278 105 300 153Q330 223 384 272T488 321ZM153 403Q177 403 208 429Q191 455 193 478Q193
521 227 521Q240 521 248 513T257 494T255 480Q273 505 292 550Q320 615 320 653T294 698Q288 700 282 700Q255 700 219 665T152 566Q117 493 117 448T153 403ZM369 -8Q385 -8 407 5T440 32T474 73T516 159T537 245Q537 289 500 289Q472 289 436 254T369 156Q334
82 334 37T369 -8Z" />
<glyph unicode="&amp;" glyph-name="ampersand" horiz-adv-x="606" d="M335 398L402 400Q444 400 458 382Q465 374 465 366T460 352Q448 337 415 337Q358 337 314 381Q202 364 144 262Q107 196 107 133Q107 98 118 64Q151 -32 261 -32Q359 -32 431 34T503 165Q503
196 477 216T421 240T371 244T318 240T253 213Q215 187 215 144T282 66Q292 60 291 51T282 45Q219 79 193 122Q175 150 175 169T180 200Q192 235 240 259T362 283H539Q591 283 667 318Q704 335 721 358Q729 370 729 383T723 407T718 421T723 425T731 420Q745 396
745 375T732 335Q707 297 647 274T523 251Q521 251 518 251Q556 220 556 172Q556 105 478 34Q441 -1 383 -23T261 -45Q106 -45 42 45Q10 90 10 132T23 210Q58 305 164 357Q225 387 301 395Q273 434 273 493T325 604T442 679T572 703Q624 703 660 682T697 615Q697
586 679 564T639 541T603 554T589 588T602 621T634 634Q646 634 657 629T670 616Q671 622 671 628Q671 650 653 662Q634 676 596 676T507 656T411 596T340 500Q326 468 326 443T335 398ZM448 367Q448 385 374 385Q359 385 343 384Q367 354 407 354T448 367Z" />
<glyph unicode="&apos;" glyph-name="quotesingle" horiz-adv-x="158" d="M77 390Q77 396 85 399Q115 410 136 432T162 486Q147 476 132 476T107 487T98 506T100 524T116 547T148 559T177 543T188 504Q188 460 158 431T88 388Q85 387 81 387T77 390Z" />
<glyph unicode="(" glyph-name="parenleft" horiz-adv-x="350" d="M496 755Q505 757 512 757T519 751Q518 741 496 734Q431 717 372 680T272 601T196 507Q83 340 83 169Q83 40 146 -13Q176 -38 218 -38Q227 -38 241 -37T256 -44Q257 -60 204 -60T101 -15T32 119Q25
154 25 204T41 324Q56 380 97 445T196 572T334 684T496 755Z" />
<glyph unicode=")" glyph-name="parenright" horiz-adv-x="518" d="M37 -51Q28 -53 21 -53T14 -47Q14 -36 38 -30Q118 -9 188 40T304 151Q450 345 450 535Q450 664 387 716Q356 742 314 742Q306 742 293 741T277 748Q276 764 329 764T432 719T501 585Q508 550
508 500T492 380Q472 304 410 217T247 54T37 -51Z" />
<glyph unicode="*" glyph-name="asterisk" horiz-adv-x="431" d="M16 369Q16 389 37 389H182Q154 453 125 514Q116 533 129 536Q132 537 134 537Q148 537 159 515L218 400L334 517Q349 532 354 519Q356 515 356 506T341 481L256 389H392Q408 389 408 379Q408 364
383 358L373 357L241 352Q269 295 294 247Q298 239 292 226Q283 210 274 210T256 223L206 335L97 216Q90 209 78 212T61 225T68 248L168 349L36 344Q27 344 22 353T16 369Z" />
<glyph unicode="+" glyph-name="plus" horiz-adv-x="458" d="M159 242L298 239Q301 251 308 282Q325 353 331 378Q339 405 354 405Q365 405 361 387T331 239Q350 238 395 238H461Q472 238 475 233T479 224Q479 211 458 211Q411 211 325 205Q322 187 316 156Q303
82 302 68Q300 57 278 52Q272 51 267 51Q253 51 253 63Q253 69 288 203Q264 201 213 198T147 194Q136 193 136 213Q139 239 159 242Z" />
<glyph unicode="," glyph-name="comma" horiz-adv-x="153" d="M114 20Q114 -25 82 -57T10 -102Q6 -104 3 -104T0 -99T8 -91Q38 -81 59 -59T84 -4Q71 -14 55 -14T29 -2T22 27Q24 44 38 56T72 68T102 55T114 20Z" />
<glyph unicode="-" glyph-name="hyphen" horiz-adv-x="406" d="M147 221Q147 242 164 242Q229 242 384 238Q401 237 405 225Q403 213 388 211Q310 211 237 203T163 194Q157 194 152 203T147 221Z" />
<glyph unicode="." glyph-name="period" horiz-adv-x="208" d="M154 -14T137 -14T111 -4T102 15Q102 42 118 55T151 68T177 58T186 39T184 21T168 -2Z" />
<glyph unicode="/" glyph-name="slash" horiz-adv-x="548" d="M232 159Q61 -41 24 -41Q16 -41 16 -34T32 -13T79 35T156 124T244 229T351 362T460 499T581 652T698 800Q710 816 732 816T755 802Q755 795 748 788Q696 728 531 522T232 159Z" />
<glyph unicode="0" glyph-name="zero" horiz-adv-x="502" d="M505 468Q505 408 476 327T402 170T291 42T167 -11T80 26T52 119Q52 196 106 304T246 495T412 579Q505 579 505 468ZM379 199T423 311T467 492T413 560Q367 560 312 502T213 365T141 207T112 84Q112
9 173 9Q236 9 307 104Z" />
<glyph unicode="1" glyph-name="one" horiz-adv-x="378" d="M70 -2L61 0L60 6Q110 95 201 258T330 488Q249 415 167 365H163L159 373L161 379Q294 480 333 522T389 566L420 569Q421 569 422 569T426 568V563L122 5Q117 2 70 -2Z" />
<glyph unicode="2" glyph-name="two" horiz-adv-x="488" d="M379 304T325 256T247 189T184 136T141 101Q255 44 279 44T328 61T370 97T391 117L398 111V107Q300 -12 240 -12Q219 -12 180 5T114 34T84 47L14 -8L1 0Q2 5 48 55T99 108Q114 110 121 107Q433 385 433
501Q433 545 383 545T288 497T220 390L216 386H204L202 392Q228 465 285 520T412 576Q452 576 477 554T503 490T441 376Z" />
<glyph unicode="3" glyph-name="three" horiz-adv-x="458" d="M486 516Q486 407 264 327Q318 327 358 306T399 231T349 118T229 24T102 -11T10 13V18L17 24L22 26Q54 11 92 11Q170 11 250 87T331 243Q331 272 311 288T267 305T191 291L184 294L183 303L187 308Q340
371 392 442Q417 476 417 511T378 546Q319 546 240 457H235L228 463V468Q318 578 410 578Q443 578 464 563T486 516Z" />
<glyph unicode="4" glyph-name="four" horiz-adv-x="464" d="M438 353L456 354L462 351L463 345Q463 342 433 283T396 212H420L426 208L421 197L414 192L385 191Q296 13 292 9T261 -1T227 -7L222 -6V-2Q222 10 322 188L79 182V190Q88 208 154 275Q283 404 374
526Q394 551 407 556T426 563T449 567T477 572L484 569L485 562Q485 543 352 418Q316 384 276 348T205 284T147 232T117 205L334 209L399 335Q404 346 414 348Q430 353 438 353Z" />
<glyph unicode="5" glyph-name="five" horiz-adv-x="445" d="M273 554Q299 563 317 563T356 560T426 557T503 578L507 576Q490 531 447 512T361 493L259 496L149 305Q216 350 283 350Q327 350 355 328T383 263Q383 197 329 132T199 27T64 -13T-12 -1V6L-6 13L-2
15Q22 6 60 6Q144 6 230 91T316 260Q316 291 299 307T256 324T208 316T158 291T119 268L113 270V276Q120 296 191 421T273 554Z" />
<glyph unicode="6" glyph-name="six" horiz-adv-x="421" d="M96 74Q96 47 110 30T151 12Q195 12 240 58T312 163T339 264T305 306Q274 306 242 276Q193 230 160 147L156 142L146 141L144 147Q160 214 213 275T329 337Q363 337 381 315T400 258Q400 203 361 140T262
33T148 -11T66 17T37 103T76 234T178 376Q294 499 420 587L426 588L433 577Q432 576 431 573T424 564T393 538T360 511Q290 446 235 373T138 219T96 74Z" />
<glyph unicode="7" glyph-name="seven" horiz-adv-x="488" d="M499 495L340 499Q310 499 289 488T258 464Q235 429 221 427L218 429V435Q260 518 293 541T412 565T554 558Q567 568 574 568L578 562L576 555Q545 520 410 378Q271 233 138 63Q93 6 87 4T17 -5L11
-2L10 2Q17 32 400 401Q465 463 499 495Z" />
<glyph unicode="8" glyph-name="eight" horiz-adv-x="420" d="M409 577T435 558T461 505T447 440T406 378Q363 330 310 284Q329 242 329 171T266 44T128 -11Q81 -11 48 14T14 79T34 155T92 228Q157 289 218 334Q201 373 201 414Q201 479 252 528T369 577Q409 577
435 558ZM425 501Q425 527 411 542T370 557Q328 557 297 523T266 447T303 305Q351 345 388 398T425 501ZM265 101T265 157T223 315Q60 194 60 83Q60 49 78 30T130 10Q185 10 225 55Z" />
<glyph unicode="9" glyph-name="nine" horiz-adv-x="435" d="M388 577T413 542T438 448T402 318T306 182Q190 57 69 -22H63L58 -13L62 -7Q304 163 368 415Q378 453 378 487Q378 556 323 556Q278 556 232 516T159 421T131 322Q131 266 181 266Q260 266 318 405L322
408L333 407L334 402Q307 332 256 270T145 208Q112 208 93 230T74 286Q74 373 165 475T340 577Q388 577 413 542Z" />
<glyph unicode=":" glyph-name="colon" horiz-adv-x="256" d="M223 210T206 210T179 222T172 251Q174 268 188 280T220 292T246 282T255 263T253 245T237 222ZM113 -14T96 -14T70 -4T61 15T63 33T79 56T110 68T136 58T145 39Q145 12 129 -1Z" />
<glyph unicode=";" glyph-name="semicolon" horiz-adv-x="255" d="M223 210T206 210T179 222T172 251Q174 268 188 280T220 292T246 282T255 263T253 245T237 222ZM151 14Q151 -31 121 -60T51 -102Q47 -104 44 -104T40 -99T48 -91Q78 -81 99 -59T125 -4Q110 -14
95 -14T69 -2T62 27T79 56T111 68T140 52T151 14Z" />
<glyph unicode="&lt;" glyph-name="less" horiz-adv-x="329" d="M333 297Q317 270 218 202Q173 172 171 170L170 34L165 24L158 21Q153 21 150 24Q136 60 126 111T112 179Q116 181 171 216Q314 307 325 307L332 304L333 297Z" />
<glyph unicode="=" glyph-name="equal" horiz-adv-x="458" d="M409 322Q409 311 392 311Q288 311 244 304Q182 294 169 294Q147 294 147 323Q147 342 164 342H311Q409 342 409 322ZM409 222Q409 211 392 211Q288 211 244 204Q182 194 169 194Q147 194 147 223Q147
242 164 242H311Q409 242 409 222Z" />
<glyph unicode="&gt;" glyph-name="greater" horiz-adv-x="329" d="M248 150L43 22L36 21Q32 21 28 23L27 27Q27 37 50 55T89 86T123 112T155 134T179 151L189 158L190 294Q191 295 192 298T195 303L203 307L212 303Q227 263 236 214T248 150Z" />
<glyph unicode="?" glyph-name="question" horiz-adv-x="382" d="M382 469Q418 515 418 552Q418 582 384 598Q369 604 356 604T326 603T283 588T241 557T225 523Q225 520 225 518Q230 537 260 554Q277 562 288 562T306 558Q323 549 323 524T301 482T257 465Q223
465 212 493Q207 503 207 517T214 551Q228 582 278 611Q343 649 396 649Q457 649 483 604Q490 591 490 575Q490 519 424 444Q401 418 345 364T256 265T200 160Q196 151 188 154T181 167Q189 202 215 247T259 316T326 400T382 469ZM171 -14T154 -14T128 -4T119 15Q119
42 135 55T168 68T194 58T203 39T201 21T185 -2Z" />
<glyph unicode="@" glyph-name="at" horiz-adv-x="956" d="M337 116Q337 74 370 74Q407 74 455 129Q506 190 548 271T607 369T648 387Q656 387 675 383T706 381Q683 359 641 279Q586 174 586 120T637 66Q700 66 765 119T867 254T903 413Q903 508 856 562T749 637T615
658Q482 658 365 584T185 396T123 169Q123 56 178 -9T304 -100T458 -126Q620 -126 767 -27Q776 -18 783 -28T778 -43Q620 -148 451 -148Q243 -148 140 -24Q75 55 75 176Q75 264 115 356T231 520T409 635T613 679Q734 679 828 624Q876 597 906 550Q943 494 943 414T897
248T769 98Q742 77 693 61T607 45Q604 45 600 45Q561 45 533 78Q517 97 517 128T528 200Q484 128 438 83T354 38Q336 38 321 48Q281 73 281 143Q281 264 387 391Q446 462 534 483Q558 489 580 489Q638 489 679 449Q691 435 686 423T666 413Q653 458 606 458Q582
458 558 444Q517 422 472 373T386 258Q337 177 337 116Z" />
<glyph unicode="A" glyph-name="A" horiz-adv-x="712" d="M664 445Q687 445 687 416Q687 385 662 358Q618 309 581 235Q525 123 525 33Q525 -2 537 -18T566 -34Q614 -34 678 44Q735 117 765 186Q773 202 781 200T782 182Q741 91 689 22Q662 -15 622 -39T543 -64T483
-33T463 42T473 127T501 192Q400 71 286 -2Q226 -39 153 -46Q146 -47 130 -47T90 -35Q18 -5 18 111T94 364Q134 436 182 491Q115 523 82 560Q58 587 58 625T73 673Q83 686 91 678Q97 669 92 656T86 631Q86 604 115 571T200 512Q435 773 688 773Q767 773 813 738T860
646Q860 585 792 528Q758 498 695 476Q599 442 467 442T247 470Q146 327 108 233T70 86Q70 75 71 66Q83 -17 155 -17Q236 -17 343 71Q419 135 492 223T600 378T664 445ZM819 658Q819 701 784 724T686 747T563 727T448 668T353 588T263 490Q338 466 447 466Q652
466 746 532Q819 583 819 658Z" />
<glyph unicode="B" glyph-name="B" horiz-adv-x="1041" d="M1038 192Q1038 135 997 86Q939 16 842 -15Q770 -38 702 -38Q677 -38 653 -35Q496 -15 387 34Q288 -39 178 -39Q48 -39 17 33Q10 50 10 73T33 122Q69 162 133 162Q175 162 209 150T293 111T367 72Q411
115 458 191T540 341T631 505T743 658L800 723Q721 737 626 737T417 712Q261 679 177 578Q126 517 126 462Q126 389 197 367Q222 360 241 360T285 367T333 396T367 440T378 471T388 482Q398 481 399 468V467Q388 394 321 356Q280 334 239 334L187 343Q81 380 81
481Q81 550 142 617Q240 727 430 754Q522 767 621 767T824 745Q852 769 873 777T897 785T902 784Q908 784 905 778T883 759T860 737Q996 702 1056 637Q1088 601 1088 564T1066 488Q1037 438 972 413T841 384Q905 364 960 328Q1038 277 1038 192ZM688 -10Q800 -10
878 54Q963 122 963 201Q963 283 876 325Q844 340 798 354T723 379T690 398Q690 417 719 418Q738 418 777 415T844 412T911 432T979 483Q1024 533 1024 577Q1024 671 848 712Q795 639 658 404T447 88L409 52Q522 5 652 -8Q671 -10 688 -10ZM345 53Q228 109 197
120T136 131T87 110T69 71T77 37Q99 -8 169 -8Q264 -8 345 53Z" />
<glyph unicode="C" glyph-name="C" horiz-adv-x="710" d="M379 -101Q301 -101 230 -71T116 19T64 148Q60 178 60 214T69 309T108 437T181 559Q164 626 164 682T177 788Q179 796 183 799T190 803Q200 803 196 779T192 709T205 593Q285 696 393 743Q476 779 567
779Q593 779 621 776Q775 759 829 658Q851 616 851 571T830 478Q786 382 679 336Q610 306 528 306Q493 306 457 311Q278 337 209 481Q185 447 160 367T130 244T126 172T130 112Q137 57 172 13T265 -49T367 -67Q506 -67 604 -9Q663 26 696 70T768 193Q774 206 780
202T780 183Q742 106 710 61T621 -23Q509 -101 379 -101ZM229 513Q300 332 525 332Q652 332 728 403T805 564T727 704Q669 741 584 741T413 692Q305 629 229 513Z" />
<glyph unicode="D" glyph-name="D" horiz-adv-x="1014" d="M375 36Q282 -39 169 -39Q40 -39 10 33Q3 50 3 72T26 121Q62 162 126 162Q169 162 212 147T367 72Q417 120 467 200T553 354T642 517T747 663Q635 730 509 730Q457 730 403 719Q248 686 167 584Q117 522
117 466Q117 390 190 367Q216 360 235 360T277 366T324 394Q368 438 371 476Q372 485 382 483T391 467Q381 394 314 356Q273 334 232 334L180 343Q104 369 80 440Q70 467 70 494Q70 549 111 603Q199 721 423 754Q467 760 510 760Q649 760 775 694Q814 739 847 762T900
786Q911 786 913 782T913 775T906 772Q889 772 862 736T818 669Q925 598 981 487Q1026 398 1026 293Q1026 163 964 86Q913 23 840 -3Q753 -34 668 -34Q496 -34 375 36ZM399 54Q500 -6 636 -6Q794 -6 888 84Q963 157 963 286Q963 378 927 459Q882 562 794 631Q765
586 683 450T543 228T453 108T399 54ZM341 52Q224 108 193 119T133 130T86 108T68 69T76 35Q97 -8 162 -8Q258 -8 341 52Z" />
<glyph unicode="E" glyph-name="E" horiz-adv-x="815" d="M492 375L385 376Q253 376 179 312Q92 238 92 140Q92 94 113 56T190 -8T340 -33T540 7T717 103Q799 167 799 215Q799 238 775 243T750 256Q748 265 765 264T793 257Q838 233 838 195Q838 139 761 78T565
-19T344 -55T177 -35Q64 0 30 94Q21 118 21 140T29 194T65 269T146 347T259 400T368 420Q318 438 283 470T248 539Q248 542 248 545Q255 626 339 690T515 779T674 804Q695 804 715 802Q798 792 834 761T870 697Q870 652 819 611T694 553Q676 549 665 549T654 555Q658
567 688 570T746 594Q802 635 810 700Q810 703 810 706Q810 731 786 752Q756 780 685 780T538 758T398 683Q322 621 322 548Q322 519 339 495T390 460T458 440Q535 424 535 398Q535 375 492 375Z" />
<glyph unicode="F" glyph-name="F" horiz-adv-x="1048" d="M1003 610Q801 710 678 710T472 640Q393 573 393 496Q393 456 422 438Q461 416 496 416Q509 416 522 419Q568 430 600 456T632 498T641 520T651 516Q651 510 648 502Q627 431 550 405Q517 394 482 394T413
415Q349 451 349 525Q349 614 431 687T631 760Q689 760 748 743Q896 703 1016 627Q1047 661 1080 661Q1117 661 1118 636Q1119 625 1111 626Q1106 627 1100 634Q1092 637 1085 637Q1063 637 1040 615Q1114 578 1214 552Q1253 543 1276 543T1311 544Q1355 549 1368
577Q1375 592 1380 595T1387 592Q1387 589 1387 584Q1387 543 1345 522Q1319 509 1296 509T1246 513T1176 532T1106 558T1053 583L1025 597Q973 538 914 394Q895 346 892 339Q950 331 999 331T1076 332T1106 326Q1107 304 957 304Q909 304 880 308Q818 138 756
56Q730 22 691 -15T608 -76Q509 -130 387 -130T180 -76Q51 4 51 155Q51 206 68 264Q80 302 112 331T167 366T188 369T153 342Q88 295 76 226Q71 201 71 168T86 96Q127 -10 256 -60Q317 -83 387 -83T526 -55T654 29Q769 138 844 311L780 312Q663 312 626 258Q617
247 612 252T610 267Q632 315 672 336T751 357T858 348Q889 424 936 506T1003 610Z" />
<glyph unicode="G" glyph-name="G" horiz-adv-x="699" d="M158 462Q110 358 110 276Q110 107 226 69Q260 60 295 60T367 69Q439 88 496 126T568 199Q608 292 654 292Q677 292 685 266Q689 256 687 244Q677 166 644 90T551 -86Q671 -87 770 -112Q791 -117 791 -126Q791
-137 762 -130Q693 -112 563 -112Q551 -112 537 -112Q476 -200 375 -267T177 -360Q124 -374 87 -374T25 -365Q-48 -338 -48 -294Q-48 -281 -41 -266Q-14 -206 101 -155Q188 -116 284 -102T501 -86Q575 39 602 160L606 177Q558 131 498 96T392 46Q320 23 274 23T192
36Q128 58 88 124Q45 194 45 291T96 499Q30 567 30 643T92 789Q104 802 109 799T105 781Q60 721 60 660Q60 590 112 529Q118 542 134 568Q212 696 346 764Q451 818 549 818Q576 818 603 814Q732 794 777 708Q795 674 795 635T770 550Q714 453 574 414Q500 393 423
393Q261 393 158 462ZM572 787Q486 787 390 729Q249 645 171 488Q218 452 279 437T378 422Q589 422 697 535Q751 593 751 651Q751 743 648 775Q610 787 572 787ZM3 -301Q3 -329 51 -339Q67 -343 86 -343Q157 -343 266 -292Q404 -229 485 -113Q380 -116 301 -129Q187
-146 84 -212Q3 -264 3 -301Z" />
<glyph unicode="H" glyph-name="H" horiz-adv-x="1381" d="M1375 629T1412 684T1481 751T1525 763T1537 760Q1537 757 1524 751T1480 698T1400 557T1316 356Q1377 356 1393 362T1413 364T1404 351Q1371 328 1307 324Q1306 322 1291 276Q1241 121 1241 59Q1241
24 1253 10T1280 -4T1311 8Q1368 50 1436 189Q1444 206 1451 203T1451 182Q1414 103 1390 66T1334 -2Q1293 -41 1252 -41Q1206 -41 1188 -3Q1179 15 1179 30T1179 61T1183 104T1197 170T1215 230T1235 286T1249 324Q1206 324 910 337Q849 155 718 11Q654 -60 569
-108Q455 -171 329 -171Q276 -171 211 -156T88 -97T6 21T4 185Q16 231 57 271T126 312Q136 312 138 310T137 304T128 298Q98 285 66 241Q24 183 24 106Q24 -14 140 -73Q210 -108 304 -108Q345 -108 381 -100Q720 -24 858 339Q832 339 808 328T776 316T767 322Q767
339 791 354T833 372H872Q936 532 1018 696Q992 693 944 689T866 682T792 672T719 656T655 629T595 590Q538 536 514 458Q504 426 504 390T530 320T599 286Q684 286 720 384Q737 430 737 448T731 476T734 488Q741 489 746 480Q758 454 758 424T738 359Q704 297
646 276Q618 266 590 266T534 278Q481 301 456 356Q440 389 440 419T449 487T487 566T557 630T641 671T740 695T840 707T943 714T1032 720Q1043 739 1065 766T1104 798T1129 803Q1166 803 1166 772T1125 719T1048 698Q1021 646 972 513T919 372Q994 372 1112 364T1258
355Q1278 413 1326 521ZM1116 772Q1104 772 1066 723Q1131 733 1130 758Q1129 769 1119 771Q1118 772 1116 772Z" />
<glyph unicode="I" glyph-name="I" horiz-adv-x="912" d="M1119 735L1077 726Q1009 600 954 404Q935 336 896 253T803 99Q604 -156 294 -156Q150 -156 65 -94Q7 -51 -12 18Q-19 43 -19 82T1 174T68 269T141 313Q151 313 153 310Q156 306 142 299Q111 286 73 240Q14
170 14 82Q14 15 57 -33Q111 -93 210 -115Q254 -125 277 -125T324 -125T389 -114Q472 -93 548 -46T678 55T778 176Q856 289 896 398Q966 583 1046 721Q887 688 793 648Q697 606 644 554Q578 487 559 403Q553 379 553 359Q553 317 576 291T625 265T682 277T736 317Q768
358 768 414Q768 442 760 449Q758 452 762 458Q772 473 781 458Q794 433 794 404T775 339Q741 275 677 251Q645 239 609 239T530 272T488 364Q488 382 492 403Q549 660 1062 747Q1071 766 1094 794T1134 827T1162 833Q1195 833 1196 805Q1196 775 1172 759Q1150
745 1119 735ZM1094 751Q1162 765 1159 789Q1157 801 1146 801T1094 751Z" />
<glyph unicode="J" glyph-name="J" horiz-adv-x="966" d="M1189 706L1146 698Q1069 565 998 340Q971 255 922 145T813 -60Q732 -186 598 -267T352 -364Q301 -371 236 -371T102 -348Q-6 -312 -46 -230Q-64 -192 -64 -141T-37 -21Q-18 25 30 65T105 106Q117 107
117 102Q116 98 104 92Q72 79 33 35T-18 -53T-31 -122Q-31 -195 8 -240Q35 -270 75 -294T161 -327Q229 -340 269 -340T340 -332Q408 -317 471 -282T584 -206T681 -103T763 8T833 128Q893 242 956 390Q1035 566 1116 694Q977 671 833 594Q760 555 708 495Q641 419
641 332Q641 285 663 259T711 233T766 244T820 282Q858 326 858 383Q858 407 851 415Q839 423 849 430Q860 436 872 423Q882 401 882 372T860 304Q823 241 758 218Q728 208 701 208Q656 208 620 237Q574 275 574 339Q574 420 632 494Q676 551 735 588T870 654Q991
701 1133 720Q1145 740 1169 767T1209 799T1235 804Q1270 804 1270 774Q1269 747 1248 733T1189 706ZM1220 772Q1218 772 1216 771T1209 767T1200 760T1191 751T1182 742T1172 732T1164 723Q1233 735 1232 760Q1230 772 1220 772Z" />
<glyph unicode="K" glyph-name="K" horiz-adv-x="1144" d="M898 152Q892 186 890 208T888 253T896 280Q897 280 899 280Q929 280 1010 321T1194 431T1410 609T1596 829Q1609 848 1618 848Q1621 848 1624 845T1628 835T1621 816Q1507 627 1300 461T954 259Q952
256 952 247T954 215T973 131T1014 15Q1082 -141 1193 -141Q1257 -141 1315 -114T1400 -36Q1406 -22 1415 -22T1413 -44Q1386 -99 1319 -141T1180 -184T1046 -132Q936 -42 898 152ZM1043 739T1065 766T1104 798T1136 803T1160 790T1168 764T1149 734Q1117 705 1048
698Q991 595 917 367Q890 284 845 191T747 27T610 -96T416 -166Q381 -171 339 -171T246 -160Q63 -118 10 20Q-6 62 -6 103T5 189T55 267T119 305Q132 307 132 299Q132 294 126 291Q102 280 68 239Q24 185 24 105Q24 23 74 -28Q135 -92 218 -108Q275 -119 312 -119T377
-111Q459 -92 530 -52T650 34T743 143T813 255T904 450T1018 696Q1003 694 932 688Q801 677 728 656Q591 618 533 510Q505 458 505 409Q505 383 513 358Q535 291 600 291Q682 291 715 376Q731 417 731 444T729 482T732 493Q740 491 746 480Q755 459 755 431T736
365Q706 302 652 282Q619 270 590 270Q540 270 500 306Q446 354 446 431Q446 540 548 614Q642 684 820 703Q874 709 943 713T1032 720Q1043 739 1065 766ZM1137 764Q1137 775 1128 775Q1117 775 1106 766T1066 723Q1095 727 1110 735Q1137 748 1137 764Z" />
<glyph unicode="L" glyph-name="L" horiz-adv-x="712" d="M958 760Q958 673 902 578T746 413T540 324Q479 201 452 152L431 118Q629 69 759 -31Q825 -82 848 -156Q860 -194 860 -221T850 -266T825 -292T805 -299T799 -294T810 -265T822 -207T808 -134T756 -61T651
2T534 44T401 73Q316 -46 224 -90Q169 -117 127 -117T51 -100Q-6 -72 -6 -15T69 85Q154 135 299 135Q351 135 393 127Q438 197 498 320Q492 320 487 320Q424 320 370 341T284 398Q242 445 242 504Q242 535 257 571T326 644T462 700Q475 703 484 703T495 698T487
689T464 683Q421 678 384 654Q320 613 295 528Q289 508 289 490T296 445T326 392T388 353T457 342T512 345L597 559Q685 785 807 837Q839 850 869 850T927 831T957 783Q958 771 958 760ZM916 759Q916 797 881 797Q830 797 757 708Q700 637 648 537T554 351Q693
382 804 503T916 759ZM362 79Q313 90 261 90T154 75Q39 45 19 -10Q15 -20 15 -29Q15 -55 43 -71T106 -88Q153 -88 208 -62Q291 -22 362 79Z" />
<glyph unicode="M" glyph-name="M" horiz-adv-x="1329" d="M431 358Q431 427 366 427Q357 427 344 426T326 432Q318 443 352 447Q364 449 376 449Q434 449 455 399Q464 378 464 346T436 264Q387 175 282 131Q247 116 210 116T132 135Q58 170 29 252Q18 284 18
332T45 455Q107 600 249 702Q401 812 533 812Q645 812 683 722Q700 683 700 628Q700 610 698 591Q688 504 646 392Q639 373 639 367T642 360Q647 359 659 381Q733 516 822 623Q851 658 892 680Q937 704 972 704T1028 678T1049 609Q1049 508 970 272Q954 225 950
212Q1031 339 1153 491T1371 672Q1388 677 1401 677Q1439 677 1450 639Q1454 626 1454 609Q1454 558 1414 478Q1332 314 1302 217Q1261 89 1261 42T1270 -36Q1288 -98 1365 -98Q1369 -98 1381 -98T1395 -102T1389 -111T1372 -115T1358 -114Q1200 -98 1200 48Q1200
101 1221 168T1258 272Q1282 330 1359 499Q1386 562 1386 595T1358 628Q1319 628 1237 548Q1195 506 1146 446T1001 234T879 20Q856 -34 818 -34Q791 -34 786 -15Q783 -7 786 -3T805 31T838 92T878 179T922 291Q970 432 987 581Q989 598 989 623T976 664T947 679Q898
679 839 605Q759 506 700 411T610 250T537 94T493 -4T486 -19T478 -36Q465 -65 422 -65Q397 -65 395 -49Q395 -46 396 -42Q462 60 542 267Q644 529 644 649Q644 792 526 792Q450 792 335 719T143 532Q113 487 98 445Q72 368 72 323Q72 194 158 153Q188 138 219
138Q327 138 396 255Q431 314 431 358Z" />
<glyph unicode="N" glyph-name="N" horiz-adv-x="1039" d="M423 363Q423 427 356 427Q348 427 339 426T327 428T328 436Q337 448 387 448T454 404Q461 387 461 368Q461 325 429 270Q375 180 280 142Q231 122 172 122T64 162T0 277Q-3 296 -3 318Q-3 378 29 457T136
610Q278 750 436 783Q480 792 513 792T569 789Q631 780 666 730Q694 691 694 631Q694 577 682 541T666 493T652 457T638 426T622 390Q580 299 582 298L613 348Q674 442 745 528Q877 688 982 736Q1041 764 1085 764T1158 743T1188 669T1155 543T1059 352T951 141T907
-28Q907 -54 914 -75Q928 -121 968 -121Q990 -121 1013 -110T1049 -99T1061 -112T1042 -135T1011 -146Q851 -146 851 -7Q851 44 868 96T993 373T1109 657Q1111 666 1111 674Q1111 716 1062 716Q1029 716 987 694Q830 619 688 407Q604 282 497 52Q458 -32 456 -36Q442
-65 400 -65Q375 -65 373 -49Q372 -46 373 -42Q421 29 507 220T626 554Q636 601 636 637T626 700Q605 753 555 761Q540 763 513 763T433 748T312 690Q161 596 93 445Q56 363 56 294Q56 259 65 228Q98 145 181 141Q284 141 361 227Q423 296 423 363Z" />
<glyph unicode="O" glyph-name="O" horiz-adv-x="726" d="M538 24Q427 -61 313 -61Q193 -61 138 28Q99 93 99 172T128 331Q58 378 51 457Q49 472 49 487Q49 607 152 688Q262 774 412 774T660 691T759 452Q759 442 759 432Q859 498 889 558Q894 569 902 568T910
561T904 547Q845 454 755 397Q751 350 730 284T657 148T538 24ZM700 453Q700 622 592 703Q520 757 424 757Q396 757 367 752Q245 734 168 651Q103 579 103 488Q103 409 146 372Q185 455 261 540Q344 633 436 654Q451 657 474 657T529 638Q536 634 536 630T532 624T517
625T484 629T416 605T327 530Q238 429 197 338Q260 309 348 309Q387 309 431 314Q574 333 698 400Q700 427 700 453ZM692 365Q525 276 340 276Q250 276 182 303Q151 222 151 163Q151 25 234 -16Q279 -37 323 -37T410 -18Q498 22 568 107T674 294Q688 334 692 365Z"
/>
<glyph unicode="P" glyph-name="P" horiz-adv-x="890" d="M964 705Q1070 642 1070 553Q1070 483 992 403Q947 356 886 322T764 273Q660 248 576 248Q558 248 540 249Q467 142 390 67Q277 -39 141 -39Q11 -39 -19 32Q-26 49 -26 71T-3 120Q33 161 98 161Q140 161
186 146Q203 140 198 133Q194 129 172 137T118 145T61 121T36 68Q36 57 40 46Q56 -8 131 -8Q243 -8 351 96Q428 171 524 366Q561 439 616 528T728 682Q735 689 746 700Q767 724 781 738Q709 748 627 748T472 735T345 703T236 655T142 580Q92 523 92 461Q92 423
119 390Q148 355 193 355T281 390T342 476Q343 483 346 485T353 485T356 475Q355 410 306 373T196 335Q128 335 85 375T42 478Q42 536 73 582T147 658T246 710Q341 748 445 763T640 779T808 763Q844 791 871 801T901 811T906 810Q912 810 909 804T886 784T848 753Q912
736 964 705ZM568 270Q641 270 726 295T878 370Q1006 467 1006 570Q1006 687 829 729Q773 651 684 492T554 270Q561 270 568 270Z" />
<glyph unicode="Q" glyph-name="Q" horiz-adv-x="752" d="M491 628Q446 628 390 590Q316 539 258 455T170 266Q152 205 152 160Q152 44 216 -10Q256 -43 304 -43Q404 -43 503 32Q567 81 614 142Q717 278 717 433Q717 539 662 621Q593 724 466 750Q427 759 389
759T316 754Q201 739 152 655Q120 602 120 536Q120 497 131 453Q135 436 126 432T107 447Q82 497 82 549T118 656Q183 754 312 776Q377 786 418 786Q545 786 616 746Q729 683 756 572Q770 518 770 457T750 331T697 206T614 92Q474 -63 310 -63Q240 -63 191 -27T120
64Q96 125 96 184T109 294T147 400T208 499T283 580Q357 649 450 656Q456 657 461 657Q496 657 529 638Q536 634 536 630T532 624T517 625T491 628ZM428 -314Q351 -270 283 -200Q254 -171 228 -146Q169 -91 111 -91Q90 -91 69 -104T46 -134T37 -150Q29 -150 29
-131T54 -86T111 -61Q197 -61 298 -142Q342 -178 390 -215T510 -288T665 -339Q694 -345 718 -345Q779 -345 801 -307Q811 -290 811 -267T789 -211Q743 -143 647 -127Q631 -125 631 -115Q631 -106 644 -108Q761 -127 814 -197Q839 -232 839 -258T827 -306Q790 -369
658 -369T428 -314Z" />
<glyph unicode="R" glyph-name="R" horiz-adv-x="1024" d="M948 -41T890 -41T777 15T687 177T637 365Q605 301 587 268T534 182T461 88Q343 -39 194 -39Q59 -39 26 34Q18 51 18 73T41 122Q78 163 143 163Q187 163 236 146Q249 141 246 135T220 138T165 147T109
122T85 70Q85 58 90 44Q110 -8 184 -8Q266 -8 329 41Q365 69 394 98T456 176Q508 251 544 315T623 456T686 568Q750 677 803 735Q747 740 691 740Q563 740 437 714T236 626Q143 549 143 462Q143 420 173 388T254 355Q316 355 357 399T400 469Q401 482 406 482Q414
482 413 467Q406 419 374 386Q318 328 240 328Q181 328 138 368T94 475Q94 574 190 652T444 754Q556 770 650 770T825 759Q851 787 861 787Q867 787 867 778T862 754Q936 742 961 735Q1111 691 1111 599Q1111 540 1038 482Q946 411 792 386Q748 379 700 377Q732
200 811 79Q838 38 860 20T909 1Q945 1 985 41T1079 187Q1087 202 1095 202Q1103 202 1096 187Q1038 57 993 8ZM1039 614Q1039 622 1037 630Q1026 686 948 710Q924 717 850 729Q832 698 762 584T658 403Q680 407 722 410T784 416Q898 430 978 505Q1039 561 1039
614Z" />
<glyph unicode="S" glyph-name="S" horiz-adv-x="901" d="M900 679Q900 714 868 745Q822 789 741 789Q670 789 584 758Q539 742 506 714Q455 670 455 626Q455 567 530 520Q558 503 642 465T766 402Q825 366 847 325T870 249Q870 199 837 147Q779 54 667 -13Q538
-91 356 -91Q181 -91 78 -2Q-2 66 -2 173Q-2 241 47 323T169 439Q184 445 191 443T179 424Q136 390 110 349Q54 261 54 158Q54 90 92 39Q160 -52 328 -64Q347 -66 384 -66T486 -53T611 -8Q740 60 778 168Q790 200 790 230Q790 298 729 350Q696 376 595 419T458
486Q381 538 381 609Q381 671 450 730Q549 814 730 814Q815 814 868 789T934 712Q936 702 936 692Q936 653 900 622Q875 602 833 590Q815 585 813 594Q811 607 838 610Q886 616 897 658Q900 669 900 679Z" />
<glyph unicode="T" glyph-name="T" horiz-adv-x="918" d="M1317 586Q1379 586 1379 616Q1379 631 1389 631T1400 607T1372 569T1323 556T1287 558Q1140 577 1035 622Q964 510 908 324Q887 257 849 179T766 51T663 -32Q549 -94 394 -94Q268 -94 158 -32Q50 29 32
156Q30 173 30 206T49 302T123 396Q145 409 156 409Q174 409 172 392Q168 387 152 376T120 352T90 313Q64 269 64 214Q64 88 150 20Q196 -18 253 -38T367 -58Q369 -58 372 -58Q579 -53 712 92Q796 183 942 503Q992 613 1006 632Q829 688 688 688T459 603Q388 535
388 461Q388 380 459 358Q484 351 504 351T551 358T602 389T639 436T650 471V473Q658 480 664 478T670 465Q660 387 591 348Q549 323 513 323T449 333Q367 362 345 444Q338 470 338 495Q338 555 375 612Q441 714 582 735Q614 740 643 740T710 737T812 717T942 678T1022
651Q1071 711 1095 712Q1100 714 1108 714T1122 700T1115 682Q1110 681 1102 683Q1096 687 1078 671T1050 643Q1144 613 1215 600T1317 586Z" />
<glyph unicode="U" glyph-name="U" horiz-adv-x="942" d="M986 482Q1006 472 1006 453Q1006 430 981 386Q898 237 872 83Q865 41 865 7Q865 -62 902 -62H913Q931 -62 931 -70Q931 -82 909 -85H897Q864 -79 846 -50T827 9T825 60Q825 117 838 179Q767 62 698 6Q633
-46 575 -46Q533 -46 510 -19Q480 17 480 71T511 214T593 416T660 591T676 702Q676 775 637 798Q590 823 531 823Q425 823 304 753Q125 648 62 488Q36 421 36 366T55 265Q97 163 201 163Q323 163 396 287Q436 353 436 404Q436 479 368 479Q352 479 328 474T305
474Q308 482 335 494T389 506Q430 506 451 471Q465 446 465 412T448 332Q410 231 318 176Q250 134 188 134T78 171Q-4 234 -4 362T94 614Q173 713 306 786Q421 850 528 850Q584 850 632 830Q729 788 729 669Q729 580 672 448Q639 370 609 306T558 175T538 64Q538
-20 594 -20Q654 -20 735 80L762 117Q802 175 865 301T930 429Q960 482 986 482Z" />
<glyph unicode="V" glyph-name="V" horiz-adv-x="975" d="M548 -96Q539 -96 530 -94Q482 -85 482 -9Q482 114 606 410Q654 522 677 628Q686 669 686 693T684 732Q679 776 651 793Q601 820 539 820Q474 820 402 788T267 710T151 601T74 468T48 342Q48 319 52 298Q68
229 112 195T216 161Q300 161 373 235T447 392Q447 437 429 457T392 477T354 472T335 472T358 489T406 500T452 485Q491 455 491 394T445 272T330 173T196 135T72 183T-4 314Q-9 338 -9 365Q-9 428 22 502T111 639T238 745T382 816Q458 845 525 845T647 824Q744
782 744 646Q744 546 672 398Q627 306 592 200Q540 43 540 -18Q540 -64 571 -64Q633 -64 788 97Q897 210 959 345Q999 431 999 503Q999 541 993 556T985 576T977 584T969 588Q955 592 940 594T923 608T933 621L952 619Q998 606 1032 554Q1051 525 1051 485T1032
389Q986 267 890 149T701 -33T548 -96Z" />
<glyph unicode="W" glyph-name="W" horiz-adv-x="1344" d="M869 47Q869 -48 946 -48Q1018 -48 1124 37Q1240 129 1283 231Q1332 346 1332 427T1300 549T1210 590Q1197 590 1183 588Q1159 582 1148 582T1136 588Q1136 597 1154 605T1182 613T1198 613T1212 613Q1269
613 1316 568T1378 436Q1381 415 1381 393Q1381 319 1346 225Q1297 101 1178 14T958 -73Q854 -73 830 23Q823 48 823 91T844 203Q790 113 704 8Q657 -48 608 -85Q556 -124 520 -124Q449 -124 449 -38Q449 63 580 374Q662 572 662 671Q662 735 624 759T532 784Q509
784 484 779Q307 743 170 588Q102 510 76 439T47 333T43 276T51 224T81 170Q120 125 190 125Q306 125 374 246Q409 308 409 358Q409 440 336 440Q324 440 306 437T289 441T316 456T368 464Q420 464 444 424Q459 399 459 365T440 286Q389 169 257 114Q222 99 192
99Q94 99 36 169Q-5 217 -16 293Q-18 308 -18 324Q-18 388 14 462T103 601T225 708T364 780Q440 809 505 809T623 789Q719 747 719 628Q719 530 652 378Q606 275 564 157Q504 -11 504 -62Q504 -98 529 -98Q542 -98 560 -86Q614 -54 678 35T811 242T909 400T959
440Q964 440 969 438Q982 431 982 411T977 375T925 248T874 101T869 47Z" />
<glyph unicode="X" glyph-name="X" horiz-adv-x="807" d="M1081 817Q1104 817 1104 804Q1104 793 1075 764T974 684T773 543T560 395Q559 337 559 287Q559 114 575 53Q598 -31 652 -31Q727 -31 808 92Q837 136 860 189Q867 204 876 203T877 184Q787 -5 679 -66Q638
-89 604 -89T541 -62T502 17Q496 44 496 145T498 357Q109 76 -47 -169Q-78 -220 -108 -220Q-122 -220 -122 -209Q-122 -201 -115 -189L-103 -169Q100 112 497 395Q497 421 497 505T487 658Q475 737 398 737Q304 737 196 653Q141 611 124 574Q121 571 113 574Q91
580 108 606Q117 620 166 660T294 744T432 788Q494 788 520 738Q548 687 552 630Q559 550 559 505T559 450T559 433Q617 474 731 551T905 672T1008 759Q1012 763 1019 769T1029 780T1038 789T1047 797T1055 804T1063 810T1070 814Q1078 817 1081 817Z" />
<glyph unicode="Y" glyph-name="Y" horiz-adv-x="959" d="M983 483Q1001 483 1001 453T982 338T914 108T814 -128Q829 -127 867 -126T930 -124T989 -118T1046 -102Q1099 -77 1108 -28Q1106 -15 1109 -14T1115 -17Q1122 -30 1122 -45T1106 -86T1043 -132T799 -154Q751
-226 678 -281T522 -367T384 -398T288 -385Q213 -360 213 -309Q213 -243 334 -193Q489 -129 766 -129Q864 111 903 258Q812 62 700 -14Q641 -54 586 -54T501 -24T470 58Q470 167 618 408Q664 483 692 560Q724 645 724 706T685 793T589 819Q567 819 542 814Q362
780 217 627Q144 550 110 469Q75 382 75 320Q75 294 82 272Q102 199 161 172Q191 159 223 159Q334 159 412 283Q456 354 456 407Q456 476 394 476Q382 476 365 473T347 475Q346 483 370 489T416 495Q468 495 486 451Q494 432 494 410Q494 366 463 308Q402 197 284
148Q248 133 218 133Q121 133 66 203Q18 262 18 338T55 490T151 630T279 738T422 811Q501 842 567 842T684 822Q737 798 759 758T781 672Q781 559 698 421Q569 201 542 79Q538 58 538 35T553 -8T597 -28Q638 -28 686 7Q743 47 800 138Q895 290 943 449Q946 465
961 474T983 483ZM267 -319Q267 -327 271 -335Q292 -369 367 -369T511 -344T645 -271T752 -154Q490 -154 350 -235Q267 -283 267 -319Z" />
<glyph unicode="Z" glyph-name="Z" horiz-adv-x="677" d="M867 685Q962 760 1018 760Q1034 760 1047 754Q1076 742 1076 716T1046 661Q1028 646 987 646T884 661Q835 616 708 448Q626 339 600 309T552 258T515 220T476 182T441 150T405 119T374 93T343 67T317
46Q591 -73 698 -94Q737 -101 778 -101T861 -95T936 -63T974 -5T990 28Q999 28 999 13T998 -17T986 -52T953 -97T880 -140Q828 -158 762 -158T579 -111T377 -16L292 32Q191 -40 119 -40Q105 -40 92 -37Q32 -23 16 29Q11 44 11 58Q11 88 35 114T105 140Q127 140
154 133Q206 119 297 61Q557 365 635 460Q736 579 848 670Q699 711 568 711Q498 711 430 698Q384 686 348 658Q305 623 305 588T350 521Q373 505 361 501T338 502Q321 506 301 528Q271 563 271 604Q271 651 306 693Q328 720 376 740Q439 766 523 766Q580 766 635
753T719 731T799 707T867 685ZM899 676Q954 660 984 660T1030 670T1047 710Q1047 718 1041 729T1017 741Q976 741 899 676ZM62 73Q56 62 56 47T76 12T144 -8Q180 -8 218 7T278 42Q258 58 248 65Q176 105 128 105T62 73Z" />
<glyph unicode="[" glyph-name="bracketleft" horiz-adv-x="585" d="M164 24L236 28Q278 28 278 6T158 -17T38 28Q38 143 140 336T339 642Q363 670 378 684Q415 718 472 718H492Q583 718 583 682Q583 664 568 664H558L484 668Q446 668 437 663Q389 639 307 516T161
259T97 68Q97 24 164 24Z" />
<glyph unicode="\" glyph-name="backslash" horiz-adv-x="867" d="M69 761Q61 761 46 755T27 747L20 754Q32 790 92 790Q226 790 433 513Q464 472 531 380T635 236Q735 100 850 -19Q858 -29 859 -34L852 -40Q763 -13 548 266Q460 381 371 494T201 684T69 761Z" />
<glyph unicode="]" glyph-name="bracketright" horiz-adv-x="556" d="M453 669L342 665L339 667Q352 716 485 716Q506 716 517 714T538 701T548 670Q548 527 463 330T275 29Q254 8 219 -3T159 -15T81 -17T17 -12Q25 27 99 27L117 26Q147 26 186 36T251 77Q328
163 408 346T489 635Q489 650 486 665Q475 669 453 669Z" />
<glyph unicode="^" glyph-name="asciicircum" horiz-adv-x="370" d="M403 391Q403 382 386 382T323 416T260 474Q141 389 124 386L118 393Q120 406 192 460T282 516L288 513Q329 456 398 399L403 391Z" />
<glyph unicode="_" glyph-name="underscore" horiz-adv-x="806" d="M219 -67L25 -73Q17 -73 13 -63T8 -44Q8 -25 25 -25H765Q776 -25 784 -33T793 -53L786 -60Q550 -60 219 -67Z" />
<glyph unicode="`" glyph-name="grave" horiz-adv-x="211" d="M193 408Q193 399 183 399Q177 399 115 432T46 468Q9 486 9 510T28 534Q41 534 117 474T193 408Z" />
<glyph unicode="a" glyph-name="a" horiz-adv-x="350" d="M343 253T310 190T271 95T264 44T279 24Q298 24 326 59Q367 110 407 192Q411 201 416 202Q424 205 424 196Q424 191 421 184Q329 -2 266 -2Q237 -2 219 26Q210 41 210 66T220 127Q140 -2 82 -2Q66 -2 53
8Q23 29 23 80Q23 178 108 279Q156 335 226 352Q245 357 262 357Q308 357 340 325Q350 314 346 304T329 296Q318 332 281 332Q238 332 175 264Q139 224 108 170Q69 105 69 66T94 27Q154 27 251 211Q270 248 283 261T316 275Q320 275 336 272T361 271Q343 253 310
190Z" />
<glyph unicode="b" glyph-name="b" horiz-adv-x="345" d="M308 272Q308 329 261 329Q257 329 253 329Q235 327 232 336T241 348T267 349Q319 341 338 300Q351 275 351 251Q351 165 288 82Q225 -2 125 -2Q88 -2 65 19T42 75Q42 117 90 217Q8 62 -16 39Q-26 30 -26
45Q-26 48 -24 52Q11 98 115 302T262 569Q296 618 328 618Q328 618 329 618H334Q335 618 351 615T376 614Q343 579 272 474Q96 213 96 84Q96 31 130 24Q133 23 137 23Q168 23 214 78T291 205Q308 242 308 272Z" />
<glyph unicode="c" glyph-name="c" horiz-adv-x="260" d="M241 230Q276 272 276 301T252 330Q205 330 145 244Q126 217 108 173T90 94T104 36T149 14T206 28T255 74T291 127T324 190Q331 204 336 202T341 195T328 162T301 108T262 52Q217 -4 139 -4Q83 -4 59 23T34
87Q34 131 55 183T105 273Q163 352 239 352Q276 352 292 335T309 294Q309 260 281 236Q267 223 258 223T241 230Z" />
<glyph unicode="d" glyph-name="d" horiz-adv-x="367" d="M268 58Q268 26 294 26Q341 26 419 183Q422 189 424 195T432 203T440 201T438 186Q358 0 276 0Q249 0 233 24T217 71T222 115Q164 19 122 6Q110 1 99 1T76 4Q27 17 27 82Q27 126 49 179T113 282T212 348Q233
355 261 355T325 337Q393 465 441 574Q455 607 468 616T493 626T507 626T526 624T552 622Q529 601 430 418Q304 184 278 106Q268 77 268 58ZM317 321Q304 334 281 334T215 299Q148 243 104 161Q75 107 75 72Q75 56 81 43T102 30Q136 30 186 100T317 321Z" />
<glyph unicode="e" glyph-name="e" horiz-adv-x="246" d="M101 154Q87 120 87 78Q87 50 99 34T135 17Q226 17 300 188Q307 204 317 202Q321 201 321 197T299 145T253 66Q202 -4 127 -4Q87 -4 59 22T31 93T52 188T111 282T196 346Q219 356 240 356T279 344Q296
330 296 313Q296 253 224 198Q202 181 162 168T101 154ZM269 314Q269 334 253 334Q225 334 168 265Q134 223 108 171Q125 171 157 183T214 215Q269 262 269 314Z" />
<glyph unicode="f" glyph-name="f" horiz-adv-x="198" d="M-62 -348Q-117 -348 -117 -293Q-117 -214 -14 29Q-26 49 -26 62Q-26 104 -7 118Q7 130 16 130T29 129Q143 386 234 556Q252 592 271 609T319 626Q323 626 339 623T363 621Q316 577 231 427T70 106Q93
78 102 31L105 18Q107 18 108 18Q135 18 165 49T214 114T245 173T260 201T265 203T270 201T272 196T270 188Q187 -1 107 -1Q108 -17 108 -53T90 -162T30 -291T-62 -348ZM-63 -293Q-63 -322 -47 -322Q-28 -322 5 -278T62 -156T86 -15Q86 -10 86 -5Q81 -5 77 -5Q48
-5 28 11Q-63 -219 -63 -293ZM78 14H84Q81 57 60 83L38 33Q48 14 78 14Z" />
<glyph unicode="g" glyph-name="g" horiz-adv-x="392" d="M-12 -316Q-106 -316 -106 -239Q-106 -175 -19 -124Q55 -81 170 -43Q223 -26 247 -16Q273 60 273 150Q273 168 271 177Q243 120 194 60Q136 -12 79 4Q27 26 27 90Q27 176 113 279Q160 335 223 350Q240
355 257 355Q302 355 345 325Q361 312 361 303T355 286T343 283T334 296Q321 333 292 333Q239 333 173 259Q136 217 109 169Q76 109 76 77T96 33Q103 30 110 30Q133 30 167 61T231 141T269 217T288 251T314 259T333 264Q341 219 341 159T320 21Q366 54 385 80T416
127T437 168T449 195T459 202T466 196Q466 191 463 184Q419 93 390 53T309 -12Q285 -80 240 -147T125 -265T-12 -316ZM-85 -258Q-85 -296 -36 -296Q-7 -296 29 -279T90 -244Q131 -211 180 -146Q217 -94 237 -45L202 -57Q46 -111 -18 -153Q-65 -184 -80 -232Q-85
-247 -85 -258Z" />
<glyph unicode="h" glyph-name="h" horiz-adv-x="332" d="M235 45Q235 17 255 17Q302 17 388 193Q395 207 400 204T406 196T395 168T372 123T338 66Q292 -4 240 -4Q206 -4 186 24Q177 37 177 59T187 114T242 218Q253 236 253 246T236 257T171 212Q99 146 31 14Q24
-1 -6 -1Q-33 -3 -40 -7Q150 388 235 544Q254 579 268 593T303 607Q308 607 324 605T348 603Q318 572 241 432T92 146Q139 205 176 238T268 300T347 330Q353 330 358 328Q235 112 235 45Z" />
<glyph unicode="i" glyph-name="i" horiz-adv-x="174" d="M180 377T163 377T136 389T128 418Q131 435 145 447T176 459T203 447T211 418T194 389ZM96 22Q115 22 136 41Q173 78 230 192Q237 207 244 201Q246 199 246 195T238 173T224 141T199 96T165 47Q124 0 88
0T35 22T19 71T32 130L96 293Q98 299 98 309T86 335L141 336Q164 336 168 328T162 301L82 114Q65 77 65 51Q65 22 96 22Z" />
<glyph unicode="j" glyph-name="j" horiz-adv-x="177" d="M103 293Q106 299 106 309T93 335L148 336Q171 336 175 328T169 301L89 114Q64 55 27 -18Q66 -3 84 5T127 34T171 82T234 193Q241 207 246 204T252 196T236 158T202 95T158 36T98 -12T10 -50Q-67 -190
-146 -256Q-176 -281 -217 -298T-302 -316T-371 -298T-395 -253T-380 -194Q-354 -143 -286 -112Q-235 -88 -151 -68T-43 -40Q-18 3 -14 12T59 162Q43 162 50 178L103 293ZM-361 -217Q-372 -239 -372 -257T-358 -285T-324 -296Q-266 -296 -199 -236Q-105 -152 -62
-72Q-228 -116 -269 -134Q-334 -162 -361 -217ZM180 377T163 377T137 388T128 407T129 425T145 447T176 459T202 449T212 430T210 412T194 389Z" />
<glyph unicode="k" glyph-name="k" horiz-adv-x="363" d="M314 270Q314 297 287 297Q247 297 195 252T107 156Q92 127 83 83T73 22T79 0H16Q1 0 8 26T29 84T61 155T90 217Q8 62 -16 39Q-26 30 -26 45Q-26 48 -24 52Q11 98 115 302T262 569Q296 618 328 618Q328
618 329 618H334Q335 618 351 615T376 614Q339 586 274 486T171 310T120 195Q211 308 283 335Q317 346 337 346Q381 346 381 309Q381 297 376 282Q362 244 319 214T223 178Q211 150 211 127T216 84Q228 36 261 25Q268 23 275 23Q303 23 341 58Q372 92 422 195Q429
208 433 204T437 195T422 156T380 79Q323 -7 254 -7Q212 -7 189 17Q156 51 156 106Q156 134 171 163T206 194Q209 194 212 194Q247 194 280 221T314 270Z" />
<glyph unicode="l" glyph-name="l" horiz-adv-x="212" d="M111 189T103 166T90 121T84 78T94 38T126 19Q162 19 196 67T268 191Q276 205 283 202Q288 198 285 192T273 164T259 134T243 104T223 72T200 45T172 20Q137 -2 106 -2T58 11T38 40T34 68T35 99Q38 131
47 161T58 195Q81 278 123 376T195 523T242 591Q276 627 309 627Q332 627 340 594Q341 588 341 579Q341 545 317 493Q231 302 112 193Q111 189 103 166ZM171 277T221 356T294 490T318 566T311 586Q301 586 273 547T198 405T120 225Q171 277 221 356Z" />
<glyph unicode="m" glyph-name="m" horiz-adv-x="507" d="M530 328Q408 111 408 48Q408 20 427 20Q451 20 482 56Q529 113 564 193Q570 207 576 204T582 196T572 171T556 139T530 93T495 43T458 12T407 -4T358 24Q349 37 349 59T359 114T414 218Q425 236 425 246T409
257T349 217T259 109T202 0Q185 0 177 14T169 38Q169 79 224 194Q242 232 243 245T240 259T227 256Q209 247 172 212Q102 148 34 17Q29 6 22 4T-8 0T-37 -5Q-19 30 26 126Q107 298 134 324Q146 336 167 336Q171 336 187 333T212 332Q175 312 91 144Q138 202 158
220T189 247T204 261T220 275T236 289T252 302T267 312T282 321T296 327T309 329T320 328Q340 320 340 303Q340 288 306 226T262 144Q306 199 346 234T440 300T520 330Q526 330 530 328Z" />
<glyph unicode="n" glyph-name="n" horiz-adv-x="335" d="M359 328Q236 112 236 46Q236 20 255 20Q306 20 392 193Q398 207 404 204T410 196T406 184Q353 77 317 37T244 -4T188 24Q178 37 178 59T188 114T243 218Q254 236 254 246T237 257T172 212Q100 146 33
14Q27 4 20 2T-10 -2T-39 -7Q-23 25 24 124Q108 299 134 324Q146 336 167 336Q171 336 187 333T212 332Q175 312 91 144Q138 202 176 236T269 300T348 330Q354 330 359 328Z" />
<glyph unicode="o" glyph-name="o" horiz-adv-x="335" d="M239 350Q312 350 312 258Q312 216 290 168Q262 103 206 50Q219 25 253 25Q280 25 304 52Q334 83 347 106T366 141T381 172T393 197T400 202Q410 203 410 195Q410 192 408 188L402 174Q396 160 393 154T383
133T370 108T355 84T338 60T319 40T298 23Q273 8 251 8Q210 8 187 34Q141 0 102 0Q29 0 29 92Q29 134 51 182Q81 252 135 301T239 350ZM250 319Q223 319 186 283T120 185Q85 113 85 67T120 21Q145 21 176 48Q160 71 160 97Q162 140 195 140Q208 140 216 131T225
115T223 99Q240 124 262 170Q287 221 287 270T250 319Z" />
<glyph unicode="p" glyph-name="p" horiz-adv-x="336" d="M357 272Q357 228 334 175T271 73T172 6Q150 0 122 0T59 18L-36 -219Q-51 -251 -64 -261T-89 -271T-103 -271T-121 -268T-145 -266Q-123 -245 -34 -67T68 174Q57 158 47 157Q41 157 47 168T67 213Q85 256
85 292T71 335Q131 345 141 345T153 336T156 318Q156 257 128 182L148 214Q184 272 200 289T236 324Q265 352 292 352Q300 352 307 350Q357 337 357 272ZM309 282Q309 298 303 311T282 325Q247 325 201 260T67 33Q80 20 103 20T168 55Q235 111 280 194Q309 248
309 282Z" />
<glyph unicode="q" glyph-name="q" horiz-adv-x="342" d="M102 -257Q89 -238 89 -221T122 -129T200 37T259 158Q244 131 189 56Q142 1 98 1Q88 1 78 4Q27 26 27 90Q27 176 113 279Q160 335 223 350Q240 355 257 355Q302 355 344 325Q361 312 361 303T357 289Q349
277 339 287Q336 290 334 296Q320 334 293 334T232 310Q166 264 121 187T76 71Q76 42 96 33Q101 31 107 31Q156 31 255 195Q283 240 293 248T313 257T325 257T343 255T366 253Q312 170 225 -33T131 -287Q127 -280 116 -270T102 -257Z" />
<glyph unicode="r" glyph-name="r" horiz-adv-x="260" d="M191 401Q191 356 134 316Q154 315 187 315T272 320Q274 317 274 304T262 266T241 222T223 187T204 146T186 102Q161 26 194 26Q236 26 318 193Q325 206 329 203T334 196T321 165T293 110T246 45Q208 -1
173 -1Q134 -1 119 46Q116 55 116 73T127 121T164 194T192 244T195 259Q195 290 115 292L103 260Q40 95 -18 39Q-28 30 -28 45Q-28 48 -26 52Q30 126 71 227T128 419Q134 450 156 450T188 422Q191 413 191 401Z" />
<glyph unicode="s" glyph-name="s" horiz-adv-x="256" d="M142 19Q155 17 160 17Q200 17 239 64Q260 90 314 195Q316 200 321 200Q330 201 330 193Q330 191 326 182T317 163T304 135T289 106T272 79T252 54L231 32Q214 15 191 8Q154 -4 119 6Q96 -4 78 -4Q7 -4
-8 52Q-11 65 -11 83T1 119T28 137Q79 234 115 312Q155 397 208 397Q222 397 235 391T246 376T231 373T212 378T198 375Q164 359 164 306Q164 278 172 260T190 221Q213 169 213 136Q213 103 192 71T142 19ZM108 26Q152 60 152 136Q152 167 145 221T138 294T139
320Q63 168 45 135Q66 135 66 105Q66 46 108 26ZM33 53Q33 47 34 40Q42 13 71 13Q83 13 91 17Q54 40 51 92Q33 74 33 53Z" />
<glyph unicode="t" glyph-name="t" horiz-adv-x="200" d="M32 80Q32 163 112 358H60Q55 358 54 363T54 374T62 380H122Q158 459 189 512T246 583T283 602T300 600Q323 589 323 555T300 471T255 380H303Q308 380 309 375T309 364T301 358H243Q188 265 110 193L87
91Q84 78 84 66T91 40T113 27Q130 27 151 39Q199 75 257 190Q261 199 266 201T273 199T270 184Q237 115 218 86Q164 -1 103 -1Q72 -1 52 22T32 80ZM233 380Q299 498 299 544Q299 564 292 564Q281 564 259 532T183 380H233ZM220 358H173Q161 330 119 225Q173 281
220 358Z" />
<glyph unicode="u" glyph-name="u" horiz-adv-x="357" d="M22 58Q22 101 59 162Q43 162 50 178L68 213Q102 278 124 323Q134 344 163 344H224Q188 318 152 244T95 127T75 62T82 31T103 22Q122 22 156 62Q209 124 305 323Q316 344 344 344H398Q376 327 364 309T329
245Q269 125 262 86Q259 72 259 60Q259 28 281 26Q335 26 414 193Q420 207 426 204T432 196T423 173T406 138T380 92T347 45Q308 1 271 1T219 34Q213 49 213 72T223 129Q150 1 88 1Q34 1 25 46Q22 51 22 58Z" />
<glyph unicode="v" glyph-name="v" horiz-adv-x="262" d="M323 349L318 331Q267 172 224 99Q161 -7 92 -7Q36 -7 36 47Q36 88 66 174Q56 158 51 163T48 177L66 211Q85 250 85 289T69 335Q129 345 139 345T151 336T154 318Q154 257 123 174T91 63T100 30T118 25Q144
25 177 67T243 191Q229 223 229 247T235 291Q253 348 292 362Q300 365 307 365Q323 365 323 349Z" />
<glyph unicode="w" glyph-name="w" horiz-adv-x="476" d="M503 349L498 332Q454 186 418 118Q353 -2 276 -2Q240 -2 227 16T213 50T211 76Q211 103 220 135Q146 0 87 0Q65 0 47 12T25 46Q22 51 22 58Q22 101 59 162Q43 162 50 178L68 213Q117 309 124 323Q134
344 163 344H224Q188 318 152 244T96 127T76 63T83 31T103 21T132 37T163 73T191 116T218 161T244 211T266 256Q295 314 298 323Q307 344 336 344H397Q395 342 386 336Q366 323 357 307Q312 232 294 186Q254 84 254 55Q254 19 281 18Q283 18 286 18Q358 18 428
192Q414 222 414 247T420 292Q437 350 474 363Q481 366 487 366Q503 366 503 349Z" />
<glyph unicode="x" glyph-name="x" horiz-adv-x="333" d="M171 205Q181 258 181 283T161 308T115 266Q108 255 83 208T52 149T41 143T44 164Q102 286 130 312Q158 335 181 335Q183 335 186 335Q232 330 232 265Q232 241 226 209Q253 260 288 303T345 353Q351 354
359 354T378 348T386 326T371 301T342 291T320 308Q289 279 258 230T212 134Q209 113 209 95T212 60Q220 29 239 25Q246 23 256 23T282 31T320 70Q352 117 368 149T387 185T390 192Q398 207 402 203T407 196T406 188T388 152T366 108T343 71T311 32Q271 0 234 0T177
29T158 91Q158 111 159 118Q80 -35 5 -35Q-16 -35 -31 -20Q-33 -17 -33 -14T-32 -7T-25 -2T-13 -6T7 -12T37 -4Q68 11 109 74T171 205Z" />
<glyph unicode="y" glyph-name="y" horiz-adv-x="399" d="M-82 -316Q-126 -316 -150 -298T-174 -253T-159 -194Q-133 -143 -65 -112Q-14 -88 70 -68T178 -40Q214 23 264 185Q206 83 167 42T88 1Q34 1 25 46Q21 53 23 67T25 87T32 106T40 126Q51 149 59 162Q43
162 50 178L68 213Q102 278 124 323Q134 344 163 344H224Q222 342 214 336Q196 324 187 308Q151 246 97 131Q75 84 75 62T82 31T103 22Q122 22 156 62Q227 145 313 323Q324 344 352 344H406Q380 326 365 299T333 224T289 99T248 -18Q342 10 392 81Q414 112 455
191Q462 205 467 202T473 194T457 156T423 94T379 35T319 -12T231 -50Q154 -190 76 -256Q3 -316 -82 -316ZM-140 -217Q-151 -239 -151 -257T-137 -286T-102 -296Q-44 -296 22 -237T138 -109L160 -72Q-5 -115 -48 -134Q-112 -162 -140 -217Z" />
<glyph unicode="z" glyph-name="z" horiz-adv-x="341" d="M-106 -310Q-149 -310 -171 -284T-194 -231T-178 -179T-137 -136T-89 -105T-25 -77T40 -54T112 -31T177 -11Q195 47 195 77Q195 129 166 129Q162 129 158 128Q110 103 101 110Q96 114 97 120T106 128Q174
149 218 216Q231 236 231 253T217 286T187 302Q137 302 104 245Q76 198 51 145Q45 131 38 135T39 156Q92 260 98 270Q143 352 221 352Q256 352 274 326Q284 312 284 285T258 218T186 151Q187 151 188 151Q253 151 255 86Q255 48 244 13Q320 28 398 192Q402 201
408 202Q415 205 415 196Q415 185 389 138T340 60Q298 0 238 -12Q199 -119 123 -195T-60 -303Q-85 -310 -106 -310ZM-153 -211Q-159 -230 -159 -250T-144 -279T-116 -288Q-68 -288 -11 -252T95 -159T168 -36Q147 -43 102 -56T31 -77Q-39 -99 -80 -123Q-134 -154
-153 -211Z" />
<glyph unicode="{" glyph-name="braceleft" horiz-adv-x="369" d="M421 726Q432 726 432 722T427 710T416 703Q343 703 315 678T272 592T242 467T200 368Q162 321 67 304Q147 289 170 250Q180 233 180 208T176 157T168 108Q161 75 147 18Q141 -13 141 -40T154
-83Q176 -109 244 -109Q254 -108 251 -119T241 -131H236Q138 -131 105 -96Q88 -77 88 -37T93 31T110 105T124 167T128 212Q128 261 80 282Q58 291 15 291Q8 291 8 296T21 318Q106 327 136 353Q168 377 183 454Q185 463 191 498T203 554T218 605Q236 664 271 691Q318
726 417 726H421Z" />
<glyph unicode="|" glyph-name="bar" horiz-adv-x="485" d="M264 -231H221V749H264V-231Z" />
<glyph unicode="}" glyph-name="braceright" horiz-adv-x="485" d="M484 299Q484 293 468 277Q394 277 349 242Q300 205 272 76Q261 29 238 -21T178 -97Q129 -131 31 -131H26Q19 -130 19 -126Q19 -109 34 -109Q107 -109 140 -82Q183 -48 212 69Q223 113 244 161T293
235Q336 273 423 290Q348 303 327 344Q320 357 320 377T323 416T332 459T344 502Q362 560 370 587T378 637T370 672Q352 699 280 699Q272 699 272 704T286 722H291Q394 722 420 687Q433 670 433 648T428 592T404 508Q371 425 371 375Q371 350 381 337Q400 312 477
304Q484 304 484 299Z" />
<glyph unicode="~" glyph-name="asciitilde" horiz-adv-x="485" d="M360 414Q338 414 296 432Q249 453 224 453T181 420Q179 413 163 418Q158 420 158 422Q200 497 250 497Q273 497 315 480T368 462T384 461Q415 461 432 496Q433 499 438 499Q451 499 453 494Q414
414 360 414Z" />
<glyph unicode="&#xa0;" glyph-name="nbspace" horiz-adv-x="259" />
<glyph unicode="&#xa1;" glyph-name="exclamdown" horiz-adv-x="401" d="M-6 -298L-37 -297L-42 -295L-44 -289Q-35 -265 124 -30T291 215L301 214L300 207L46 -277Q35 -298 -6 -298ZM325 336T342 336T368 326T377 307Q377 280 361 267T328 254T302 264T293 283T295
301T311 324Z" />
<glyph unicode="&#xa2;" glyph-name="cent" horiz-adv-x="316" d="M149 548Q91 469 91 394T146 318Q197 318 257 392Q265 403 269 394T269 379Q215 304 141 301Q139 296 124 262Q61 114 61 59Q61 26 82 22Q96 19 92 11T82 3T73 4Q35 17 35 67Q35 121 94 254Q111
291 114 301Q67 305 48 339Q33 364 33 385T37 435T59 509T103 583T165 635T233 657Q235 657 236 657H242Q282 756 311 826Q319 845 327 845Q330 845 334 841T338 831T336 819T323 788T297 725T267 652Q291 645 305 625T319 578T304 534T267 515T232 528T218 562T231
595T262 608Q275 608 286 602T299 590Q302 606 294 618Q284 633 265 633T212 611T149 548Z" />
<glyph unicode="&#xa3;" glyph-name="sterling" horiz-adv-x="573" d="M303 240L296 237Q291 237 291 246T294 258Q322 272 360 272T420 269Q602 587 746 587Q775 587 796 573T818 524T779 440T698 360Q693 355 687 355T681 359T687 367Q804 464 804 532Q804 565
766 565Q718 565 669 525T588 440T538 353T496 259Q518 256 537 256T572 259Q587 264 591 264T595 254T592 243Q571 235 548 235T485 239Q403 82 279 11Q310 -11 375 -38T471 -73T537 -81T611 -61T649 3Q649 8 653 8T657 1V-1Q652 -49 613 -69T527 -90T437 -81T322
-46T226 -7Q183 -27 144 -27T64 -8T24 42T48 88T100 104T160 90T206 66T256 29Q295 61 320 101T354 153T384 206T409 249Q387 251 366 251T321 246L303 240ZM76 80T63 80T41 73T32 52Q32 24 60 5Q94 -18 135 -18T211 2Q133 54 105 67Z" />
<glyph unicode="&#xa4;" glyph-name="currency" horiz-adv-x="671" d="M169 260Q169 323 214 368L110 530L264 406Q309 430 356 430T436 406L654 536L471 365Q484 343 484 315Q484 261 439 211L545 47L389 174Q346 150 300 150T217 173L1 42L181 212Q169 235 169
260ZM282 186T322 186T395 216T428 290T399 363T330 392T258 362Q226 332 226 288T254 215Z" />
<glyph unicode="&#xa5;" glyph-name="yen" horiz-adv-x="722" d="M132 551T108 515T84 444T110 363Q110 356 103 356Q101 356 98 359Q72 394 72 439T99 524T168 564Q227 564 272 512Q353 416 360 277L380 308Q380 315 388 324T404 345T419 371T440 404T464 442T506
497T557 556T609 597T663 615T708 595T728 552T721 529T713 536L715 548Q715 569 699 585T662 602Q589 602 442 343Q436 333 434 329H538Q540 329 540 325T534 314T522 307H422L369 213H470Q473 213 473 209T466 198T455 191H355Q269 62 206 11Q137 -44 69 -44Q50
-44 50 -38T64 -31Q130 -31 204 57Q256 120 304 191H77Q74 191 74 195T81 206T92 213H319L324 221Q324 256 317 307H176Q173 307 173 310T179 321T191 329H314Q303 393 270 464Q253 502 226 526T166 551Z" />
<glyph unicode="&#xa6;" glyph-name="brokenbar" horiz-adv-x="485" d="M428 749L334 322L286 327L376 749H428ZM311 216L220 -231H168L264 220L311 216Z" />
<glyph unicode="&#xa7;" glyph-name="section" horiz-adv-x="944" d="M613 -41Q637 -78 637 -114T616 -186Q572 -258 474 -293Q391 -322 298 -322T152 -297T86 -220Q84 -210 84 -200Q84 -161 120 -130Q145 -110 187 -98Q205 -93 207 -102Q209 -115 182 -118Q134
-124 123 -166Q120 -177 120 -187Q120 -222 152 -253Q198 -297 279 -297Q350 -297 436 -266Q481 -250 514 -222Q565 -178 565 -134Q565 -75 490 -28Q462 -11 378 27T254 90Q195 126 173 167T150 243Q150 293 183 345Q241 438 353 505Q378 520 407 532Q382 569 382
605T404 677Q448 750 546 785Q629 814 722 814T868 789T934 712Q936 702 936 692Q936 653 900 622Q875 602 833 590Q815 585 813 594Q811 607 838 610Q886 616 897 658Q900 669 900 679Q900 714 868 745Q822 789 741 789Q670 789 584 758Q539 742 506 714Q455 670
455 626Q455 567 530 520Q558 503 642 465T766 402Q825 366 847 325T870 249Q870 199 837 147Q779 54 667 -13Q636 -32 613 -41ZM230 262Q230 194 291 142Q324 116 425 73T552 13T592 -17L611 -8Q740 60 778 168Q790 200 790 230Q790 298 729 350Q696 376 594 420Q460
477 428 509L409 500Q280 432 242 324Q230 292 230 262Z" />
<glyph unicode="&#xa8;" glyph-name="dieresis" horiz-adv-x="278" d="M214 497T223 488T233 465T224 441T201 431T177 440T167 463T176 487T199 497ZM85 497T94 488T104 465T95 441T72 431T48 440T38 463T47 487T70 497Z" />
<glyph unicode="&#xa9;" glyph-name="copyright" horiz-adv-x="717" d="M68 231Q68 139 136 69T316 -2Q444 -2 540 82Q651 180 651 313Q651 406 583 477T400 548Q275 548 179 463Q68 365 68 231ZM535 563T615 488T696 314Q696 175 572 74Q461 -16 323 -16T105
58T24 234Q24 372 147 472Q260 563 397 563ZM399 326Q429 359 429 391Q429 413 409 413Q367 413 318 341T269 206Q269 177 281 158T320 139Q378 139 426 211Q432 219 437 220T444 216T441 203Q392 124 311 124Q263 124 242 148T221 203Q221 240 239 285T282 363Q333
432 397 432Q429 432 443 417T457 380Q457 352 434 330Q422 320 414 320T399 326Z" />
<glyph unicode="&#xaa;" glyph-name="ordfeminine" horiz-adv-x="374" d="M149 486Q109 421 80 421Q69 421 60 432T50 463Q50 510 93 562Q126 601 170 601Q193 601 209 585Q214 580 212 575T204 571Q198 589 185 589Q143 589 95 512Q73 475 73 456T86 436Q115
436 165 528Q177 551 184 556T196 561T208 559T220 558Q211 550 194 518Q171 473 171 454T178 435Q178 435 179 435Q200 435 243 519Q247 528 249 525T252 520T250 515Q203 422 172 422Q157 422 151 432T144 455T149 486Z" />
<glyph unicode="&#xab;" glyph-name="guillemotleft" horiz-adv-x="451" d="M477 297Q461 272 390 222T316 170L315 34L310 24L303 21L295 24Q284 44 272 107T257 179Q261 181 316 216Q461 307 470 307L476 304L477 297ZM333 297Q317 270 218 202Q173 172 171
170L170 34L165 24L158 21Q153 21 150 24Q136 60 126 111T112 179Q116 181 171 216Q314 307 325 307L332 304L333 297Z" />
<glyph unicode="&#xac;" glyph-name="logicalnot" horiz-adv-x="808" d="M591 14Q583 14 577 21T572 36L613 229H91Q71 229 71 242Q71 251 82 264T101 277H669L618 36Q615 14 591 14Z" />
<glyph unicode="&#xad;" glyph-name="uni00AD" horiz-adv-x="406" d="M147 221Q147 242 164 242Q229 242 384 238Q401 237 405 225Q403 213 388 211Q310 211 237 203T163 194Q157 194 152 203T147 221Z" />
<glyph unicode="&#xae;" glyph-name="registered" horiz-adv-x="717" d="M535 563T615 488T696 314Q696 175 572 74Q461 -16 323 -16T105 58T24 234Q24 372 147 472Q260 563 397 563ZM68 231Q68 139 136 69T316 -2Q444 -2 540 82Q651 180 651 313Q651 406 583
477T400 548Q275 548 179 463Q68 365 68 231ZM308 172Q266 125 194 125T122 171Q122 192 146 204Q159 210 176 210T213 203Q220 200 217 198T205 199T181 203T157 191T149 169T159 149Q170 139 192 139T236 149T280 184Q314 224 335 263T374 332T400 378Q427 424
449 448Q426 450 388 450T297 439T213 403T175 348Q174 341 174 329T186 304T220 290Q245 290 263 308T281 334T283 342Q287 342 285 328T270 303Q247 279 219 279T172 295T154 340Q154 381 194 414T291 455T387 463T458 458Q469 469 472 469Q476 469 473 456Q477
455 492 453T514 448Q582 428 582 387Q582 350 526 323Q474 299 406 299Q418 226 452 175Q473 143 491 143Q529 143 563 220Q568 228 570 227T571 220Q541 159 525 143T481 126Q438 126 412 171Q392 206 384 270Q382 286 382 287Q343 209 308 172ZM534 364Q547
383 547 398T536 423T513 435T476 443Q427 361 404 312L452 317Q505 324 534 364Z" />
<glyph unicode="&#xaf;" glyph-name="overscore" horiz-adv-x="485" d="M409 441L397 411H183L196 441H409Z" />
<glyph unicode="&#xb0;" glyph-name="degree" horiz-adv-x="323" d="M189 752T208 733T227 688T208 643T162 624T117 642T99 687T118 733T163 752ZM180 639T194 654T208 687T195 719T163 733T130 720T116 683T132 650T164 639Z" />
<glyph unicode="&#xb1;" glyph-name="plusminus" horiz-adv-x="458" d="M165 291L304 288Q309 306 321 359T338 431Q345 454 360 454Q371 454 366 432T337 287H467Q478 287 481 282T485 273Q485 260 464 260Q463 260 331 254Q328 236 322 206Q309 131 308 117Q306
106 284 101Q278 100 273 100Q259 100 259 112Q259 117 295 252Q271 250 220 248T153 243Q143 242 142 262Q145 288 165 291ZM149 70L409 62Q426 62 430 49Q430 47 430 45Q430 36 413 35Q260 35 149 22Q148 22 148 22Q142 22 137 31T132 49Q132 70 149 70Z" />
<glyph unicode="&#xb2;" glyph-name="twosuperior" horiz-adv-x="317" d="M13 243Q4 240 0 240T-5 243T-1 255Q2 257 47 294T106 344Q265 485 265 560Q265 580 255 587T230 590Q197 581 178 559T141 498Q135 484 126 488T120 502Q137 550 175 586T261 622Q290
622 308 607T327 568T306 512T242 440Q188 390 114 328L105 320Q116 309 137 300T174 290T214 304T250 332T266 343T261 322Q202 246 158 246Q103 246 57 277L13 243Z" />
<glyph unicode="&#xb3;" glyph-name="threesuperior" horiz-adv-x="298" d="M316 579Q316 513 197 464Q262 454 262 403Q262 344 200 294T68 243Q21 243 7 280Q4 287 4 292T17 293Q22 279 35 269T64 259Q119 259 163 309T208 410Q208 426 200 436T182 447T165
445T146 438Q112 427 111 438Q110 443 117 446Q162 455 208 492T254 575Q254 582 246 586T228 591Q191 591 149 543Q144 537 139 537T136 550Q196 624 259 624Q284 624 300 613T316 579Z" />
<glyph unicode="&#xb4;" glyph-name="acute" horiz-adv-x="267" d="M61 413Q60 413 58 414T55 419T57 426T85 449T143 490T188 522T215 533T239 528T250 516T247 502Q242 490 157 452T61 413Z" />
<glyph unicode="&#xb5;" glyph-name="mu" horiz-adv-x="324" d="M268 -8Q243 -8 230 8T216 49T226 103Q201 62 167 28T100 -6T52 22L-77 -260Q-79 -263 -95 -263T-125 -257Q-129 -253 -129 -252L64 127Q71 140 88 175T114 228Q140 280 168 322H170Q177 317 186
317Q209 317 234 338L236 336Q218 316 191 266T141 180Q82 74 82 32Q82 5 107 5Q164 5 262 180Q314 272 339 328H341Q353 321 371 321T397 341L400 340L322 189Q253 61 253 22Q253 2 270 2Q295 2 326 36Q371 87 405 163H411L413 161Q337 -8 268 -8Z" />
<glyph unicode="&#xb6;" glyph-name="paragraph" horiz-adv-x="403" d="M199 400Q185 418 185 445T199 510T248 585T325 638T432 654H604L586 604H566L345 0H278L499 604H450L229 0H162L295 363Q226 363 199 400Z" />
<glyph unicode="&#xb7;" glyph-name="middot" horiz-adv-x="261" d="M176 191T159 191T133 201T124 220Q124 247 140 260T173 273T199 263T208 244T206 226T190 203Z" />
<glyph unicode="&#xb8;" glyph-name="cedilla" horiz-adv-x="379" d="M250 -39T288 -58T326 -116T274 -191Q248 -208 207 -208T119 -197T72 -162Q72 -155 77 -155T93 -166Q117 -191 184 -191T275 -155Q289 -134 289 -111T266 -72T218 -57T168 -69T140 -81T129
-77T123 -67T128 -56T167 -25T205 1T212 -7Q211 -8 198 -16Q168 -37 168 -42Q188 -39 219 -39Z" />
<glyph unicode="&#xb9;" glyph-name="onesuperior" horiz-adv-x="246" d="M211 594Q229 615 241 616T260 617T266 613T265 601Q233 543 176 428T87 256Q79 244 49 244Q32 244 32 250L181 527Q171 519 144 503T104 478Q86 468 85 472T93 487L109 499Q137 520 211 594Z" />
<glyph unicode="&#xba;" glyph-name="ordmasculine" horiz-adv-x="273" d="M95 427Q94 427 93 427Q75 427 67 440T58 472T70 522T110 577T162 602Q163 602 164 602Q182 602 190 589T199 555T187 507T146 452Q152 440 164 440T184 443T198 454T210 468T221 485T229
501T240 525Q242 529 244 528T247 524T246 520Q220 459 200 445Q160 417 137 444Q115 427 95 427ZM155 476Q186 525 186 555T169 586Q156 586 137 568T101 515T84 459T102 438Q116 438 131 450Q123 463 123 475Q125 496 140 496T156 482Q156 481 156 479T155 476Z"
/>
<glyph unicode="&#xbb;" glyph-name="guillemotright" horiz-adv-x="451" d="M334 158L333 224Q333 292 339 303L347 307L355 303Q362 296 377 224T393 150L188 22L180 21L173 23V32Q186 54 286 124Q326 152 334 158ZM248 150L43 22L36 21Q32 21 28 23L27 27Q27
37 50 55T89 86T123 112T155 134T179 151L189 158L190 294Q191 295 192 298T195 303L203 307L212 303Q227 263 236 214T248 150Z" />
<glyph unicode="&#xbc;" glyph-name="onequarter" horiz-adv-x="622" d="M528 340Q542 363 593 363Q606 363 612 357Q611 343 424 183Q398 162 381 140L502 143Q514 168 540 218Q554 233 578 235T600 228Q600 225 598 222Q598 215 560 145H565Q582 142 583 139T583
134T580 130Q577 127 561 120H546L488 7Q483 2 468 -1T443 -4T425 -1Q425 1 454 55T487 117L340 114L344 133Q367 161 401 194L442 237Q507 311 528 340ZM545 606Q555 618 574 618T593 609Q593 605 587 598T539 537T463 442T378 336T284 222T200 123Q87 -6 64 -6Q61
-6 59 -4T65 9Q145 100 323 322T545 606ZM211 594Q229 615 241 616T260 617T266 613T265 601Q233 543 176 428T87 256Q79 244 49 244Q32 244 32 250L181 527Q171 519 144 503T104 478Q86 468 85 472T93 487L109 499Q137 520 211 594Z" />
<glyph unicode="&#xbd;" glyph-name="onehalf" horiz-adv-x="622" d="M515 606Q525 618 535 618T551 617Q569 613 560 602T509 537T433 442T348 336T254 222T170 123Q45 -20 30 -5Q29 -4 29 -1T72 51T293 322T515 606ZM254 617T259 617T266 616T265 601Q233 543
176 428T87 256Q83 250 69 247T44 244T32 250L181 527Q171 519 144 503T104 478Q86 468 85 472T93 487L109 499Q137 520 211 594Q229 615 241 616ZM304 -7Q295 -10 291 -10T286 -7T290 5Q293 7 338 44T397 94Q556 235 556 310Q556 330 546 337T520 340Q488 331
469 309T432 248Q426 234 417 238T411 252Q428 300 466 336T552 372Q581 372 599 357T618 318T597 262T532 190Q479 140 405 78L396 70Q407 59 428 50T465 40T505 54T541 82T557 93T552 72Q493 -4 449 -4Q394 -4 348 27L304 -7Z" />
<glyph unicode="&#xbe;" glyph-name="threequarters" horiz-adv-x="622" d="M528 340Q542 363 593 363Q606 363 612 357Q611 343 424 183Q398 162 381 140L502 143Q514 168 540 218Q554 233 578 235T600 228Q600 225 598 222Q598 215 560 145H565Q582 142 583
139T583 134T580 130Q577 127 561 120H546L488 7Q483 2 468 -1T443 -4T425 -1Q425 1 454 55T487 117L340 114L344 133Q367 161 401 194L442 237Q507 311 528 340ZM316 579Q316 513 197 464Q262 454 262 403Q262 344 200 294T68 243Q21 243 7 280Q4 287 4 292T17
293Q22 279 35 269T64 259Q119 259 163 309T208 410Q208 426 200 436T182 447T165 445T146 438Q112 427 111 438Q110 443 117 446Q162 455 208 492T254 575Q254 582 246 586T228 591Q191 591 149 543Q144 537 139 537T136 550Q196 624 259 624Q284 624 300 613T316
579ZM157 74T125 42T81 2T64 -6T59 -2T65 9Q145 100 323 322T545 606Q555 618 574 618T593 609Q593 605 587 598T539 537T463 442T378 336T284 222T200 123Z" />
<glyph unicode="&#xbf;" glyph-name="questiondown" horiz-adv-x="396" d="M114 -147Q78 -193 78 -230Q78 -260 112 -276Q127 -282 140 -282T170 -281T213 -266T255 -235T271 -201Q271 -198 271 -196Q266 -215 236 -232Q219 -240 208 -240T190 -236Q173 -227 173
-202T195 -160T239 -143Q273 -143 284 -171Q289 -181 289 -195T282 -229Q268 -260 218 -289Q153 -327 100 -327Q39 -327 13 -282Q6 -269 6 -253Q6 -197 72 -122Q95 -96 151 -42T240 57T296 162Q300 171 308 168T315 155Q307 120 281 75T237 6T170 -78T114 -147ZM325
336T342 336T368 326T377 307Q377 280 361 267T328 254T302 264T293 283T295 301T311 324Z" />
<glyph unicode="&#xc0;" glyph-name="Agrave" horiz-adv-x="712" d="M632 405Q654 405 654 379Q654 351 631 325Q560 247 531 90Q525 57 525 28T537 -18T566 -34Q614 -34 678 44Q735 117 765 186Q773 202 781 200T782 182Q741 91 689 22Q662 -15 622 -39T543 -64T483
-33T463 42T473 127T501 192Q400 71 286 -2Q226 -39 153 -46Q146 -47 130 -47T90 -35Q21 -6 21 102Q21 198 88 332Q127 408 176 461Q112 491 82 525Q59 549 59 584T73 629Q83 642 91 632Q95 624 90 612T85 589Q85 565 110 539Q143 503 193 481Q288 584 406 645T655
707Q730 707 773 675T817 586T746 475Q652 403 445 403Q330 403 235 434Q211 412 169 346T99 209T70 86Q70 75 71 66Q83 -17 155 -17Q236 -17 343 71Q493 197 577 351Q607 405 632 405ZM778 601Q778 640 745 661T658 683Q537 683 439 621T250 452Q334 426 443 426Q621
426 710 486Q778 532 778 601ZM750 734Q750 725 741 725Q734 725 676 755T612 789Q577 805 577 830Q577 838 582 844T597 850T678 795T750 734Z" />
<glyph unicode="&#xc1;" glyph-name="Aacute" horiz-adv-x="712" d="M796 836Q816 850 828 850T849 846T859 835T855 820T776 778T695 743T689 743Q682 747 686 755Q690 761 740 796T796 836ZM632 405Q654 405 654 379Q654 351 631 325Q560 247 531 90Q525 57
525 28T537 -18T566 -34Q614 -34 678 44Q735 117 765 186Q773 202 781 200T782 182Q741 91 689 22Q662 -15 622 -39T543 -64T483 -33T463 42T473 127T501 192Q400 71 286 -2Q226 -39 153 -46Q146 -47 130 -47T90 -35Q21 -6 21 102Q21 198 88 332Q127 408 176 461Q112
491 82 525Q59 549 59 584T73 629Q83 642 91 632Q95 624 90 612T85 589Q85 565 110 539Q143 503 193 481Q288 584 406 645T655 707Q730 707 773 675T817 586T746 475Q652 403 445 403Q330 403 235 434Q211 412 169 346T99 209T70 86Q70 75 71 66Q83 -17 155 -17Q236
-17 343 71Q493 197 577 351Q607 405 632 405ZM778 601Q778 640 745 661T658 683Q537 683 439 621T250 452Q334 426 443 426Q621 426 710 486Q778 532 778 601Z" />
<glyph unicode="&#xc2;" glyph-name="Acircumflex" horiz-adv-x="712" d="M730 850T739 850T749 847L785 741Q788 735 779 735Q769 735 765 741L719 812Q600 748 587 741Q577 732 563 736Q558 738 562 741L711 847Q730 850 739 850ZM632 405Q654 405 654 379Q654
351 631 325Q560 247 531 90Q525 57 525 28T537 -18T566 -34Q614 -34 678 44Q735 117 765 186Q773 202 781 200T782 182Q741 91 689 22Q662 -15 622 -39T543 -64T483 -33T463 42T473 127T501 192Q400 71 286 -2Q226 -39 153 -46Q146 -47 130 -47T90 -35Q21 -6 21
102Q21 198 88 332Q127 408 176 461Q112 491 82 525Q59 549 59 584T73 629Q83 642 91 632Q95 624 90 612T85 589Q85 565 110 539Q143 503 193 481Q288 584 406 645T655 707Q730 707 773 675T817 586T746 475Q652 403 445 403Q330 403 235 434Q211 412 169 346T99
209T70 86Q70 75 71 66Q83 -17 155 -17Q236 -17 343 71Q493 197 577 351Q607 405 632 405ZM778 601Q778 640 745 661T658 683Q537 683 439 621T250 452Q334 426 443 426Q621 426 710 486Q778 532 778 601Z" />
<glyph unicode="&#xc3;" glyph-name="Atilde" horiz-adv-x="712" d="M775 765Q753 765 711 783Q664 804 639 804T596 771Q594 764 578 769Q573 771 573 773Q615 848 665 848Q688 848 730 831T783 813T799 812Q830 812 847 847Q848 850 853 850Q866 850 868 845Q829
765 775 765ZM632 405Q654 405 654 379Q654 351 631 325Q560 247 531 90Q525 57 525 28T537 -18T566 -34Q614 -34 678 44Q735 117 765 186Q773 202 781 200T782 182Q741 91 689 22Q662 -15 622 -39T543 -64T483 -33T463 42T473 127T501 192Q400 71 286 -2Q226 -39
153 -46Q146 -47 130 -47T90 -35Q21 -6 21 102Q21 198 88 332Q127 408 176 461Q112 491 82 525Q59 549 59 584T73 629Q83 642 91 632Q95 624 90 612T85 589Q85 565 110 539Q143 503 193 481Q288 584 406 645T655 707Q730 707 773 675T817 586T746 475Q652 403 445
403Q330 403 235 434Q211 412 169 346T99 209T70 86Q70 75 71 66Q83 -17 155 -17Q236 -17 343 71Q493 197 577 351Q607 405 632 405ZM778 601Q778 640 745 661T658 683Q537 683 439 621T250 452Q334 426 443 426Q621 426 710 486Q778 532 778 601Z" />
<glyph unicode="&#xc4;" glyph-name="Adieresis" horiz-adv-x="712" d="M818 850T827 841T837 818T828 794T805 784T781 793T771 816T780 840T803 850ZM689 850T698 841T708 818T699 794T676 784T652 793T642 816T651 840T674 850ZM632 405Q654 405 654 379Q654
351 631 325Q560 247 531 90Q525 57 525 28T537 -18T566 -34Q614 -34 678 44Q735 117 765 186Q773 202 781 200T782 182Q741 91 689 22Q662 -15 622 -39T543 -64T483 -33T463 42T473 127T501 192Q400 71 286 -2Q226 -39 153 -46Q146 -47 130 -47T90 -35Q21 -6 21
102Q21 198 88 332Q127 408 176 461Q112 491 82 525Q59 549 59 584T73 629Q83 642 91 632Q95 624 90 612T85 589Q85 565 110 539Q143 503 193 481Q288 584 406 645T655 707Q730 707 773 675T817 586T746 475Q652 403 445 403Q330 403 235 434Q211 412 169 346T99
209T70 86Q70 75 71 66Q83 -17 155 -17Q236 -17 343 71Q493 197 577 351Q607 405 632 405ZM778 601Q778 640 745 661T658 683Q537 683 439 621T250 452Q334 426 443 426Q621 426 710 486Q778 532 778 601Z" />
<glyph unicode="&#xc5;" glyph-name="Aring" horiz-adv-x="712" d="M770 758T783 758T805 769T817 797Q818 813 810 823T789 833T766 822T755 795T762 769ZM821 849T837 835T853 799T831 759Q807 741 779 741T736 755T720 787Q720 813 742 830Q768 849 794 849ZM632
405Q654 405 654 379Q654 351 631 325Q560 247 531 90Q525 57 525 28T537 -18T566 -34Q614 -34 678 44Q735 117 765 186Q773 202 781 200T782 182Q741 91 689 22Q662 -15 622 -39T543 -64T483 -33T463 42T473 127T501 192Q400 71 286 -2Q226 -39 153 -46Q146 -47
130 -47T90 -35Q21 -6 21 102Q21 198 88 332Q127 408 176 461Q112 491 82 525Q59 549 59 584T73 629Q83 642 91 632Q95 624 90 612T85 589Q85 565 110 539Q143 503 193 481Q288 584 406 645T655 707Q730 707 773 675T817 586T746 475Q652 403 445 403Q330 403 235
434Q211 412 169 346T99 209T70 86Q70 75 71 66Q83 -17 155 -17Q236 -17 343 71Q493 197 577 351Q607 405 632 405ZM778 601Q778 640 745 661T658 683Q537 683 439 621T250 452Q334 426 443 426Q621 426 710 486Q778 532 778 601Z" />
<glyph unicode="&#xc6;" glyph-name="AE" horiz-adv-x="1373" d="M966 346L852 347Q711 347 638 278Q560 207 560 112Q560 -11 678 -63Q739 -90 840 -90T1056 -47T1241 55Q1318 121 1318 171Q1318 198 1289 205T1258 220Q1257 227 1269 227T1297 219Q1352 192
1352 147Q1352 90 1277 26Q1202 -37 1079 -75T825 -114Q634 -114 537 -17Q482 38 482 125Q482 156 495 186Q460 144 417 102T345 39T282 -4Q223 -41 152 -47Q146 -48 130 -48T90 -35Q18 -5 18 111T94 364Q134 436 182 491Q115 523 82 560Q58 587 58 625T73 673Q83
686 91 678Q97 669 92 656T86 631Q86 604 115 571T200 512Q435 773 688 773Q783 773 830 723Q905 767 986 785T1106 804Q1240 804 1300 756Q1340 722 1340 684Q1340 638 1291 596T1165 536Q1146 532 1134 532T1122 539Q1122 551 1159 555T1229 591T1273 662Q1277
674 1277 693T1258 735Q1225 778 1124 778Q1063 778 988 757T852 687Q860 666 860 646Q860 570 771 513Q779 480 807 459T870 429T937 413T990 395T1009 364Q1005 346 966 346ZM741 423T704 480Q599 442 467 442T247 470Q146 327 108 233T70 86Q70 75 71 66Q83
-17 155 -17Q236 -17 343 71Q419 135 492 223T600 378T664 445Q687 445 687 416Q687 385 662 358L657 350Q685 364 729 377T829 394Q741 423 704 480ZM803 706Q771 747 698 747T563 727T448 668T353 588T263 490Q338 466 447 466Q495 466 561 471T693 503Q689 519
689 528Q690 629 803 706ZM819 657Q772 605 769 554L768 550Q819 596 819 657Z" />
<glyph unicode="&#xc7;" glyph-name="Ccedilla" horiz-adv-x="710" d="M414 -133T452 -152T490 -210T438 -285Q412 -302 371 -302T283 -291T236 -256Q236 -249 241 -249T257 -260Q281 -285 348 -285T439 -249Q453 -228 453 -205T430 -166T382 -151T332 -163T304
-175T293 -171T287 -161T292 -149T355 -100Q289 -95 224 -68T116 19T64 148Q60 178 60 214T69 309T108 437T181 559Q164 626 164 682T177 788Q179 796 183 799T190 803Q200 803 196 779T192 709T205 593Q285 696 393 743Q476 779 567 779Q593 779 621 776Q775 759
829 658Q851 616 851 571T830 478Q786 382 679 336Q610 306 528 306Q493 306 457 311Q278 337 209 481Q185 447 160 367T130 244T126 172T130 112Q137 57 172 13T265 -49T367 -67Q506 -67 604 -9Q663 26 696 70T768 193Q774 206 780 202T780 183Q742 106 710 61T619
-25Q507 -101 384 -101Q380 -101 375 -101Q373 -103 361 -111Q332 -130 332 -136Q352 -133 383 -133ZM305 629T229 513Q300 332 525 332Q652 332 728 403T805 564T727 704Q669 741 584 741T413 692Q305 629 229 513Z" />
<glyph unicode="&#xc8;" glyph-name="Egrave" horiz-adv-x="902" d="M805 743Q805 736 796 736Q792 736 739 764T681 794Q649 808 649 829T665 850Q677 850 741 799T805 743ZM491 313L384 314Q252 314 178 250Q91 176 91 78Q91 32 112 -6T189 -70T339 -95T539
-55T716 41Q798 105 798 153Q798 176 774 181T749 194Q747 203 764 202T792 195Q837 171 837 133Q837 77 760 16T564 -81T343 -117T176 -97Q63 -62 28 32Q20 56 20 78T28 132T64 207T145 285T258 338T367 358Q316 376 282 404T248 467Q248 470 248 473Q255 550
338 611T511 696T667 720Q778 720 830 676Q863 648 863 617Q863 575 812 536T689 481Q671 477 660 477T649 483Q649 494 681 497T740 520T784 566Q803 599 803 624T780 670Q748 697 679 697T535 676T397 605Q321 546 321 476Q321 448 338 426T389 393T458 376Q534
362 534 336Q534 313 491 313Z" />
<glyph unicode="&#xc9;" glyph-name="Eacute" horiz-adv-x="902" d="M777 795T803 813T841 840T864 849T884 845T893 835T890 821T815 781T738 748T732 748Q725 752 728 757T754 778ZM491 310L384 311Q252 311 178 247Q91 173 91 75Q91 29 112 -9T189 -73T339
-98T539 -58T716 38Q798 102 798 150Q798 173 774 178T749 191Q747 200 764 199T792 192Q837 168 837 130Q837 74 760 13T564 -84T343 -120T176 -100Q63 -65 28 29Q20 53 20 75T28 129T64 204T145 282T258 335T367 355Q318 373 283 405T247 474Q247 477 247 480Q254
561 336 623T508 707T662 729Q776 729 829 683Q862 654 862 622Q862 577 811 536T686 478Q668 474 657 474T646 480Q650 492 680 495T738 520Q794 560 802 624Q802 628 802 631Q802 656 778 677Q747 705 654 705T460 656Q340 597 323 505Q321 494 321 474T338 430T389
395T458 376Q534 359 534 333Q534 310 491 310Z" />
<glyph unicode="&#xca;" glyph-name="Ecircumflex" horiz-adv-x="902" d="M491 313L384 314Q252 314 178 250Q91 176 91 78Q91 32 112 -6T189 -70T339 -95T539 -55T716 41Q798 105 798 153Q798 176 774 181T749 194Q747 203 764 202T792 195Q837 171 837 133Q837
77 760 16T564 -81T343 -117T176 -97Q63 -62 28 32Q20 56 20 78T28 132T64 207T145 285T258 338T367 358Q316 376 282 404T248 467Q248 470 248 473Q255 550 338 611T511 696T667 720Q778 720 830 676Q863 648 863 617Q863 575 812 536T689 481Q671 477 660 477T649
483Q649 494 681 497T740 520T784 566Q803 599 803 624T780 670Q748 697 679 697T535 676T397 605Q321 546 321 476Q321 448 338 426T389 393T458 376Q534 362 534 336Q534 313 491 313ZM736 814Q618 753 609 747T589 740T579 742T581 746L728 847Q746 850 756
850T766 847L801 746Q802 745 802 743T794 741T781 746L736 814Z" />
<glyph unicode="&#xcb;" glyph-name="Edieresis" horiz-adv-x="902" d="M809 850T818 841T828 818T819 794T796 784T772 793T762 816T771 840T794 850ZM680 850T689 841T699 818T690 794T667 784T643 793T633 816T642 840T665 850ZM491 315L384 316Q252 316 178
252Q91 178 91 80Q91 34 112 -4T189 -68T339 -93T539 -53T716 43Q798 107 798 155Q798 178 774 183T749 196Q747 205 764 204T792 197Q837 173 837 135Q837 79 760 18T564 -79T343 -115T176 -95Q63 -60 28 34Q20 58 20 80T28 134T64 209T145 287T258 340T367 360Q316
378 282 406T248 469Q248 472 248 475Q255 552 338 613T511 698T667 722Q778 722 830 678Q863 650 863 619Q863 577 812 538T689 483Q671 479 660 479T649 485Q649 496 681 499T740 522T784 568Q803 601 803 626T780 672Q748 699 679 699T535 678T397 607Q321 548
321 478Q321 450 338 428T389 395T458 378Q534 364 534 338Q534 315 491 315Z" />
<glyph unicode="&#xcc;" glyph-name="Igrave" horiz-adv-x="906" d="M1167 704Q1201 704 1201 673Q1201 634 1158 618Q1123 604 1082 597Q1014 471 959 275Q940 207 901 124T808 -30Q609 -285 299 -285Q155 -285 70 -222Q12 -180 -7 -110Q-14 -86 -14 -47T6 45T73
140T146 184Q156 184 158 182Q161 177 147 170Q116 157 78 112Q19 41 19 -47Q19 -114 62 -162Q116 -222 216 -244Q259 -254 282 -254T329 -254T394 -243Q477 -222 553 -175T683 -74T783 48Q861 160 901 269Q971 454 1051 592Q892 559 798 518Q702 477 650 424Q583
358 564 274Q558 250 558 230Q558 188 581 162T630 136T687 148T740 188Q773 229 773 285Q773 313 765 320Q763 323 767 329Q777 344 786 329Q799 304 799 275T780 210Q746 146 682 122Q650 110 614 110T535 143T493 235Q493 253 497 274Q554 531 1067 618Q1076
637 1099 665T1139 698T1167 704ZM1099 622Q1167 636 1164 660Q1162 672 1151 672T1099 622ZM1231 745Q1231 737 1222 737Q1218 737 1165 765T1107 795Q1076 812 1076 831T1092 850Q1103 850 1167 800T1231 745Z" />
<glyph unicode="&#xcd;" glyph-name="Iacute" horiz-adv-x="906" d="M1119 637L1077 628Q1009 502 954 306Q935 238 896 155T803 1Q604 -254 294 -254Q150 -254 65 -192Q7 -149 -12 -80Q-19 -55 -19 -16T1 76T68 171T141 215Q151 215 153 212Q156 208 142 201Q111
188 73 142Q14 72 14 -16Q14 -83 57 -131Q111 -191 210 -213Q254 -223 277 -223T324 -223T389 -212Q472 -191 548 -144T678 -43T778 78Q856 191 896 300Q966 485 1046 623Q887 590 793 550Q697 508 644 456Q578 389 559 305Q553 281 553 261Q553 219 576 193T625
167T682 179T736 219Q768 260 768 316Q768 344 760 351Q758 354 762 360Q772 375 781 360Q794 335 794 306T775 241Q741 177 677 153Q645 141 609 141T530 174T488 266Q488 284 492 305Q549 562 1062 649Q1071 668 1094 696T1134 729T1162 735Q1195 735 1196 707Q1196
677 1172 661Q1150 647 1119 637ZM1094 653Q1162 667 1159 691Q1157 703 1146 703T1094 653ZM977 729Q976 729 974 730T971 735T973 742T1001 765T1059 806T1104 838T1131 849T1155 844T1166 832T1163 818Q1158 806 1073 768T977 729Z" />
<glyph unicode="&#xce;" glyph-name="Icircumflex" horiz-adv-x="906" d="M1119 637L1077 628Q1009 502 954 306Q935 238 896 155T803 1Q604 -254 294 -254Q150 -254 65 -192Q7 -149 -12 -80Q-19 -55 -19 -16T1 76T68 171T141 215Q151 215 153 212Q156 208 142
201Q111 188 73 142Q14 72 14 -16Q14 -83 57 -131Q111 -191 210 -213Q254 -223 277 -223T324 -223T389 -212Q472 -191 548 -144T678 -43T778 78Q856 191 896 300Q966 485 1046 623Q887 590 793 550Q697 508 644 456Q578 389 559 305Q553 281 553 261Q553 219 576
193T625 167T682 179T736 219Q768 260 768 316Q768 344 760 351Q758 354 762 360Q772 375 781 360Q794 335 794 306T775 241Q741 177 677 153Q645 141 609 141T530 174T488 266Q488 284 492 305Q549 562 1062 649Q1071 668 1094 696T1134 729T1162 735Q1195 735
1196 707Q1196 677 1172 661Q1150 647 1119 637ZM1094 653Q1162 667 1159 691Q1157 703 1146 703T1094 653ZM1040 741Q1033 735 1023 735T1013 737T1015 741L1164 847Q1182 850 1192 850T1202 847L1238 741Q1239 740 1239 738T1230 735T1218 741L1172 812Q1053
748 1040 741Z" />
<glyph unicode="&#xcf;" glyph-name="Idieresis" horiz-adv-x="906" d="M1119 637L1077 628Q1009 502 954 306Q935 238 896 155T803 1Q604 -254 294 -254Q150 -254 65 -192Q7 -149 -12 -80Q-19 -55 -19 -16T1 76T68 171T141 215Q151 215 153 212Q156 208 142 201Q111
188 73 142Q14 72 14 -16Q14 -83 57 -131Q111 -191 210 -213Q254 -223 277 -223T324 -223T389 -212Q472 -191 548 -144T678 -43T778 78Q856 191 896 300Q966 485 1046 623Q887 590 793 550Q697 508 644 456Q578 389 559 305Q553 281 553 261Q553 219 576 193T625
167T682 179T736 219Q768 260 768 316Q768 344 760 351Q758 354 762 360Q772 375 781 360Q794 335 794 306T775 241Q741 177 677 153Q645 141 609 141T530 174T488 266Q488 284 492 305Q549 562 1062 649Q1071 668 1094 696T1134 729T1162 735Q1195 735 1196 707Q1196
677 1172 661Q1150 647 1119 637ZM1094 653Q1162 667 1159 691Q1157 703 1146 703T1094 653ZM1248 844T1257 835T1267 812T1258 788T1235 778T1211 787T1201 810T1210 834T1233 844ZM1119 844T1128 835T1138 812T1129 788T1106 778T1082 787T1072 810T1081 834T1104
844Z" />
<glyph unicode="&#xd0;" glyph-name="Eth" horiz-adv-x="1027" d="M694 -38Q670 -38 646 -35Q492 -16 375 36Q282 -39 169 -39Q40 -39 10 33Q3 50 3 72T26 121Q62 162 126 162Q169 162 212 147T367 72Q434 137 513 280L431 271Q424 270 418 282T415 306T431 319Q488
319 534 318Q566 381 609 459T668 558Q708 618 747 663Q635 730 509 730Q457 730 403 719Q248 686 167 584Q117 522 117 466Q117 390 190 367Q216 360 235 360T277 366T324 394Q368 438 371 476Q372 485 382 483T391 467Q381 394 314 356Q273 334 232 334L180 343Q104
369 80 440Q70 467 70 494Q70 549 111 603Q199 721 423 754Q467 760 510 760Q649 760 775 694L800 723Q814 735 843 755Q886 785 905 785Q913 785 910 778T891 761T865 737L818 669Q925 598 981 487Q1026 398 1026 293Q1026 163 958 82Q902 14 819 -16Q758 -38
694 -38ZM601 316L651 315Q668 314 672 302Q670 290 655 288Q627 288 581 286Q474 118 399 54Q508 5 645 -8Q662 -10 679 -10Q782 -10 859 54Q948 129 960 237Q963 262 963 286Q963 378 927 459Q882 562 794 631Q758 576 691 465T601 316ZM341 52Q224 108 193 119T133
130T86 108T68 69T76 35Q97 -8 162 -8Q258 -8 341 52Z" />
<glyph unicode="&#xd1;" glyph-name="Ntilde" horiz-adv-x="1039" d="M427 335Q427 399 360 399Q352 399 343 398T331 400T332 408Q341 420 391 420T458 376Q465 359 465 340Q465 297 433 242Q379 152 284 114Q235 94 176 94T68 134T4 249Q1 268 1 290Q1 350 33
429T140 582Q282 722 440 755Q484 764 517 764T573 761Q635 752 670 702Q698 663 698 603Q698 549 686 513T670 465T656 429T642 398T626 362Q584 271 586 270L617 320Q678 415 749 500Q881 660 986 708Q1045 736 1089 736T1162 715T1192 641T1159 515T1063 324T955
113T911 -56Q911 -82 918 -103Q932 -149 972 -149Q994 -149 1017 -138T1053 -127T1065 -140T1046 -163T1015 -174Q855 -174 855 -35Q855 16 872 68T997 345T1113 629Q1115 638 1115 646Q1115 688 1066 688Q1033 688 991 666Q834 591 692 379Q608 254 501 24Q462
-60 460 -64Q446 -93 404 -93Q379 -93 377 -77Q376 -74 377 -70Q425 1 511 192T630 526Q640 573 640 609T630 672Q609 725 559 733Q544 735 517 735T437 720T316 662Q165 568 97 417Q60 335 60 266Q60 231 69 200Q102 117 185 113Q288 113 365 199Q427 268 427
335ZM1152 847Q1154 850 1161 850T1169 846Q1169 779 1092 779Q1073 779 1038 794Q1001 811 980 811T944 784Q942 778 928 783Q926 785 925 786Q960 848 1002 848Q1019 848 1054 834Q1093 818 1115 818T1152 847Z" />
<glyph unicode="&#xd2;" glyph-name="Ograve" horiz-adv-x="784" d="M732 738Q732 729 723 729Q717 729 662 758T600 791Q567 808 567 829T584 850Q596 850 664 797T732 738ZM524 5Q414 -80 300 -80Q180 -80 126 9Q86 74 86 153T115 312Q45 359 38 438Q36 453
36 468Q36 588 139 669Q249 755 399 755T647 672T746 433Q746 423 746 413Q846 479 876 539Q881 550 889 549T897 542T891 528Q832 435 742 378Q738 331 717 265T644 129T524 5ZM687 434Q687 603 579 684Q507 738 411 738Q383 738 354 733Q232 715 155 632Q90 560
90 469Q90 390 133 353Q172 436 248 521Q331 614 424 635Q438 638 461 638T516 619Q523 615 523 611T519 605T504 606T471 610T403 586T314 511Q225 410 184 319Q247 290 335 290Q374 290 418 296Q561 314 685 381Q687 408 687 434ZM679 346Q512 257 327 257Q237
257 169 284Q138 203 138 144Q138 6 221 -35Q266 -56 310 -56T398 -36Q485 3 555 88T661 275Q675 315 679 346Z" />
<glyph unicode="&#xd3;" glyph-name="Oacute" horiz-adv-x="784" d="M524 5Q414 -80 300 -80Q180 -80 126 9Q86 74 86 153T115 312Q45 359 38 438Q36 453 36 468Q36 588 139 669Q249 755 399 755T647 672T746 433Q746 423 746 413Q846 479 876 539Q881 550 889
549T897 542T891 528Q832 435 742 378Q738 331 717 265T644 129T524 5ZM687 434Q687 603 579 684Q507 738 411 738Q383 738 354 733Q232 715 155 632Q90 560 90 469Q90 390 133 353Q172 436 248 521Q331 614 424 635Q438 638 461 638T516 619Q523 615 523 611T519
605T504 606T471 610T403 586T314 511Q225 410 184 319Q247 290 335 290Q374 290 418 296Q561 314 685 381Q687 408 687 434ZM679 346Q512 257 327 257Q237 257 169 284Q138 203 138 144Q138 6 221 -35Q266 -56 310 -56T398 -36Q485 3 555 88T661 275Q675 315 679
346ZM605 729Q604 729 602 730T599 735T601 742T629 765T687 806T732 838T759 849T783 844T794 832T791 818Q786 806 701 768T605 729Z" />
<glyph unicode="&#xd4;" glyph-name="Ocircumflex" horiz-adv-x="784" d="M650 850T658 850T666 848L696 760Q698 756 692 756Q683 756 679 760L641 819Q543 766 532 760Q524 753 513 756Q511 758 512 760L635 848Q650 850 658 850ZM524 5Q414 -80 300 -80Q180
-80 126 9Q86 74 86 153T115 312Q45 359 38 438Q36 453 36 468Q36 588 139 669Q249 755 399 755T647 672T746 433Q746 423 746 413Q846 479 876 539Q881 550 889 549T897 542T891 528Q832 435 742 378Q738 331 717 265T644 129T524 5ZM687 434Q687 603 579 684Q507
738 411 738Q383 738 354 733Q232 715 155 632Q90 560 90 469Q90 390 133 353Q172 436 248 521Q331 614 424 635Q438 638 461 638T516 619Q523 615 523 611T519 605T504 606T471 610T403 586T314 511Q225 410 184 319Q247 290 335 290Q374 290 418 296Q561 314
685 381Q687 408 687 434ZM679 346Q512 257 327 257Q237 257 169 284Q138 203 138 144Q138 6 221 -35Q266 -56 310 -56T398 -36Q485 3 555 88T661 275Q675 315 679 346Z" />
<glyph unicode="&#xd5;" glyph-name="Otilde" horiz-adv-x="784" d="M524 5Q414 -80 300 -80Q180 -80 126 9Q86 74 86 153T115 312Q45 359 38 438Q36 453 36 468Q36 588 139 669Q249 755 399 755T647 672T746 433Q746 423 746 413Q846 479 876 539Q881 550 889
549T897 542T891 528Q832 435 742 378Q738 331 717 265T644 129T524 5ZM687 434Q687 603 579 684Q507 738 411 738Q383 738 354 733Q232 715 155 632Q90 560 90 469Q90 390 133 353Q172 436 248 521Q331 614 424 635Q438 638 461 638T516 619Q523 615 523 611T519
605T504 606T471 610T403 586T314 511Q225 410 184 319Q247 290 335 290Q374 290 418 296Q561 314 685 381Q687 408 687 434ZM679 346Q512 257 327 257Q237 257 169 284Q138 203 138 144Q138 6 221 -35Q266 -56 310 -56T398 -36Q485 3 555 88T661 275Q675 315 679
346ZM438 785Q438 782 433 782T425 782Q419 784 419 787Q453 848 494 848Q497 848 507 848T551 834T593 820T606 819Q631 819 645 848Q646 851 650 851T660 848L662 846Q632 780 586 780Q567 780 532 795Q495 812 474 812T438 785Z" />
<glyph unicode="&#xd6;" glyph-name="Odieresis" horiz-adv-x="784" d="M687 850T696 841T706 818T697 794T674 784T650 793T640 816T649 840T672 850ZM558 850T567 841T577 818T568 794T545 784T521 793T511 816T520 840T543 850ZM524 5Q414 -80 300 -80Q180
-80 126 9Q86 74 86 153T115 312Q45 359 38 438Q36 453 36 468Q36 588 139 669Q249 755 399 755T647 672T746 433Q746 423 746 413Q846 479 876 539Q881 550 889 549T897 542T891 528Q832 435 742 378Q738 331 717 265T644 129T524 5ZM687 434Q687 603 579 684Q507
738 411 738Q383 738 354 733Q232 715 155 632Q90 560 90 469Q90 390 133 353Q172 436 248 521Q331 614 424 635Q438 638 461 638T516 619Q523 615 523 611T519 605T504 606T471 610T403 586T314 511Q225 410 184 319Q247 290 335 290Q374 290 418 296Q561 314
685 381Q687 408 687 434ZM679 346Q512 257 327 257Q237 257 169 284Q138 203 138 144Q138 6 221 -35Q266 -56 310 -56T398 -36Q485 3 555 88T661 275Q675 315 679 346Z" />
<glyph unicode="&#xd7;" glyph-name="multiply" horiz-adv-x="304" d="M260 285L186 205L229 121Q228 118 221 110T210 101L168 186L94 106Q92 107 88 115T83 127L157 207L114 291Q115 294 122 302T133 311L175 226L249 306Q252 306 256 298T260 285Z" />
<glyph unicode="&#xd8;" glyph-name="Oslash" horiz-adv-x="771" d="M611 726L659 811L693 795L642 705Q759 618 759 451Q759 442 759 432Q859 498 889 558Q894 569 902 568T910 561T904 547Q845 454 755 397Q751 350 730 284T657 148T538 24T390 -51Q353 -61
314 -61T231 -48L219 -43L177 -118L145 -104L188 -26Q123 21 104 118Q99 148 99 180Q99 251 128 331Q58 378 51 457Q49 472 49 486Q49 547 80 606T174 704Q288 775 407 775T611 726ZM596 699Q521 757 417 757Q311 757 210 688Q154 650 129 595T103 487Q103 409
146 372Q185 455 261 540Q344 633 436 654Q451 657 474 657T529 638Q536 634 536 630T532 624T517 625T484 629T416 605T327 530Q238 429 197 338Q257 308 349 308Q363 308 377 309L596 699ZM234 -16Q279 -37 323 -37T410 -17Q498 23 568 108T674 294Q688 334 692
365Q554 292 401 279L234 -16ZM700 450Q700 593 624 673L420 313Q566 329 698 400Q700 426 700 450ZM152 152Q152 51 205 3L358 276Q349 276 340 276Q249 276 182 303Q152 230 152 152Z" />
<glyph unicode="&#xd9;" glyph-name="Ugrave" horiz-adv-x="942" d="M986 482Q1006 472 1006 453Q1006 430 981 386Q898 237 872 83Q865 41 865 7Q865 -62 902 -62H913Q931 -62 931 -70Q931 -82 909 -85H897Q864 -79 846 -50T827 9T825 60Q825 117 838 179Q767
62 698 6Q633 -46 575 -46Q533 -46 510 -19Q480 17 480 71T511 214T593 416T660 591T676 702Q676 775 637 798Q590 823 531 823Q425 823 304 753Q125 648 62 488Q36 421 36 366T55 265Q97 163 201 163Q323 163 396 287Q436 353 436 404Q436 479 368 479Q352 479
328 474T305 474Q308 482 335 494T389 506Q430 506 451 471Q465 446 465 412T448 332Q410 231 318 176Q250 134 188 134T78 171Q-4 234 -4 362T94 614Q173 713 306 786Q421 850 528 850Q584 850 632 830Q729 788 729 669Q729 580 672 448Q639 370 609 306T558 175T538
64Q538 -20 594 -20Q654 -20 735 80L762 117Q802 175 865 301T930 429Q960 482 986 482ZM1004 724Q1004 715 994 715Q988 715 926 748T857 784Q820 802 820 826T839 850Q852 850 928 790T1004 724Z" />
<glyph unicode="&#xda;" glyph-name="Uacute" horiz-adv-x="942" d="M538 64Q538 -20 594 -20Q654 -20 735 80L762 117Q802 175 865 301T930 429Q960 482 986 482Q1014 468 1002 434Q992 406 974 374Q898 237 872 83Q865 41 865 7Q865 -62 902 -62H913Q931 -62
931 -70Q931 -82 909 -85H897Q864 -79 846 -50T827 9T825 60Q825 117 838 179Q767 62 698 6Q633 -46 575 -46Q533 -46 510 -19Q480 17 480 71T511 214T593 416T660 591T676 702Q676 775 637 798Q590 823 531 823Q425 823 304 753Q125 648 62 488Q36 421 36 366T55
265Q97 163 201 163Q323 163 396 287Q436 353 436 404Q436 479 368 479Q352 479 328 474T305 474Q308 482 335 494T389 506Q430 506 451 471Q465 446 465 412T448 332Q410 231 318 176Q250 134 188 134T78 171Q-4 234 -4 362T94 614Q173 713 306 786Q421 850 528
850Q584 850 632 830Q729 788 729 669Q729 580 672 448Q639 370 609 306T558 175T538 64ZM822 670Q821 670 819 671T816 676T818 683T846 706T904 747T949 779T976 790T1000 785T1011 773T1008 759Q1003 747 918 709T822 670Z" />
<glyph unicode="&#xdb;" glyph-name="Ucircumflex" horiz-adv-x="942" d="M538 64Q538 -20 594 -20Q654 -20 735 80L762 117Q802 175 865 301T930 429Q960 482 986 482Q1014 468 1002 434Q992 406 974 374Q898 237 872 83Q865 41 865 7Q865 -62 902 -62H913Q931
-62 931 -70Q931 -82 909 -85H897Q864 -79 846 -50T827 9T825 60Q825 117 838 179Q767 62 698 6Q633 -46 575 -46Q533 -46 510 -19Q480 17 480 71T511 214T593 416T660 591T676 702Q676 775 637 798Q590 823 531 823Q425 823 304 753Q125 648 62 488Q36 421 36
366T55 265Q97 163 201 163Q323 163 396 287Q436 353 436 404Q436 479 368 479Q352 479 328 474T305 474Q308 482 335 494T389 506Q430 506 451 471Q465 446 465 412T448 332Q410 231 318 176Q250 134 188 134T78 171Q-4 234 -4 362T94 614Q173 713 306 786Q421
850 528 850Q584 850 632 830Q729 788 729 669Q729 580 672 448Q639 370 609 306T558 175T538 64ZM833 741Q826 735 816 735T806 737T808 741L957 847Q976 850 985 850T995 847L1031 741Q1032 740 1032 738T1023 735T1011 741L965 812Q846 748 833 741Z" />
<glyph unicode="&#xdc;" glyph-name="Udieresis" horiz-adv-x="942" d="M986 482Q1006 472 1006 453Q1006 430 981 386Q898 237 872 83Q865 41 865 7Q865 -62 902 -62H913Q931 -62 931 -70Q931 -82 909 -85H897Q864 -79 846 -50T827 9T825 60Q825 117 838 179Q767
62 698 6Q633 -46 575 -46Q533 -46 510 -19Q480 17 480 71T511 214T593 416T660 591T676 702Q676 775 637 798Q590 823 531 823Q425 823 304 753Q125 648 62 488Q36 421 36 366T55 265Q97 163 201 163Q323 163 396 287Q436 353 436 404Q436 479 368 479Q352 479
328 474T305 474Q308 482 335 494T389 506Q430 506 451 471Q465 446 465 412T448 332Q410 231 318 176Q250 134 188 134T78 171Q-4 234 -4 362T94 614Q173 713 306 786Q421 850 528 850Q584 850 632 830Q729 788 729 669Q729 580 672 448Q639 370 609 306T558 175T538
64Q538 -20 594 -20Q654 -20 735 80L762 117Q802 175 865 301T930 429Q960 482 986 482ZM976 752T985 743T995 720T986 696T963 686T939 695T929 718T938 742T961 752ZM847 752T856 743T866 720T857 696T834 686T810 695T800 718T809 742T832 752Z" />
<glyph unicode="&#xdd;" glyph-name="Yacute" horiz-adv-x="1006" d="M983 483Q1001 483 1001 453T982 338T914 108T814 -128Q829 -127 867 -126T930 -124T989 -118T1046 -102Q1099 -77 1108 -28Q1106 -15 1109 -14T1115 -17Q1122 -30 1122 -45T1106 -86T1043
-132T799 -154Q751 -226 678 -281T522 -367T384 -398T288 -385Q213 -360 213 -309Q213 -243 334 -193Q489 -129 766 -129Q864 111 903 258Q812 62 700 -14Q641 -54 586 -54T501 -24T470 58Q470 167 618 408Q664 483 692 560Q724 645 724 706T685 793T589 819Q567
819 542 814Q362 780 217 627Q144 550 110 469Q75 382 75 320Q75 294 82 272Q102 199 161 172Q191 159 223 159Q334 159 412 283Q456 354 456 407Q456 476 394 476Q382 476 365 473T347 475Q346 483 370 489T416 495Q468 495 486 451Q494 432 494 410Q494 366 463
308Q402 197 284 148Q248 133 218 133Q121 133 66 203Q18 262 18 338T55 490T151 630T279 738T422 811Q501 842 567 842T684 822Q737 798 759 758T781 672Q781 559 698 421Q569 201 542 79Q538 58 538 35T553 -8T597 -28Q638 -28 686 7Q743 47 800 138Q895 290
943 449Q946 465 961 474T983 483ZM267 -319Q267 -327 271 -335Q292 -369 367 -369T511 -344T645 -271T752 -154Q490 -154 350 -235Q267 -283 267 -319ZM896 665Q895 665 893 666T890 671T892 678T920 701T978 742T1023 774T1050 785T1074 780T1085 768T1082 754Q1077
742 992 704T896 665Z" />
<glyph unicode="&#xde;" glyph-name="Thorn" horiz-adv-x="336" d="M568 497Q585 467 585 446Q585 390 539 333Q508 295 463 268T354 224T219 207Q208 207 197 208L122 55Q106 23 93 13T68 3T54 3T35 6T11 8Q29 25 101 151T206 347Q280 503 325 657T369 850Q373
844 389 842T409 835Q430 816 430 797T421 750L367 614Q433 603 488 572T568 497ZM403 267T450 307T514 383T531 442Q531 519 465 559Q429 579 360 595L310 459Q254 316 238 293L206 228Q285 230 344 248Z" />
<glyph unicode="&#xdf;" glyph-name="germandbls" horiz-adv-x="437" d="M322 19Q335 17 340 17Q380 17 419 64Q440 90 494 195Q496 200 501 200Q510 201 510 193Q510 191 506 182T497 163T484 135T469 106T452 79T432 54L411 32Q394 15 371 8Q334 -4 299 6Q276
-4 258 -4Q187 -4 172 52Q169 65 169 83T181 119T209 137T235 132T246 106V99Q246 74 257 55T288 26Q332 60 332 133Q332 158 315 218Q294 292 294 309T301 345T322 378T361 415T408 463T438 520T448 573Q448 645 392 664Q375 670 359 670Q326 670 290 638T231
544T164 346T91 130T23 -38T-64 -180T-174 -278Q-245 -326 -311 -326Q-396 -326 -401 -260Q-401 -257 -401 -255Q-401 -228 -382 -206T-339 -184T-302 -197T-290 -221Q-290 -251 -307 -266T-342 -282T-374 -270Q-363 -299 -316 -299Q-305 -299 -294 -296Q-204 -273
-133 -186T6 69Q40 155 62 215Q109 340 204 570Q244 648 290 679Q316 696 347 696T419 682T475 640T491 572Q491 485 400 422Q384 411 371 403T344 380T323 354T316 324T327 289Q393 184 393 133Q393 103 372 71T322 19ZM213 53Q213 47 214 40Q222 13 251 13Q263
13 271 17Q234 40 231 92Q213 74 213 53Z" />
<glyph unicode="&#xe0;" glyph-name="agrave" horiz-adv-x="350" d="M343 253T310 190T271 95T264 44T279 24Q298 24 326 59Q367 110 407 192Q411 201 416 202Q424 205 424 196Q424 191 421 184Q329 -2 266 -2Q237 -2 219 26Q210 41 210 66T220 127Q140 -2 82
-2Q66 -2 53 8Q23 29 23 80Q23 178 108 279Q156 335 226 352Q245 357 262 357Q308 357 340 325Q350 314 346 304T329 296Q318 332 281 332Q238 332 175 264Q139 224 108 170Q69 105 69 66T94 27Q154 27 251 211Q270 248 283 261T316 275Q320 275 336 272T361 271Q343
253 310 190ZM323 406Q323 397 313 397Q307 397 245 430T176 466Q139 484 139 508T158 532Q171 532 247 472T323 406Z" />
<glyph unicode="&#xe1;" glyph-name="aacute" horiz-adv-x="350" d="M343 253T310 190T271 95T264 44T279 24Q298 24 326 59Q367 110 407 192Q411 201 416 202Q424 205 424 196Q424 191 421 184Q329 -2 266 -2Q237 -2 219 26Q210 41 210 66T220 127Q140 -2 82
-2Q66 -2 53 8Q23 29 23 80Q23 178 108 279Q156 335 226 352Q245 357 262 357Q308 357 340 325Q350 314 346 304T329 296Q318 332 281 332Q238 332 175 264Q139 224 108 170Q69 105 69 66T94 27Q154 27 251 211Q270 248 283 261T316 275Q320 275 336 272T361 271Q343
253 310 190ZM225 394Q224 394 222 395T219 400T221 407T249 430T307 471T352 503T379 514T403 509T414 497T411 483Q406 471 321 433T225 394Z" />
<glyph unicode="&#xe2;" glyph-name="acircumflex" horiz-adv-x="350" d="M343 253T310 190T271 95T264 44T279 24Q298 24 326 59Q367 110 407 192Q411 201 416 202Q424 205 424 196Q424 191 421 184Q329 -2 266 -2Q237 -2 219 26Q210 41 210 66T220 127Q140 -2
82 -2Q66 -2 53 8Q23 29 23 80Q23 178 108 279Q156 335 226 352Q245 357 262 357Q308 357 340 325Q350 314 346 304T329 296Q318 332 281 332Q238 332 175 264Q139 224 108 170Q69 105 69 66T94 27Q154 27 251 211Q270 248 283 261T316 275Q320 275 336 272T361
271Q343 253 310 190ZM212 410Q205 404 195 404T185 406T187 410L336 516Q354 518 364 518T374 516L410 410Q411 409 411 407T403 404T390 410L344 481Q225 417 212 410Z" />
<glyph unicode="&#xe3;" glyph-name="atilde" horiz-adv-x="350" d="M343 253T310 190T271 95T264 44T279 24Q298 24 326 59Q367 110 407 192Q411 201 416 202T423 199T421 184Q329 -2 266 -2Q237 -2 219 26Q210 41 210 66T220 127Q140 -2 82 -2Q66 -2 53 8Q23
29 23 80Q23 178 108 279Q156 335 226 352Q245 357 262 357Q308 357 340 325Q350 314 346 304T329 296Q318 332 281 332Q238 332 175 264Q139 224 108 170Q69 105 69 66T94 27Q154 27 251 211Q270 248 283 261T316 275Q320 275 336 272T361 271Q343 253 310 190ZM354
441Q332 441 290 459Q243 480 218 480T175 447Q173 440 157 445Q152 447 152 449Q194 524 244 524Q267 524 309 507T362 489T378 488Q409 488 426 523Q427 526 432 526Q445 526 447 521Q408 441 354 441Z" />
<glyph unicode="&#xe4;" glyph-name="adieresis" horiz-adv-x="350" d="M343 253T310 190T271 95T264 44T279 24Q298 24 326 59Q367 110 407 192Q411 201 416 202Q424 205 424 196Q424 191 421 184Q329 -2 266 -2Q237 -2 219 26Q210 41 210 66T220 127Q140 -2
82 -2Q66 -2 53 8Q23 29 23 80Q23 178 108 279Q156 335 226 352Q245 357 262 357Q308 357 340 325Q350 314 346 304T329 296Q318 332 281 332Q238 332 175 264Q139 224 108 170Q69 105 69 66T94 27Q154 27 251 211Q270 248 283 261T316 275Q320 275 336 272T361
271Q343 253 310 190ZM391 492T400 483T410 460T401 436T378 426T354 435T344 458T353 482T376 492ZM262 492T271 483T281 460T272 436T249 426T225 435T215 458T224 482T247 492Z" />
<glyph unicode="&#xe5;" glyph-name="aring" horiz-adv-x="350" d="M343 253T310 190T271 95T264 44T279 24Q298 24 326 59Q367 110 407 192Q411 201 416 202Q424 205 424 196Q424 191 421 184Q329 -2 266 -2Q237 -2 219 26Q210 41 210 66T220 127Q140 -2 82 -2Q66
-2 53 8Q23 29 23 80Q23 178 108 279Q156 335 226 352Q245 357 262 357Q308 357 340 325Q350 314 346 304T329 296Q318 332 281 332Q238 332 175 264Q139 224 108 170Q69 105 69 66T94 27Q154 27 251 211Q270 248 283 261T316 275Q320 275 336 272T361 271Q343
253 310 190ZM295 454T308 454T330 465T342 493Q343 509 335 519T314 529T291 518T280 491T287 465ZM346 545T362 531T378 495T356 455Q332 437 304 437T261 451T245 483Q245 509 267 526Q293 545 319 545Z" />
<glyph unicode="&#xe6;" glyph-name="ae" horiz-adv-x="436" d="M293 154Q276 120 276 91T287 40T326 17Q417 17 491 188Q498 204 508 202Q512 201 512 197T490 145T444 66Q393 -4 318 -4Q286 -4 259 15Q219 43 219 103Q219 115 220 127Q140 -2 82 -2Q66 -2 53
8Q23 29 23 80Q23 178 108 279Q156 335 226 352Q245 357 262 357Q308 357 340 325L343 321Q393 357 430 357Q452 357 470 344Q487 330 487 312Q487 254 415 198Q393 181 354 168T293 154ZM325 306Q313 332 282 332Q237 332 175 264Q139 224 108 170Q69 105 69 66T94
27Q154 27 251 211Q280 266 325 306ZM460 314Q460 334 444 334Q416 334 359 265Q343 245 322 213L301 171Q319 172 350 183T405 215Q460 262 460 314Z" />
<glyph unicode="&#xe7;" glyph-name="ccedilla" horiz-adv-x="260" d="M241 230Q276 272 276 301T252 330Q205 330 145 244Q126 217 108 173T90 94T104 36T149 14T206 28T255 74T291 127T324 190Q331 204 336 202T341 195T328 163T302 112T266 58Q226 3 155 -3L157
-7Q156 -8 144 -16Q113 -37 113 -42Q132 -39 163 -39T233 -58T271 -116T219 -191Q194 -208 152 -208T64 -197T17 -162Q17 -155 22 -155T38 -166Q62 -191 129 -191T220 -155Q234 -134 234 -111T211 -72T162 -57T112 -69T84 -81T74 -77T68 -67T76 -52T140 -4H139Q83
-4 59 23T34 87Q34 131 55 183T105 273Q163 352 239 352Q276 352 292 335T309 294Q309 260 281 236Q267 223 258 223T241 230Z" />
<glyph unicode="&#xe8;" glyph-name="egrave" horiz-adv-x="246" d="M101 154Q87 120 87 78Q87 50 99 34T135 17Q226 17 300 188Q307 204 317 202Q321 201 321 197T299 145T253 66Q202 -4 127 -4Q87 -4 59 22T31 93T52 188T111 282T196 346Q219 356 240 356T279
344Q296 330 296 313Q296 253 224 198Q202 181 162 168T101 154ZM269 314Q269 334 253 334Q225 334 168 265Q134 223 108 171Q125 171 157 183T214 215Q269 262 269 314ZM287 397Q287 388 277 388Q271 388 209 421T140 457Q103 476 103 499T122 523Q135 523 211
463T287 397Z" />
<glyph unicode="&#xe9;" glyph-name="eacute" horiz-adv-x="246" d="M101 154Q87 120 87 78Q87 50 99 34T135 17Q226 17 300 188Q307 204 317 202Q323 199 318 187Q276 96 253 66Q202 -4 127 -4Q87 -4 59 22T31 93T52 188T111 282T196 346Q219 356 240 356T279
344Q296 330 296 313Q296 253 224 198Q202 181 162 168T101 154ZM269 314Q269 334 253 334Q225 334 168 265Q134 223 108 171Q125 171 157 183T214 215Q269 262 269 314ZM208 394Q207 394 205 395T202 400T204 407T232 430T290 471T335 503T362 514T386 509T397
497T394 483Q389 471 304 433T208 394Z" />
<glyph unicode="&#xea;" glyph-name="ecircumflex" horiz-adv-x="246" d="M101 154Q87 120 87 78Q87 50 99 34T135 17Q226 17 300 188Q307 204 317 202Q323 199 318 187Q276 96 253 66Q202 -4 127 -4Q87 -4 59 22T31 93T52 188T111 282T196 346Q219 356 240 356T279
344Q296 330 296 313Q296 253 224 198Q202 181 162 168T101 154ZM269 314Q269 334 253 334Q225 334 168 265Q134 223 108 171Q125 171 157 183T214 215Q269 262 269 314ZM168 410Q161 404 151 404T141 406T143 410L292 516Q310 518 320 518T330 516L366 410Q367
409 367 407T359 404T346 410L300 481Q181 417 168 410Z" />
<glyph unicode="&#xeb;" glyph-name="edieresis" horiz-adv-x="246" d="M101 154Q87 120 87 78Q87 50 99 34T135 17Q226 17 300 188Q307 204 317 202Q323 199 318 187Q276 96 253 66Q202 -4 127 -4Q87 -4 59 22T31 93T52 188T111 282T196 346Q219 356 240 356T279
344Q296 330 296 313Q296 253 224 198Q202 181 162 168T101 154ZM269 314Q269 334 253 334Q225 334 168 265Q134 223 108 171Q125 171 157 183T214 215Q269 262 269 314ZM337 473T346 464T356 441T347 417T324 407T300 416T290 439T299 463T322 473ZM208 473T217
464T227 441T218 417T195 407T171 416T161 439T170 463T193 473Z" />
<glyph unicode="&#xec;" glyph-name="igrave" horiz-adv-x="168" d="M144 30T122 15T72 0T27 22T10 73T25 130L112 296Q131 333 137 338T166 344H217Q215 342 207 336Q189 324 180 308Q103 183 76 114Q58 75 58 50Q58 22 90 22L129 41Q169 80 223 192Q231 207
237 201Q240 199 240 195T231 172T216 141T192 96T159 47ZM238 408Q238 399 228 399Q222 399 160 432T91 468Q54 486 54 510T73 534Q86 534 162 474T238 408Z" />
<glyph unicode="&#xed;" glyph-name="iacute" horiz-adv-x="168" d="M144 30T122 15T72 0T27 22T10 73T25 130L112 296Q131 333 137 338T166 344H217Q215 342 207 336Q189 324 180 308Q103 183 76 114Q58 75 58 50Q58 22 90 22L129 41Q169 80 223 192Q231 207
237 202T233 175T216 141T192 96T159 47ZM192 415Q191 415 189 416T186 421T188 428T216 451T274 492T319 524T346 535T370 530T381 518T378 504Q373 492 288 454T192 415Z" />
<glyph unicode="&#xee;" glyph-name="icircumflex" horiz-adv-x="168" d="M144 30T122 15T72 0T27 22T10 73T25 130L112 296Q131 333 137 338T166 344H217Q215 342 207 336Q189 324 180 308Q103 183 76 114Q58 75 58 50Q58 22 90 22L129 41Q169 80 223 192Q231
207 237 202T233 175T216 141T192 96T159 47ZM118 406Q111 400 101 400T91 402T93 406L242 512Q260 514 270 514T280 512L316 406Q317 405 317 403T309 400T296 406L250 477Q131 413 118 406Z" />
<glyph unicode="&#xef;" glyph-name="idieresis" horiz-adv-x="168" d="M144 30T122 15T72 0T27 22T10 73T25 130L112 296Q131 333 137 338T166 344H217Q215 342 207 336Q189 324 180 308Q103 183 76 114Q58 75 58 50Q58 22 90 22L129 41Q169 80 223 192Q231 207
237 202T233 175T216 141T192 96T159 47ZM283 462T292 453T302 430T293 406T270 396T246 405T236 428T245 452T268 462ZM154 462T163 453T173 430T164 406T141 396T117 405T107 428T116 452T139 462Z" />
<glyph unicode="&#xf0;" glyph-name="eth" horiz-adv-x="388" d="M142 598L106 594Q95 594 95 601Q95 622 160 622T271 575L349 617Q365 626 374 615Q376 612 376 608T359 593T291 549Q335 484 335 376Q335 231 264 110Q222 40 166 11Q134 -5 101 -5T52 24T36
89Q36 190 120 268Q177 322 234 322Q260 322 274 307T288 265V250Q299 299 299 344Q299 446 254 523Q238 512 211 492T179 468T163 473T149 491T156 511L232 553Q194 598 142 598ZM248 160Q274 206 274 259T239 312Q200 312 158 256Q80 152 80 47Q80 7 108 7Q165
7 248 160Z" />
<glyph unicode="&#xf1;" glyph-name="ntilde" horiz-adv-x="335" d="M359 328Q236 112 236 46Q236 20 255 20Q306 20 392 193Q398 207 405 203T406 184Q353 77 317 37T244 -4T188 24Q178 37 178 59T188 114T243 218Q254 236 254 246T237 257T172 212Q100 146 33
14Q27 4 20 2T-10 -2T-39 -7Q-23 25 24 124Q108 299 134 324Q146 336 167 336Q171 336 187 333T212 332Q175 312 91 144Q138 202 176 236T269 300T348 330Q354 330 359 328ZM344 409Q322 409 280 427Q233 448 208 448T165 415Q163 408 147 413Q142 415 142 417Q184
492 234 492Q257 492 299 475T352 457T368 456Q399 456 416 491Q417 494 422 494Q435 494 437 489Q398 409 344 409Z" />
<glyph unicode="&#xf2;" glyph-name="ograve" horiz-adv-x="335" d="M239 350Q312 350 312 258Q312 216 290 168Q262 103 206 50Q219 25 253 25Q280 25 304 52Q334 83 347 106T366 141T381 172T393 197T400 202Q410 203 410 195Q410 192 408 188L402 174Q396 160
393 154T383 133T370 108T355 84T338 60T319 40T298 23Q273 8 251 8Q210 8 187 34Q141 0 102 0Q29 0 29 92Q29 134 51 182Q81 252 135 301T239 350ZM250 319Q223 319 186 283T120 185Q85 113 85 67T120 21Q145 21 176 48Q160 71 160 97Q162 140 195 140Q208 140
216 131T225 115T223 99Q240 124 262 170Q287 221 287 270T250 319ZM309 408Q309 399 299 399Q293 399 231 432T162 468Q125 486 125 510T144 534Q157 534 233 474T309 408Z" />
<glyph unicode="&#xf3;" glyph-name="oacute" horiz-adv-x="335" d="M239 350Q312 350 312 258Q312 216 290 168Q262 103 206 50Q219 25 253 25Q280 25 304 52Q334 83 347 106T366 141T381 172T393 197T400 202T408 199T408 188L402 174Q396 160 393 154T383 133T370
108T355 84T338 60T319 40T298 23Q273 8 251 8Q210 8 187 34Q141 0 102 0Q29 0 29 92Q29 134 51 182Q81 252 135 301T239 350ZM250 319Q223 319 186 283T120 185Q85 113 85 67T120 21Q145 21 176 48Q160 71 160 97Q162 140 195 140Q208 140 216 131T225 115T223
99Q240 124 262 170Q287 221 287 270T250 319ZM256 418Q255 418 253 419T250 424T252 431T280 454T338 495T383 527T410 538T434 533T445 521T442 507Q437 495 352 457T256 418Z" />
<glyph unicode="&#xf4;" glyph-name="ocircumflex" horiz-adv-x="335" d="M239 350Q312 350 312 258Q312 216 290 168Q262 103 206 50Q219 25 253 25Q280 25 304 52Q334 83 347 106T366 141T381 172T393 197T400 202Q410 203 410 195Q410 192 408 188L402 174Q396
160 393 154T383 133T370 108T355 84T338 60T319 40T298 23Q273 8 251 8Q210 8 187 34Q141 0 102 0Q29 0 29 92Q29 134 51 182Q81 252 135 301T239 350ZM250 319Q223 319 186 283T120 185Q85 113 85 67T120 21Q145 21 176 48Q160 71 160 97Q162 140 195 140Q208
140 216 131T225 115T223 99Q240 124 262 170Q287 221 287 270T250 319ZM185 410Q178 404 168 404T158 406T160 410L309 516Q328 518 337 518T347 516L383 410Q384 409 384 407T376 404T363 410L317 481Q198 417 185 410Z" />
<glyph unicode="&#xf5;" glyph-name="otilde" horiz-adv-x="335" d="M239 350Q312 350 312 258Q312 216 290 168Q262 103 206 50Q219 25 253 25Q280 25 304 52Q334 83 347 106T366 141T381 172T393 197T400 202T408 199T408 188L402 174Q396 160 393 154T383 133T370
108T355 84T338 60T319 40T298 23Q273 8 251 8Q210 8 187 34Q141 0 102 0Q29 0 29 92Q29 134 51 182Q81 252 135 301T239 350ZM250 319Q223 319 186 283T120 185Q85 113 85 67T120 21Q145 21 176 48Q160 71 160 97Q162 140 195 140Q208 140 216 131T225 115T223
99Q240 124 262 170Q287 221 287 270T250 319ZM340 431Q318 431 276 449Q229 470 204 470T161 437Q159 430 143 435Q138 437 138 439Q180 514 230 514Q253 514 295 497T348 479T364 478Q395 478 412 513Q413 516 418 516Q431 516 433 511Q394 431 340 431Z" />
<glyph unicode="&#xf6;" glyph-name="odieresis" horiz-adv-x="335" d="M239 350Q312 350 312 258Q312 216 290 168Q262 103 206 50Q219 25 253 25Q280 25 304 52Q334 83 347 106T366 141T381 172T393 197T400 202Q410 203 410 195Q410 192 408 188L402 174Q396
160 393 154T383 133T370 108T355 84T338 60T319 40T298 23Q273 8 251 8Q210 8 187 34Q141 0 102 0Q29 0 29 92Q29 134 51 182Q81 252 135 301T239 350ZM250 319Q223 319 186 283T120 185Q85 113 85 67T120 21Q145 21 176 48Q160 71 160 97Q162 140 195 140Q208
140 216 131T225 115T223 99Q240 124 262 170Q287 221 287 270T250 319ZM371 490T380 481T390 458T381 434T358 424T334 433T324 456T333 480T356 490ZM242 490T251 481T261 458T252 434T229 424T205 433T195 456T204 480T227 490Z" />
<glyph unicode="&#xf7;" glyph-name="divide" horiz-adv-x="401" d="M264 210T247 210T220 222T213 251Q215 268 229 280T261 292T288 280T295 251T278 222ZM221 -14T204 -14T177 -2T170 27T187 56T218 68T245 56T253 27T236 -2ZM411 149L409 148H65L64 149V167L65
168H409L411 167V149Z" />
<glyph unicode="&#xf8;" glyph-name="oslash" horiz-adv-x="335" d="M78 3Q29 18 29 90Q29 134 51 182Q81 252 135 301T239 350Q256 350 270 343L295 387L314 378L287 332Q311 309 311 263T287 160T206 50Q219 25 253 25Q280 25 304 52Q334 83 347 106T366 141T381
172T393 197T400 202Q410 203 410 195Q410 192 408 188L402 174Q396 160 393 154T383 133T370 108T355 84T338 60T319 40T298 23Q273 8 251 8Q210 8 187 34Q141 0 102 0Q101 0 100 0H99L68 -54L50 -46L78 3ZM94 32L256 318Q253 318 250 318Q221 318 184 281T116
177T84 77T94 32ZM223 99Q286 192 286 277Q286 296 274 309L175 134Q182 140 195 140T216 131T225 115T223 99ZM160 97V108L111 22Q114 22 118 22Q143 22 176 48Q160 71 160 97Z" />
<glyph unicode="&#xf9;" glyph-name="ugrave" horiz-adv-x="357" d="M22 58Q22 101 59 162Q43 162 50 178L68 213Q102 278 124 323Q134 344 163 344H224Q188 318 152 244T95 127T75 62T82 31T103 22Q122 22 156 62Q209 124 305 323Q316 344 344 344H398Q376 327
364 309T329 245Q269 125 262 86Q259 72 259 60Q259 28 281 26Q335 26 414 193Q420 207 426 204T432 196T423 173T406 138T380 92T347 45Q308 1 271 1T219 34Q213 49 213 72T223 129Q150 1 88 1Q34 1 25 46Q22 51 22 58ZM326 411Q326 402 316 402Q310 402 248 435T179
471Q142 490 142 513T161 537Q174 537 250 477T326 411Z" />
<glyph unicode="&#xfa;" glyph-name="uacute" horiz-adv-x="357" d="M22 58Q22 101 59 162Q43 162 50 178L68 213Q102 278 124 323Q134 344 163 344H224Q188 318 152 244T95 127T75 62T82 31T103 22Q122 22 156 62Q209 124 305 323Q316 344 344 344H398Q376 327
364 309T329 245Q269 125 262 86Q259 72 259 60Q259 28 281 26Q335 26 414 193Q420 207 427 203T425 177T406 138T380 92T347 45Q308 1 271 1T219 34Q213 49 213 72T223 129Q150 1 88 1Q34 1 25 46Q22 51 22 58ZM248 406Q247 406 245 407T242 412T244 419T272 442T330
483T375 515T402 526T426 521T437 509T434 495Q429 483 344 445T248 406Z" />
<glyph unicode="&#xfb;" glyph-name="ucircumflex" horiz-adv-x="357" d="M22 58Q22 101 59 162Q43 162 50 178L68 213Q102 278 124 323Q134 344 163 344H224Q188 318 152 244T95 127T75 62T82 31T103 22Q122 22 156 62Q209 124 305 323Q316 344 344 344H398Q376
327 364 309T329 245Q269 125 262 86Q259 72 259 60Q259 28 281 26Q335 26 414 193Q420 207 426 204T432 196T423 173T406 138T380 92T347 45Q308 1 271 1T219 34Q213 49 213 72T223 129Q150 1 88 1Q34 1 25 46Q22 51 22 58ZM209 421Q202 415 192 415T182 417T184
421L333 527Q352 530 361 530T371 527L407 421Q408 420 408 418T400 415T387 421L341 492Q222 428 209 421Z" />
<glyph unicode="&#xfc;" glyph-name="udieresis" horiz-adv-x="357" d="M22 58Q22 101 59 162Q43 162 50 178L68 213Q102 278 124 323Q134 344 163 344H224Q188 318 152 244T95 127T75 62T82 31T103 22Q122 22 156 62Q209 124 305 323Q316 344 344 344H398Q376
327 364 309T329 245Q269 125 262 86Q259 72 259 60Q259 28 281 26Q335 26 414 193Q420 207 426 204T432 196T423 173T406 138T380 92T347 45Q308 1 271 1T219 34Q213 49 213 72T223 129Q150 1 88 1Q34 1 25 46Q22 51 22 58ZM250 510T259 501T269 478T260 454T237
444T213 453T203 476T212 500T235 510ZM379 510T388 501T398 478T389 454T366 444T342 453T332 476T341 500T364 510Z" />
<glyph unicode="&#xfd;" glyph-name="yacute" horiz-adv-x="399" d="M-82 -316Q-126 -316 -150 -298T-174 -253T-159 -194Q-133 -143 -65 -112Q-14 -88 70 -68T178 -40Q214 23 264 185Q206 83 167 42T88 1Q34 1 25 46Q21 53 23 67T25 87T32 106T40 126Q51 149
59 162Q43 162 50 178L68 213Q102 278 124 323Q134 344 163 344H224Q222 342 214 336Q196 324 187 308Q151 246 97 131Q75 84 75 62T82 31T103 22Q122 22 156 62Q227 145 313 323Q324 344 352 344H406Q380 326 365 299T333 224T289 99T248 -18Q342 10 392 81Q414
112 455 191Q462 205 467 202T473 194T457 156T423 94T379 35T319 -12T231 -50Q154 -190 76 -256Q3 -316 -82 -316ZM-140 -217Q-151 -239 -151 -257T-137 -286T-102 -296Q-44 -296 22 -237T138 -109L160 -72Q-5 -115 -48 -134Q-112 -162 -140 -217ZM264 413Q263
413 261 414T258 419T260 426T288 449T346 490T391 522T418 533T442 528T453 516T450 502Q445 490 360 452T264 413Z" />
<glyph unicode="&#xfe;" glyph-name="thorn" horiz-adv-x="385" d="M330 280Q330 296 324 309T303 323Q268 323 222 258T88 31Q101 18 124 18T189 53Q256 109 301 192Q330 246 330 280ZM315 350Q322 350 328 348Q378 335 378 270Q378 226 355 173T292 71T193 4Q171
-2 143 -2T80 16L-36 -222Q-52 -254 -65 -264T-90 -274T-104 -274T-123 -271T-147 -269Q-129 -252 -57 -126T48 70Q122 226 174 404T226 621Q230 615 246 613T266 606Q287 587 287 568T278 521L152 182Q215 285 251 317T315 350Z" />
<glyph unicode="&#xff;" glyph-name="ydieresis" horiz-adv-x="399" d="M-82 -316Q-126 -316 -150 -298T-174 -253T-159 -194Q-133 -143 -65 -112Q-14 -88 70 -68T178 -40Q214 23 264 185Q206 83 167 42T88 1Q34 1 25 46Q21 53 23 67T25 87T32 106T40 126Q51 149
59 162Q43 162 50 178L68 213Q102 278 124 323Q134 344 163 344H224Q222 342 214 336Q196 324 187 308Q151 246 97 131Q75 84 75 62T82 31T103 22Q122 22 156 62Q227 145 313 323Q324 344 352 344H406Q380 326 365 299T333 224T289 99T248 -18Q342 10 392 81Q414
112 455 191Q462 205 467 202T473 194T457 156T423 94T379 35T319 -12T231 -50Q154 -190 76 -256Q3 -316 -82 -316ZM-140 -217Q-151 -239 -151 -257T-137 -286T-102 -296Q-44 -296 22 -237T138 -109L160 -72Q-5 -115 -48 -134Q-112 -162 -140 -217ZM360 497T369
488T379 465T370 441T347 431T323 440T313 463T322 487T345 497ZM231 497T240 488T250 465T241 441T218 431T194 440T184 463T193 487T216 497Z" />
<glyph unicode="&#x2013;" glyph-name="endash" horiz-adv-x="534" d="M147 221Q147 242 164 242Q353 242 508 238Q525 237 529 225Q527 213 512 211Q444 211 327 205T187 197T163 194Q157 194 152 203T147 221Z" />
<glyph unicode="&#x2014;" glyph-name="emdash" horiz-adv-x="819" d="M147 221Q147 242 164 242Q639 242 794 238Q811 237 815 225Q813 213 798 211Q712 211 459 205T184 197T163 194Q157 194 152 203T147 221Z" />
<glyph unicode="&#x2018;" glyph-name="quoteleft" horiz-adv-x="185" d="M80 558Q46 558 46 600Q46 650 85 683T166 729Q169 730 172 730T176 726T166 717Q135 707 110 685T76 631Q89 640 106 640T131 628T134 599T113 570T80 558Z" />
<glyph unicode="&#x2019;" glyph-name="quoteright" horiz-adv-x="158" d="M268 660Q268 616 238 587T167 544Q163 542 160 542T157 547T165 555Q195 565 216 587T241 642Q228 632 212 632T186 644T179 673Q181 690 195 702T228 714T257 698T268 660Z" />
<glyph unicode="&#x201a;" glyph-name="quotesinglbase" horiz-adv-x="154" d="M188 116Q188 71 158 42T88 0Q84 -2 81 -2T77 3T96 15T136 44T162 98Q147 88 132 88T106 100T99 129T116 158T148 171T177 155T188 116Z" />
<glyph unicode="&#x201c;" glyph-name="quotedblleft" horiz-adv-x="304" d="M198 558Q164 558 164 600Q164 651 203 683T284 729Q287 730 290 730T294 726T274 714T229 685T195 631Q208 640 224 640T249 628T253 599T231 570T198 558ZM79 558Q45 558 45 600Q45
651 84 683T165 729Q168 730 171 730T175 726T155 714T110 685T76 631Q89 640 105 640T130 628T134 599T112 570T79 558Z" />
<glyph unicode="&#x201d;" glyph-name="quotedblright" horiz-adv-x="393" d="M387 660Q387 616 357 587T286 544Q282 542 279 542T276 547T284 555Q314 565 335 587T360 642Q347 632 331 632T305 644T298 673Q300 690 314 702T347 714T376 698T387 660ZM268 660Q268
616 238 587T167 544Q163 542 160 542T157 547T165 555Q195 565 216 587T241 642Q228 632 212 632T186 644T179 673Q181 690 195 702T228 714T257 698T268 660Z" />
<glyph unicode="&#x201e;" glyph-name="quotedblbase" horiz-adv-x="245" d="M205 226Q229 226 229 197Q229 166 212 99T194 28H184L176 194Q175 208 183 217T205 226ZM97 226Q120 226 120 192T86 28H76L67 193Q66 206 75 216T97 226Z" />
<glyph unicode="&#x2022;" glyph-name="bullet" horiz-adv-x="766" d="M523 15T386 15T152 112T55 346T152 580T386 677T620 580T718 346T621 112Z" />
<glyph unicode="&#x2039;" glyph-name="guilsinglleft" horiz-adv-x="500" d="M206 115Q201 115 194 118Q167 165 77 258Q72 259 72 269Q77 285 159 371Q213 430 263 477Q277 491 291 491Q312 491 280 456Q194 359 136 289Q152 254 183 200T223 130Q219 115 206
115ZM339 289L426 130Q422 115 409 115Q404 115 397 118Q373 163 281 258Q275 259 275 269Q280 285 362 371Q416 430 466 477Q480 491 492 491T504 487T503 479T484 456Q397 359 339 289Z" />
<glyph unicode="&#x203a;" glyph-name="guilsinglright" horiz-adv-x="500" d="M372 487Q377 487 384 484Q411 437 501 344Q506 343 506 333Q501 317 419 231Q365 172 315 125Q301 111 287 111Q266 111 298 146Q384 243 442 313Q426 348 395 402T355 472Q359 487
372 487ZM239 313L152 472Q156 487 169 487Q174 487 181 484Q205 439 297 344Q303 343 303 333Q298 317 216 231Q162 172 112 125Q98 111 86 111T74 115T75 123T94 146Q181 243 239 313Z" />
</font>
</defs>
</svg>
