<?xml version="1.0" standalone="no"?>
<!DOCTYPE svg PUBLIC "-//W3C//DTD SVG 1.1//EN" "http://www.w3.org/Graphics/SVG/1.1/DTD/svg11.dtd">
<svg xmlns="http://www.w3.org/2000/svg">
<defs >
<font id="VollkornSC" horiz-adv-x="641" ><font-face
    font-family="Vollkorn SC SemiBold"
    units-per-em="1000"
    panose-1="0 0 7 0 0 0 0 0 0 0"
    ascent="952"
    descent="-441"
    alphabetic="0" />
<glyph unicode=" " glyph-name="space" horiz-adv-x="200" />
<glyph unicode="!" glyph-name="exclam" horiz-adv-x="411" d="M247 422T238 239Q217 231 177 231Q160 483 133 679Q161 684 197 694T253 715Q274 708 274 684Q274 675 273 670Q247 422 238 239ZM278 31T258 12T207 -8Q174 -8 156 10T137 58Q137 88 158 107T211
127Q241 127 259 107T278 63Q278 31 258 12Z" />
<glyph unicode="&quot;" glyph-name="quotedbl" horiz-adv-x="362" d="M150 662Q141 602 133 491L130 460Q117 460 102 463T82 471Q77 590 60 692Q101 697 129 715Q141 713 147 703T152 679L150 662ZM302 672Q293 608 282 459Q246 459 232 469Q224 612 212 692Q229
694 247 700T279 715Q290 713 296 705T302 683V672Z" />
<glyph unicode="#" glyph-name="numbersign" horiz-adv-x="601" d="M459 440L423 266H534Q534 247 532 234T521 206H425H411L368 -8Q329 -4 313 14L352 206Q240 206 198 205L154 -8Q117 -5 100 18L138 205L27 203Q27 237 40 266H151L186 439Q111 439 78 438Q78
473 91 500H199L243 715Q282 711 297 692L258 500H412L456 715Q474 713 488 707T510 694L471 500H574Q574 465 561 440H490H459ZM400 440H245L210 266H364L400 440Z" />
<glyph unicode="$" glyph-name="dollar" horiz-adv-x="575" d="M511 81T463 41T316 -6Q316 -67 317 -102Q302 -102 286 -99T262 -91V-7Q210 -5 167 5T77 35Q89 101 86 158Q117 167 154 167Q158 113 185 86T262 53V198Q183 225 138 262T92 364Q92 429 138 464T266
505V596Q301 596 321 585Q321 530 320 505Q364 503 403 495T466 474L465 443Q465 396 472 364Q459 357 441 354T405 350Q384 432 320 447V313Q381 292 419 275T484 226T511 147Q511 81 463 41ZM191 378T210 362T266 332V450Q232 448 212 435T191 400Q191 378 210
362ZM359 55T383 70T407 108Q407 131 384 147T315 180V52Q359 55 383 70Z" />
<glyph unicode="%" glyph-name="percent" horiz-adv-x="863" d="M165 -2T153 8T134 30L685 686Q717 681 738 657L182 -7Q165 -2 153 8ZM196 359T160 380T106 437T88 512Q88 556 107 594T165 654T256 677Q303 677 336 655T387 598T405 526Q405 480 386 442T331
382T246 359Q196 359 160 380ZM277 410T297 437T317 513Q317 562 297 594T244 626Q216 626 197 597T177 525Q177 474 197 442T253 410Q277 410 297 437ZM566 -8T530 13T476 70T458 145Q458 189 477 227T535 287T626 310Q673 310 706 288T757 231T775 159Q775 113
756 75T701 15T616 -8Q566 -8 530 13ZM647 43T667 70T687 146Q687 195 667 227T614 259Q586 259 567 230T547 158Q547 107 567 75T623 43Q647 43 667 70Z" />
<glyph unicode="&amp;" glyph-name="ampersand" horiz-adv-x="688" d="M550 87T570 80T633 71Q633 31 625 7Q595 7 551 3T479 -7Q451 23 422 52Q385 21 344 7T248 -7Q151 -7 103 33T54 142Q54 199 87 238T181 304Q139 365 139 414Q139 468 182 499T317 531Q396
531 454 507Q448 476 448 432Q448 407 449 394Q421 386 380 386Q376 433 359 455T307 477Q279 477 264 464T248 426Q248 403 262 377T310 313Q377 239 458 164Q479 196 490 218T502 258Q502 274 488 282T441 295Q433 322 433 341Q467 339 530 339Q581 339 619 341Q619
316 614 295Q585 287 574 277T551 239Q539 209 529 189T494 132L523 108Q550 87 570 80ZM336 53T383 88L362 109Q273 196 248 223Q232 240 211 265Q190 247 179 227T167 175Q167 121 200 87T286 53Q336 53 383 88Z" />
<glyph unicode="&apos;" glyph-name="quotesingle" horiz-adv-x="213" d="M153 673Q143 606 133 459Q97 459 83 470Q78 587 60 691Q79 694 98 700T129 715Q140 713 146 705T153 684V673Z" />
<glyph unicode="(" glyph-name="parenleft" horiz-adv-x="308" d="M197 623T168 512T138 247Q138 90 170 -33T270 -263Q256 -273 226 -271Q35 -31 35 240Q35 376 79 493T221 741Q245 742 264 726Q197 623 168 512Z" />
<glyph unicode=")" glyph-name="parenright" horiz-adv-x="308" d="M184 610T228 495T273 248Q273 100 224 -28T83 -271Q53 -273 38 -263Q108 -151 139 -34T170 241Q170 396 141 510T44 726Q64 742 88 741Q184 610 228 495Z" />
<glyph unicode="*" glyph-name="asterisk" horiz-adv-x="461" d="M308 621T389 647Q401 619 401 583Q401 575 399 557Q356 564 272 570L251 572Q289 510 333 451Q298 419 250 415Q241 470 218 556Q177 512 127 444Q108 455 93 472T70 510Q131 542 194 585Q137
611 60 635Q74 686 103 710Q146 668 213 616Q219 675 219 760Q241 761 265 757T305 742Q277 684 248 609Q308 621 389 647Z" />
<glyph unicode="+" glyph-name="plus" horiz-adv-x="550" d="M504 267T502 253T493 227Q408 228 304 228V13Q296 8 278 5T243 2Q245 136 245 228Q174 228 46 226Q46 268 56 288H245Q245 400 244 492Q256 499 269 501T304 503V288H504Q504 267 502 253Z" />
<glyph unicode="," glyph-name="comma" horiz-adv-x="275" d="M215 -24T185 -82T106 -186Q93 -185 81 -180T61 -167Q92 -132 109 -100T126 -41Q126 2 72 9Q72 53 83 84Q140 92 175 115Q196 107 205 88T215 33Q215 -24 185 -82Z" />
<glyph unicode="-" glyph-name="hyphen" horiz-adv-x="419" d="M359 253T346 223Q160 223 60 218Q60 237 64 259T76 297H359Q359 253 346 223Z" />
<glyph unicode="." glyph-name="period" horiz-adv-x="261" d="M94 -9T73 11T52 66Q52 101 75 123T136 145Q170 145 191 123T213 72Q213 35 191 13T132 -9Q94 -9 73 11Z" />
<glyph unicode="/" glyph-name="slash" horiz-adv-x="348" d="M70 -19T55 -10T32 8L264 521Q303 513 319 494L86 -21Q70 -19 55 -10Z" />
<glyph unicode="0" glyph-name="zero" horiz-adv-x="547" d="M163 -7T101 60T39 249Q39 370 101 437T274 504Q385 504 446 438T508 250Q508 129 445 61T273 -7Q163 -7 101 60ZM334 46T361 92T388 230Q388 333 354 392T263 451Q213 451 186 405T159 269Q159 165
193 106T284 46Q334 46 361 92Z" />
<glyph unicode="1" glyph-name="one" horiz-adv-x="433" d="M168 352T162 371T134 397T64 405Q64 437 70 456Q127 463 172 475T259 506Q274 501 280 488T286 450V165Q286 115 292 92T313 61T364 49Q370 27 370 -3Q306 0 220 0Q137 0 74 -3Q74 31 80 49Q116 52
134 60T160 92T168 165V307Q168 352 162 371Z" />
<glyph unicode="2" glyph-name="two" horiz-adv-x="476" d="M428 120T428 106Q428 57 436 27Q425 -2 395 -2Q358 -2 336 -1L248 0L147 -1Q114 -2 55 -2Q39 23 39 65Q49 73 69 91Q166 175 215 230Q255 274 271 306T288 370Q288 409 266 429T207 450Q169 450 149
425T121 338Q78 338 53 350Q56 376 56 406Q56 444 52 468Q134 503 232 503Q320 503 365 475T411 389Q411 353 394 323T353 270T282 206Q217 150 177 108H295Q326 108 340 111T360 124T370 157Q384 158 401 156T430 150Q428 120 428 106Z" />
<glyph unicode="3" glyph-name="three" horiz-adv-x="461" d="M328 290T372 255T417 159Q417 81 355 37T183 -7Q129 -7 93 3T41 31Q43 59 60 79Q96 50 167 50Q219 50 258 75T297 145Q297 177 268 197T198 217Q180 217 167 213Q160 222 155 236T149 264Q186 301
186 301Q248 363 279 399H192Q163 399 149 395T126 379T106 340Q72 340 54 354Q66 420 64 503Q116 500 230 500Q305 500 389 503Q405 479 402 447L370 412L258 288Q328 290 372 255Z" />
<glyph unicode="4" glyph-name="four" horiz-adv-x="504" d="M368 132V113Q368 78 380 67T428 52Q434 33 434 -2Q366 0 289 0Q221 0 165 -2Q165 33 170 52Q218 55 237 70T256 118V132H176Q108 132 59 126Q37 170 37 210L286 505Q304 507 315 507Q348 507 368 500V224H430Q443
224 450 220T464 206Q452 170 449 132H368ZM262 215V398L110 215H262Z" />
<glyph unicode="5" glyph-name="five" horiz-adv-x="457" d="M314 307T367 267T421 161Q421 83 358 38T185 -7Q75 -7 42 28Q44 56 62 77Q96 50 167 50Q227 50 263 77T299 149Q299 188 266 211T177 234Q132 234 105 217Q80 215 67 235L103 504Q185 500 286 500Q313
500 325 510T338 540Q354 546 393 546Q385 485 387 411Q380 390 349 390Q196 390 144 386L130 294Q165 307 218 307Q314 307 367 267Z" />
<glyph unicode="6" glyph-name="six" horiz-adv-x="501" d="M366 328T413 287T461 172Q461 115 432 75T353 14T243 -7Q145 -7 92 46T39 203Q39 310 94 378T230 475T390 507Q397 500 400 487T402 457Q296 446 241 408T168 307Q219 328 280 328Q366 328 413 287ZM301
52T322 80T343 153Q343 210 309 240T228 270Q192 270 159 255Q157 229 157 214Q157 126 186 89T259 52Q301 52 322 80Z" />
<glyph unicode="7" glyph-name="seven" horiz-adv-x="427" d="M128 15T128 51Q130 89 135 115T155 171Q199 266 303 393H186Q145 393 127 380T96 328Q59 328 40 340Q55 395 55 501L211 500Q363 500 387 501Q393 492 397 477T403 447Q317 342 283 262T249 79Q249
56 253 0Q180 0 132 -6Q128 15 128 51Z" />
<glyph unicode="8" glyph-name="eight" horiz-adv-x="474" d="M371 250T402 217T433 134Q433 68 380 31T233 -7Q144 -7 93 28T42 123Q42 166 70 196T154 248Q109 275 84 306T59 379Q59 437 107 470T238 504Q317 504 363 475T410 396Q410 358 383 330T310 285Q371
250 402 217ZM202 458T186 446T169 410Q169 382 191 360T255 315Q303 335 303 389Q303 423 284 440T231 458Q202 458 186 446ZM279 45T300 61T322 103Q322 133 295 158T210 216Q179 201 165 181T150 131Q150 92 174 69T243 45Q279 45 300 61Z" />
<glyph unicode="9" glyph-name="nine" horiz-adv-x="501" d="M356 507T409 454T462 297Q462 190 407 122T271 25T111 -7Q104 0 101 13T99 43Q205 54 260 92T333 193Q282 172 221 172Q135 172 88 213T40 328Q40 385 69 425T148 486T258 507Q356 507 409 454ZM309
230T342 245Q344 271 344 286Q344 374 315 411T242 448Q200 448 179 420T158 347Q158 290 192 260T273 230Q309 230 342 245Z" />
<glyph unicode=":" glyph-name="colon" horiz-adv-x="261" d="M97 299T79 317T60 365Q60 395 81 414T134 434Q164 434 182 414T201 370Q201 338 181 319T130 299Q97 299 79 317ZM97 16T79 34T60 82Q60 112 81 131T134 151Q164 151 182 131T201 87Q201 55 181 36T130
16Q97 16 79 34Z" />
<glyph unicode=";" glyph-name="semicolon" horiz-adv-x="278" d="M113 299T95 317T76 365Q76 395 97 414T150 434Q180 434 198 414T217 370Q217 338 197 319T146 299Q113 299 95 317ZM217 -24T187 -82T108 -186Q95 -185 83 -180T63 -167Q94 -132 111 -100T128
-41Q128 2 74 9Q74 53 85 84Q142 92 177 115Q198 107 207 88T217 33Q217 -24 187 -82Z" />
<glyph unicode="&lt;" glyph-name="less" horiz-adv-x="550" d="M261 127T63 228Q61 235 61 249Q61 272 73 293L428 504Q445 499 457 490T479 465L129 260L465 82Q467 68 467 60Q467 25 454 11Q261 127 63 228Z" />
<glyph unicode="=" glyph-name="equal" horiz-adv-x="550" d="M54 326T57 343T66 370H496Q496 333 485 311Q406 312 282 312Q144 312 54 310Q54 326 57 343ZM54 155T56 172T65 200H497Q497 161 486 140Q407 141 282 141Q143 141 54 139Q54 155 56 172Z" />
<glyph unicode="&gt;" glyph-name="greater" horiz-adv-x="550" d="M487 270T487 264Q487 242 475 222Q381 174 307 131T104 10Q86 28 86 62Q86 70 87 74L421 260L75 465Q93 497 126 508L485 282Q487 270 487 264Z" />
<glyph unicode="?" glyph-name="question" horiz-adv-x="537" d="M364 715T409 682T454 589Q454 544 435 511T379 437Q341 394 323 362T304 285Q304 270 307 249T316 212Q295 201 265 201Q245 215 230 250T215 325Q215 372 232 403T283 470Q310 500 323 523T337
576Q337 616 316 640T266 664Q232 664 213 634T186 533Q143 533 117 547Q120 585 120 614Q120 641 117 671Q191 715 285 715Q364 715 409 682ZM246 -9T225 11T204 66Q204 101 227 123T288 145Q322 145 343 123T365 72Q365 35 343 13T284 -9Q246 -9 225 11Z" />
<glyph unicode="@" glyph-name="at" horiz-adv-x="928" d="M779 45T790 20Q748 -28 666 -55T486 -83Q360 -83 276 -41T150 75T108 246Q108 338 154 413T289 532T498 576Q603 576 675 545T784 459T820 337Q820 258 790 196T709 100T603 65Q568 65 550 85T532 140V170Q510
120 476 93T396 65Q337 65 306 105T275 226Q275 285 298 331T362 403T454 429Q501 429 546 421Q594 421 619 429Q633 423 637 410T641 356V232Q641 190 643 172T651 147T672 141Q689 141 710 161T747 221T763 320Q763 378 733 425T641 501T488 529Q387 529 316
493T210 395T174 252Q174 174 209 110T318 7T499 -32Q577 -32 643 -12T755 50Q779 45 790 20ZM455 140T475 161T511 222T535 316L536 360Q503 380 464 380Q436 380 420 369T397 331T389 253Q389 195 402 168T438 140Q455 140 475 161Z" />
<glyph unicode="A" glyph-name="A" horiz-adv-x="708" d="M687 26T687 -3Q648 0 561 0Q468 0 430 -3Q430 31 438 50Q463 53 474 60T486 81Q486 96 472 127L439 205Q284 205 185 200L165 148Q152 115 152 93Q152 73 164 63T201 50Q209 26 209 -3Q175 0 107 0Q78
0 21 -3Q21 28 29 49Q55 54 69 74T109 155L317 677Q338 682 366 682L600 152Q619 110 631 90T653 61T680 50Q687 26 687 -3ZM417 256L352 408Q325 468 306 527Q288 469 265 408L207 256H417Z" />
<glyph unicode="B" glyph-name="B" horiz-adv-x="648" d="M600 356T600 196Q600 107 536 54T339 0Q147 0 49 -3Q49 34 55 50Q83 52 97 60T118 89T124 152V533Q124 570 118 589T98 616T55 626Q50 644 50 679Q89 676 155 676Q208 676 237 677L322 678Q435 678 494
644T553 530Q553 466 513 422T404 368Q600 356 600 196ZM424 564T385 594T290 625Q270 625 247 619V378H279Q424 378 424 500Q424 564 385 594ZM396 52T429 86T462 183Q462 326 271 326H247V149Q247 107 255 87T281 59T333 52Q396 52 429 86Z" />
<glyph unicode="C" glyph-name="C" horiz-adv-x="648" d="M265 -9T191 35T76 160T35 342Q35 452 82 529T206 646T372 685Q431 685 484 672T593 633Q582 576 582 478Q561 468 516 468Q514 561 480 597T379 634Q272 634 220 558T168 369Q168 281 196 211T278 101T407
61Q451 61 497 75T585 115Q592 109 598 98T606 78Q551 34 493 13T360 -9Q265 -9 191 35Z" />
<glyph unicode="D" glyph-name="D" horiz-adv-x="733" d="M489 678T593 610T698 355Q698 207 633 129T484 25T322 0Q123 0 49 -3Q49 34 55 50Q83 52 97 60T118 89T124 152V533Q124 570 118 589T98 616T55 626Q50 644 50 679Q103 676 209 676Q245 676 263 677L323
678Q489 678 593 610ZM440 53T503 116T567 339Q567 490 495 560T312 630Q274 630 247 620V153Q247 112 254 91T279 62T334 53Q440 53 503 116Z" />
<glyph unicode="E" glyph-name="E" horiz-adv-x="614" d="M559 175T580 155Q558 87 549 -2Q459 0 322 0Q123 0 49 -3Q49 34 55 50Q83 52 97 60T117 89T123 152V533Q123 570 117 589T97 616T54 626Q49 644 49 679Q117 676 245 676Q406 676 523 679Q533 566 544
515Q522 502 484 502Q478 559 444 592T327 626H246V365H292Q350 365 372 381T395 444Q419 452 454 452Q451 403 451 341Q451 274 454 224Q417 224 397 230Q393 279 371 296T292 313H246V153Q246 112 253 91T279 62T334 53H343Q402 53 435 67T486 107T520 182Q559
175 580 155Z" />
<glyph unicode="F" glyph-name="F" horiz-adv-x="577" d="M246 626V341H305Q363 341 384 357T407 419Q431 428 466 428Q464 394 464 317Q464 232 466 200Q431 200 409 206Q405 255 384 272T305 289H246V161Q246 118 255 95T285 62T341 50Q347 33 347 -3Q298 0
203 0Q96 0 49 -3Q49 34 54 50Q82 52 96 60T117 87T123 144V533Q123 570 117 589T97 616T55 626Q49 647 49 679Q123 676 244 676Q406 676 523 679Q530 573 544 515Q522 502 484 502Q477 560 444 593T327 626H246Z" />
<glyph unicode="G" glyph-name="G" horiz-adv-x="722" d="M270 -9T194 34T77 158T35 346Q35 453 82 529T209 645T385 685Q452 685 514 672T624 637Q613 580 613 482Q589 471 547 471Q543 563 503 598T389 634Q316 634 266 598T192 501T168 368Q168 277 193 205T269
91T389 49Q416 49 435 51T472 61Q490 68 497 83T505 135V181Q505 224 499 242T477 266T423 274Q417 294 417 329Q446 326 544 326Q641 326 668 328Q668 293 662 274Q642 273 633 267T621 244T618 185V146Q618 118 620 101T632 67Q585 33 518 12T371 -9Q270 -9 194
34Z" />
<glyph unicode="H" glyph-name="H" horiz-adv-x="767" d="M644 106T650 87T670 60T712 50Q718 31 718 -3Q663 0 586 0Q503 0 446 -3Q446 27 453 50Q481 52 495 60T514 87T520 144V321Q315 321 246 314V144Q246 106 252 87T272 60T314 50Q320 34 320 -3Q265 0 189
0Q105 0 49 -3Q49 31 55 50Q83 52 97 60T117 87T123 144V533Q123 570 117 589T97 616T55 626Q49 647 49 679Q103 676 186 676Q260 676 320 679Q320 664 319 650T314 626Q286 624 272 616T252 589T246 533V374H520V533Q520 570 515 589T495 616T453 626Q446 646
446 679Q500 676 584 676Q658 676 718 679Q718 644 712 626Q684 624 670 616T650 589T644 533V144Q644 106 650 87Z" />
<glyph unicode="I" glyph-name="I" horiz-adv-x="369" d="M123 570T117 589T97 616T55 626Q49 647 49 679Q103 676 186 676Q260 676 320 679Q320 664 319 650T314 626Q286 624 272 616T252 589T246 533V144Q246 106 252 87T272 60T314 50Q320 34 320 -3Q265 0
189 0Q105 0 49 -3Q49 31 55 50Q83 52 97 60T117 87T123 144V533Q123 570 117 589Z" />
<glyph unicode="J" glyph-name="J" horiz-adv-x="347" d="M235 26T220 -38T158 -154T21 -249Q1 -236 -2 -210Q57 -163 84 -108T111 42V532Q111 570 106 589T86 616T44 626Q37 646 37 679Q87 676 173 676Q264 676 309 679Q309 643 303 626Q275 624 261 616T241
589T235 532V128Q235 26 220 -38Z" />
<glyph unicode="K" glyph-name="K" horiz-adv-x="703" d="M577 98T606 77T684 52Q684 19 677 0Q549 0 492 -7Q453 63 382 159T246 320V144Q246 106 252 87T272 60T314 50Q320 34 320 -3Q265 0 189 0Q105 0 49 -3Q49 31 55 50Q83 52 97 60T117 87T123 144V533Q123
570 117 589T97 616T55 626Q49 647 49 679Q103 676 186 676Q260 676 320 679Q320 664 319 650T314 626Q286 624 272 616T252 589T246 533V360L420 541Q460 582 460 605Q460 624 429 626Q423 645 423 679Q457 676 529 676Q606 676 646 679Q646 645 638 626Q602 624
571 607T496 543L349 387Q425 308 539 151Q577 98 606 77Z" />
<glyph unicode="L" glyph-name="L" horiz-adv-x="583" d="M392 53T422 65T470 105T505 182Q545 175 565 155Q545 95 534 -2Q446 0 322 0Q123 0 49 -3Q49 34 55 50Q83 52 97 60T118 89T124 152V533Q124 570 118 589T98 616T55 626Q50 644 50 679Q117 676 185 676Q261
676 321 679Q321 643 315 626Q287 624 273 616T253 589T247 531V153Q247 112 254 91T279 62T334 53H343Q392 53 422 65Z" />
<glyph unicode="M" glyph-name="M" horiz-adv-x="950" d="M922 26T922 -3Q877 0 781 0Q697 0 650 -3Q650 28 657 50Q694 54 707 67T720 115Q720 137 717 168L683 492L481 -2Q463 -9 431 -9L204 490L174 195Q170 149 170 136Q170 89 185 71T237 50Q243 30 243 -3Q200
0 135 0Q66 0 28 -3Q28 30 34 50Q62 52 77 64T101 108T116 201L146 526Q147 536 147 553Q147 594 132 610T80 626Q74 645 74 679Q108 676 168 676Q223 676 261 679L492 160L692 679Q732 676 788 676Q839 676 881 679Q881 646 875 626Q840 626 823 610T806 550Q806
541 808 521L842 180Q847 127 855 101T876 64T916 51Q922 26 922 -3Z" />
<glyph unicode="N" glyph-name="N" horiz-adv-x="733" d="M656 676T695 679Q695 644 690 626Q666 625 654 613T636 570T630 484V0Q608 -7 573 -7L180 512V196Q180 138 186 108T207 64T252 50Q258 32 258 -3Q213 0 153 0Q81 0 45 -3Q45 31 50 50Q79 51 94 64T116
107T123 196V587L116 596Q103 612 91 618T50 626Q45 647 45 679Q77 676 135 676Q184 676 215 679L572 201V484Q572 541 566 570T545 612T499 626Q493 654 493 679Q537 676 597 676Q656 676 695 679Z" />
<glyph unicode="O" glyph-name="O" horiz-adv-x="739" d="M269 -9T194 36T77 160T35 340Q35 442 78 520T198 641T369 685Q466 685 542 642T661 522T704 344Q704 244 662 164T543 37T369 -9Q269 -9 194 36ZM444 48T486 83T550 179T573 319Q573 405 545 476T465
588T350 630Q297 630 255 598T190 505T166 366Q166 281 192 209T268 92T387 48Q444 48 486 83Z" />
<glyph unicode="P" glyph-name="P" horiz-adv-x="612" d="M376 298T411 333T447 451Q447 532 410 578T294 624Q271 624 246 618V161Q246 118 255 95T285 62T341 50Q347 33 347 -3Q298 0 202 0Q96 0 49 -3Q49 34 54 50Q82 52 96 60T117 87T123 144V533Q123 570
117 589T97 616T55 626Q49 647 49 679Q104 676 192 676L277 677Q303 678 339 678Q464 678 520 624T577 480Q577 416 550 362T470 275T343 242Q301 242 273 253Q271 265 271 272Q271 288 277 303Q294 298 321 298Q376 298 411 333Z" />
<glyph unicode="Q" glyph-name="Q" horiz-adv-x="739" d="M524 4T547 -9T600 -42Q642 -69 673 -82T748 -96Q763 -96 771 -95Q771 -125 764 -147Q690 -163 623 -194Q586 -183 562 -161T510 -103Q477 -61 448 -38T369 -9Q269 -9 194 36T77 160T35 340Q35 442 78
520T198 641T369 685Q466 685 542 642T661 522T704 344Q704 228 648 140T495 13Q524 4 547 -9ZM166 281T192 209T268 92T387 48Q444 48 486 83T550 179T573 319Q573 405 545 476T465 588T350 630Q297 630 255 598T190 505T166 366Q166 281 192 209Z" />
<glyph unicode="R" glyph-name="R" horiz-adv-x="693" d="M573 106T587 89T621 63T672 53Q672 20 666 0Q550 0 490 -9Q459 45 440 85T417 135Q388 191 366 224T306 294L275 293L246 294V146Q246 107 251 87T270 59T308 50Q313 34 313 -3Q271 0 179 0Q100 0 49
-3Q49 32 55 50Q83 52 97 60T117 87T123 144V533Q123 571 117 590T97 618T54 627Q49 646 49 679Q86 676 183 676L262 677Q326 679 361 679Q473 679 530 631T588 505Q588 433 545 384T426 316Q461 286 484 253T553 141Q573 106 587 89ZM270 347T286 347Q362 347
410 383T459 491Q459 555 423 590T311 626Q280 626 246 618V350Q270 347 286 347Z" />
<glyph unicode="S" glyph-name="S" horiz-adv-x="555" d="M211 -9T161 6T57 53Q67 110 67 203Q96 211 140 211Q145 126 177 87T281 48Q341 48 370 74T400 142Q400 175 382 199T335 239T260 278Q199 306 161 330T97 396T70 498Q70 587 128 636T283 685Q334 685
383 673T461 641Q461 545 467 504Q442 491 394 491Q380 571 353 601T278 631Q230 631 203 608T175 543Q175 508 194 483T243 441T322 400Q383 371 421 347T485 284T512 187Q512 131 486 87T405 17T272 -9Q211 -9 161 6Z" />
<glyph unicode="T" glyph-name="T" horiz-adv-x="622" d="M583 608T597 511Q569 499 532 500Q527 563 501 593T419 623H375V144Q375 106 381 87T405 60T458 50Q465 32 465 -3Q402 0 316 0Q216 0 157 -3Q157 32 164 50Q200 52 218 60T243 87T251 144V623H214Q171
623 147 609T110 570T88 500Q45 500 25 510Q44 607 44 679Q107 676 315 676Q523 676 586 679Q583 608 597 511Z" />
<glyph unicode="U" glyph-name="U" horiz-adv-x="681" d="M577 180T565 130T519 47Q463 -9 353 -9Q259 -9 205 17T127 97T103 233V532Q103 571 98 589T81 615T42 626Q36 645 36 679Q76 676 157 676Q252 676 299 679Q299 647 294 626Q263 623 250 616T231 591T226
532V248Q226 154 261 103T380 52Q407 52 434 61T480 91Q502 114 510 152T519 268V497Q519 547 514 573T494 611T451 626Q446 654 446 679Q482 676 545 676Q604 676 643 679Q643 652 637 626Q613 623 600 612T582 575T577 500V271Q577 180 565 130Z" />
<glyph unicode="V" glyph-name="V" horiz-adv-x="692" d="M632 676T671 679Q671 652 665 626Q637 620 619 595T580 513Q462 212 372 -1Q353 -7 318 -7Q208 290 112 510Q89 563 78 585T56 615T27 626Q21 646 21 679Q63 676 154 676Q220 676 288 679Q288 649 282
626Q252 624 239 617T225 591Q225 571 247 519Q326 331 382 164Q468 363 522 517Q534 550 534 574Q534 620 483 626Q477 645 477 679Q518 676 570 676Q632 676 671 679Z" />
<glyph unicode="W" glyph-name="W" horiz-adv-x="998" d="M936 676T977 679Q977 646 970 626Q952 621 940 608T916 567T886 482L736 -2Q716 -9 677 -9Q595 224 493 485L328 -3Q304 -9 268 -9Q176 295 105 506Q86 564 76 586T56 616T26 625Q21 646 21 679Q69 676
149 676Q225 676 284 679Q284 649 278 626Q244 624 231 616T217 589Q217 568 234 519Q293 342 335 193L501 678Q519 684 557 684Q646 451 740 188L832 484Q847 534 847 562Q847 592 832 606T783 626Q775 647 775 679Q817 676 878 676Q936 676 977 679Z" />
<glyph unicode="X" glyph-name="X" horiz-adv-x="685" d="M650 29T650 -3Q607 0 510 0Q433 0 373 -2Q373 28 378 50Q400 52 410 57T421 76Q421 99 382 164Q355 211 316 273L244 167Q224 137 215 118T205 85Q205 71 216 63T253 50Q259 30 259 -3Q208 0 144 0Q75
0 34 -3Q34 31 41 52Q73 60 103 84T170 159L285 324Q241 395 166 509Q131 562 114 584T86 614T56 625Q49 647 49 679Q101 676 195 676Q261 676 323 678Q323 649 318 626Q295 622 285 615T274 594Q274 572 306 523L359 442L379 411L442 510Q478 569 478 593Q478
608 467 615T432 626Q426 646 426 679Q476 676 534 676Q600 676 637 679Q637 644 632 626Q601 618 578 597T513 513L412 359L423 341Q487 238 521 180Q554 126 573 100T608 63T643 50Q650 29 650 -3Z" />
<glyph unicode="Y" glyph-name="Y" horiz-adv-x="631" d="M560 676T610 678Q610 655 605 628Q579 622 558 599T513 527L381 255V173Q381 119 387 96T409 63T464 50Q471 30 471 -3Q399 0 320 0Q237 0 163 -2Q163 29 170 50Q212 53 229 61T252 91T258 164V254L99
568Q83 600 68 613T27 627Q21 647 21 678Q87 676 143 676Q252 676 286 678Q286 649 281 628Q258 626 248 619T238 597Q238 580 255 546Q305 446 359 320Q408 435 458 537Q476 573 476 592Q476 607 465 615T431 627Q423 653 423 678Q450 676 522 676Q560 676 610
678Z" />
<glyph unicode="Z" glyph-name="Z" horiz-adv-x="619" d="M537 178T565 161Q557 127 551 82T544 -3Q451 0 284 0Q131 0 62 -3Q50 18 50 40L67 68Q152 209 238 354T395 626H278Q235 626 211 616T170 578T143 494Q92 494 72 505Q82 540 87 587T93 678Q179 676 334
676Q466 676 534 678Q546 661 548 635Q391 346 207 51H328Q387 51 418 61T467 98T497 181Q537 178 565 161Z" />
<glyph unicode="[" glyph-name="bracketleft" horiz-adv-x="283" d="M70 740T130 740Q193 740 233 742Q245 726 245 692Q189 687 165 680T131 656T121 600V-140Q121 -172 132 -187T166 -209T234 -217Q240 -228 242 -239T245 -269Q212 -267 145 -267Q73 -267 35
-269V742Q70 740 130 740Z" />
<glyph unicode="\" glyph-name="backslash" horiz-adv-x="351" d="M29 512Q44 518 69 518Q82 518 88 517L320 -13Q299 -20 278 -20Q268 -20 263 -19L29 512Z" />
<glyph unicode="]" glyph-name="bracketright" horiz-adv-x="283" d="M210 -267T138 -267Q71 -267 38 -269Q38 -251 40 -240T49 -217Q94 -215 117 -209T151 -188T162 -140V600Q162 638 153 655T119 680T38 692Q38 726 50 742Q90 740 153 740Q213 740 248 742V-269Q210
-267 138 -267Z" />
<glyph unicode="_" glyph-name="underscore" horiz-adv-x="550" d="M28 -109T40 -86H522Q522 -100 519 -117T510 -145Q436 -144 379 -144T263 -144L106 -145L28 -146Q28 -109 40 -86Z" />
<glyph unicode="`" glyph-name="grave" horiz-adv-x="300" d="M121 633T57 699Q92 715 140 715Q152 715 172 713Q198 624 242 541Q225 532 185 534Q121 633 57 699Z" />
<glyph unicode="a" glyph-name="a" horiz-adv-x="645" d="M605 33T605 -2Q580 0 490 0Q392 0 368 -2Q368 35 374 52Q396 56 405 62T415 80Q415 89 407 107L391 141Q262 141 173 133L167 119Q159 100 159 86Q159 56 199 52Q205 30 205 -2Q167 0 116 0Q73 0 41 -2Q41
28 48 52Q69 55 82 69T115 127L290 500Q311 505 339 505L531 124Q553 81 566 68T599 52Q605 33 605 -2ZM369 187L318 295Q315 301 303 328T281 382Q271 351 246 298L197 187H369Z" />
<glyph unicode="b" glyph-name="b" horiz-adv-x="637" d="M479 266T524 234T569 142Q569 75 511 38T331 0Q195 0 69 -2Q69 36 75 52Q99 54 111 60T129 83T135 133V370Q135 402 130 417T113 439T74 448Q70 468 70 502Q114 500 162 500L245 501Q272 502 312 502Q529
502 529 390Q529 343 494 311T397 271Q479 266 524 234ZM405 448T294 448Q274 448 255 444V286H284Q349 286 377 306T405 366Q405 448 294 448ZM379 52T407 73T435 134Q435 185 391 207T275 229H255V128Q255 82 270 67T323 52Q379 52 407 73Z" />
<glyph unicode="c" glyph-name="c" horiz-adv-x="620" d="M537 426T537 354Q518 344 475 344Q473 402 443 428T358 454Q269 454 226 402T182 272Q182 211 205 163T275 87T387 59Q467 59 539 92Q546 86 551 76T559 54Q507 25 457 9T344 -7Q260 -7 194 26T92 118T55
252Q55 333 96 390T206 477T353 507Q449 507 547 468Q537 426 537 354Z" />
<glyph unicode="d" glyph-name="d" horiz-adv-x="698" d="M69 36T75 52Q99 54 111 60T129 83T135 133V370Q135 402 130 417T113 439T74 448Q70 468 70 502Q134 500 216 500Q246 500 262 501L316 502Q462 502 552 451T643 263Q643 107 538 54T314 0Q155 0 69 -2Q69
36 75 52ZM386 52T426 65T492 122T518 249Q518 358 459 404T307 450Q273 450 255 444V136Q255 102 261 85T282 60T329 52Q386 52 426 65Z" />
<glyph unicode="e" glyph-name="e" horiz-adv-x="600" d="M528 145T546 127Q528 80 519 -1L314 0Q155 0 69 -2Q69 36 75 52Q100 54 112 60T129 83T134 133V370Q134 402 129 417T112 439T74 448Q69 467 69 502Q153 500 253 500Q422 500 496 502Q503 414 515 374Q487
361 456 361Q450 404 422 426T321 448H254V273H293Q339 273 356 284T374 326Q398 334 430 334Q427 298 427 249Q427 195 430 162Q395 162 376 169Q374 199 357 210T293 221H254V136Q254 102 260 85T282 60T329 52H338Q387 52 415 62T458 92T487 151Q528 145 546
127Z" />
<glyph unicode="f" glyph-name="f" horiz-adv-x="568" d="M254 448V251H302Q350 251 369 263T389 305Q410 313 444 313Q442 265 442 227Q442 184 444 140Q409 140 390 147Q387 178 369 188T302 199H254V140Q254 93 273 74T339 52Q345 34 345 -2Q285 0 212 0Q129
0 69 -2Q69 36 74 52Q99 54 111 60T129 82T134 132V370Q134 402 129 417T112 439T75 448Q69 471 69 502Q159 500 253 500Q422 500 498 502Q503 418 516 373Q490 361 457 361Q451 404 423 426T322 448H254Z" />
<glyph unicode="g" glyph-name="g" horiz-adv-x="683" d="M263 -7T196 26T92 118T55 254Q55 335 97 392T210 477T363 506Q421 506 477 496T570 469Q561 425 561 354Q548 348 534 347T498 345Q493 453 365 453Q305 453 265 428T205 362T185 272Q185 172 232 111T368
50Q413 50 434 55Q448 58 454 69T461 107V134Q461 159 456 170T437 186T391 192Q385 215 385 246Q412 243 498 243Q584 243 609 245Q609 213 604 192Q579 191 573 182T566 141V119Q566 95 568 82T579 51Q539 25 480 9T351 -7Q263 -7 196 26Z" />
<glyph unicode="h" glyph-name="h" horiz-adv-x="737" d="M603 97T608 81T625 58T663 50Q668 35 668 -2Q606 0 548 0Q490 0 422 -2Q422 33 429 50Q452 52 463 58T478 80T483 130V234Q325 234 254 227V130Q254 97 259 81T275 58T310 50Q315 30 315 -2Q253 0 199
0Q137 0 69 -2Q69 32 75 50Q100 52 112 58T129 80T134 130V372Q134 404 129 419T112 441T75 450Q69 471 69 502Q131 500 196 500Q247 500 315 502Q315 467 310 450Q286 448 275 441T259 418T254 370V284H483V370Q483 402 479 418T463 440T427 450Q422 473 422 502Q484
500 545 500Q598 500 668 502Q668 467 662 450Q637 448 625 442T608 420T603 372V130Q603 97 608 81Z" />
<glyph unicode="i" glyph-name="i" horiz-adv-x="388" d="M69 33T75 52Q100 54 112 60T129 82T134 132V370Q134 402 129 417T112 439T75 448Q69 466 69 502Q131 500 196 500Q249 500 319 502Q319 466 313 448Q288 446 276 440T259 418T254 370V132Q254 99 259
83T276 60T314 52Q319 36 319 -2Q255 0 199 0Q137 0 69 -2Q69 33 75 52Z" />
<glyph unicode="j" glyph-name="j" horiz-adv-x="359" d="M236 23T222 -26T165 -115T40 -184Q21 -169 18 -135Q71 -104 94 -67T117 43V368Q117 402 112 418T95 440T57 448Q51 471 51 502Q111 500 177 500Q245 500 301 502Q301 467 295 448Q259 446 248 430T236
368V99Q236 23 222 -26Z" />
<glyph unicode="k" glyph-name="k" horiz-adv-x="674" d="M534 90T567 73T635 52Q635 17 629 0Q513 0 463 -7Q401 87 254 232V132Q254 99 259 83T276 60T314 52Q319 36 319 -2Q255 0 199 0Q137 0 69 -2Q69 33 75 52Q100 54 112 60T129 82T134 132V370Q134 402
129 417T112 439T75 448Q69 466 69 502Q131 500 196 500Q249 500 319 502Q319 466 313 448Q288 446 276 440T259 418T254 370V266L398 381Q440 413 440 432Q440 439 433 443T412 448Q406 472 406 502Q448 500 501 500Q563 500 609 502Q609 489 607 473T602 448Q572
447 545 434T476 392L358 292Q434 209 508 121Q534 90 567 73Z" />
<glyph unicode="l" glyph-name="l" horiz-adv-x="573" d="M398 52T427 74T476 152Q514 146 536 128Q516 75 509 -1L314 0Q155 0 69 -2Q69 36 75 52Q99 54 111 60T129 83T135 133V370Q135 402 130 417T113 439T74 448Q70 468 70 502Q154 500 194 500Q248 500 320
502Q320 466 313 448Q289 446 277 440T260 418T255 369V136Q255 102 261 85T282 60T329 52H338Q398 52 427 74Z" />
<glyph unicode="m" glyph-name="m" horiz-adv-x="881" d="M832 30T832 -2Q782 0 701 0Q636 0 582 -2Q582 18 588 50Q621 53 632 62T644 98Q644 105 640 143L611 363L439 13Q415 6 387 7L205 364L180 174Q177 144 177 122Q177 81 190 67T235 50Q241 26 241 -2Q193
0 145 0Q90 0 48 -2Q48 31 54 50Q77 51 91 62T113 99T126 173L152 366Q153 375 153 389Q153 424 140 436T94 448Q88 468 88 502Q132 500 178 500Q224 500 266 502L448 157L617 502Q667 500 709 500Q747 500 797 502Q797 471 791 448Q760 448 746 435T731 390Q731
383 733 365L762 152Q768 107 774 87T792 59T827 50Q832 30 832 -2Z" />
<glyph unicode="n" glyph-name="n" horiz-adv-x="712" d="M599 500T643 502Q643 466 639 448Q617 446 606 438T591 408T586 343V0Q569 -7 532 -7L192 370V158Q192 115 197 94T216 63T257 52Q262 32 262 -2Q210 0 167 0Q113 0 69 -2Q69 33 75 52Q101 54 114 63T133
93T139 158V429L137 431Q129 440 117 443T75 448Q69 467 69 502Q107 500 154 500Q192 500 230 502L532 160V343Q532 386 527 407T508 436T465 448Q461 471 461 502Q511 500 556 500Q599 500 643 502Z" />
<glyph unicode="o" glyph-name="o" horiz-adv-x="702" d="M261 -9T195 23T92 113T55 249Q55 326 92 384T196 475T353 507Q440 507 507 476T610 388T647 253Q647 176 610 117T506 24T349 -9Q261 -9 195 23ZM435 45T476 97T518 238Q518 302 495 351T432 427T338
454Q266 454 225 404T184 265Q184 201 206 151T269 73T362 45Q435 45 476 97Z" />
<glyph unicode="p" glyph-name="p" horiz-adv-x="598" d="M364 219T393 245T423 329Q423 383 391 415T296 447Q275 447 254 442V140Q254 93 273 74T339 52Q345 34 345 -2Q285 0 212 0Q129 0 69 -2Q69 36 74 52Q99 54 111 60T129 82T134 132V370Q134 402 129 417T112
439T75 448Q69 471 69 502Q169 500 202 500Q240 500 264 501L345 502Q448 502 495 458T543 343Q543 293 519 252T450 188T340 164Q301 164 279 171Q277 179 277 193Q277 211 282 221Q295 219 318 219Q364 219 393 245Z" />
<glyph unicode="q" glyph-name="q" horiz-adv-x="702" d="M485 -5T521 -26Q562 -48 593 -57T671 -65Q671 -101 664 -122Q606 -129 534 -159Q502 -149 482 -132T438 -84Q412 -51 389 -33T329 -9Q246 -5 185 27T89 117T55 249Q55 326 92 384T196 475T353 507Q440
507 507 476T610 388T647 253Q647 162 597 97T457 5Q485 -5 521 -26ZM184 201T206 151T269 73T362 45Q435 45 476 97T518 238Q518 302 495 351T432 427T338 454Q266 454 225 404T184 265Q184 201 206 151Z" />
<glyph unicode="r" glyph-name="r" horiz-adv-x="666" d="M540 80T564 67T625 52Q625 19 619 0Q510 0 457 -7Q444 20 415 69L393 107Q374 142 354 163T308 201Q288 200 252 200V131Q252 96 257 80T272 57T305 50Q309 34 309 -2Q274 0 186 0Q133 0 69 -2Q69 34
75 50Q100 52 112 58T129 80T134 130V371Q134 403 129 419T112 441T74 450Q69 468 69 503Q105 500 187 500Q211 500 267 502Q323 504 350 504Q456 504 506 466T556 364Q556 304 518 265T415 215Q443 205 460 187T518 111Q540 80 564 67ZM353 256T393 281T434 353Q434
451 308 451Q285 451 252 444V259Q275 256 288 256Q353 256 393 281Z" />
<glyph unicode="s" glyph-name="s" horiz-adv-x="575" d="M225 -7T177 3T77 35Q89 101 86 158Q117 167 154 167Q158 105 193 78T293 51Q346 51 376 66T407 108Q407 135 379 151T288 189Q226 210 187 229T120 281T92 364Q92 434 146 470T293 506Q343 506 391 497T466
474L465 443Q465 396 472 364Q459 357 441 354T405 350Q391 406 360 428T282 451Q241 451 216 438T191 400Q191 370 222 353T318 314Q379 293 417 275T483 226T511 147Q511 76 454 35T283 -7Q225 -7 177 3Z" />
<glyph unicode="t" glyph-name="t" horiz-adv-x="608" d="M548 439T563 365Q538 354 499 354Q494 404 472 426T403 448H366V130Q366 96 371 80T392 58T441 50Q448 33 448 -2Q376 0 310 0Q229 0 159 -2Q159 11 161 26T166 50Q199 52 215 58T239 80T246 130V448H214Q177
448 157 438T125 409T106 354Q65 354 45 364Q52 395 57 434T62 502Q122 500 307 500Q492 500 551 502Q548 439 563 365Z" />
<glyph unicode="u" glyph-name="u" horiz-adv-x="657" d="M255 -7T207 12T137 71T116 176V366Q116 400 112 416T96 438T62 448Q56 466 56 502Q104 500 166 500Q245 500 299 502Q299 471 295 448Q268 445 256 439T240 416T235 366V189Q235 118 265 84T366 50Q390
50 414 57T454 81Q471 98 479 126T487 209V350Q487 388 482 407T464 436T426 448Q422 475 422 502Q464 500 511 500Q553 500 599 502Q599 467 593 448Q561 445 551 427T540 356V204Q540 136 529 97T488 33Q438 -7 340 -7Q255 -7 207 12Z" />
<glyph unicode="v" glyph-name="v" horiz-adv-x="659" d="M574 500T618 502Q618 471 612 450Q571 442 539 370Q468 212 358 0Q341 -7 305 -7Q216 182 123 359Q101 401 91 417T72 440T47 450Q41 463 41 502Q93 500 162 500Q200 500 286 502Q286 472 280 450Q256
447 245 441T234 421Q234 406 252 373Q314 260 364 142Q442 293 477 371Q488 398 488 414Q488 446 450 450Q445 464 445 502Q491 500 530 500Q574 500 618 502Z" />
<glyph unicode="w" glyph-name="w" horiz-adv-x="925" d="M836 500T884 502Q884 469 877 448Q853 441 839 421T804 343L681 -1Q662 -7 622 -7Q585 75 511 223L462 322L323 -2Q304 -7 264 -7Q200 164 117 352Q96 400 88 416T71 439T46 447Q41 467 41 502Q97 500
160 500L284 502Q284 469 279 448Q249 445 237 439T224 417Q224 401 241 364L258 329Q308 226 329 171L467 501Q485 506 520 506L578 389Q653 237 683 169L752 343Q766 382 766 401Q766 423 753 433T709 448Q701 471 701 502Q751 500 795 500Q836 500 884 502Z"
/>
<glyph unicode="x" glyph-name="x" horiz-adv-x="662" d="M607 31T607 -3Q570 0 481 0L397 -1Q378 -2 351 -2Q351 26 356 50Q374 51 383 55T393 71Q393 94 351 150L307 205L248 138Q226 113 217 99T207 75Q207 56 250 50Q256 30 256 -3Q211 0 153 0Q90 0 54 -3Q54
33 61 50Q87 57 114 78T180 139L276 242L195 337Q188 346 182 353T171 366L153 387Q119 427 107 437T73 451Q67 470 67 503Q112 500 204 500Q278 500 320 503Q320 479 315 451Q297 449 289 444T280 428Q280 412 310 373L367 306L418 366Q449 404 449 425Q449 448
411 451Q406 470 406 503Q450 500 503 500Q562 500 595 503Q595 467 591 451Q559 441 541 427T484 367L400 267Q463 192 493 153L518 121Q549 80 563 67T601 50Q607 31 607 -3Z" />
<glyph unicode="y" glyph-name="y" horiz-adv-x="604" d="M517 500T563 502Q563 471 558 449Q535 446 517 433T480 384L365 167V143Q365 104 370 87T391 62T440 52Q447 30 447 -2Q403 0 305 0Q232 0 158 -2Q158 31 166 52Q204 55 219 61T240 84T245 142V168L109
405Q95 429 81 438T46 448Q41 468 41 502Q103 500 155 500Q254 500 285 502Q285 476 280 449Q243 446 243 423Q243 408 256 388Q272 361 297 313T343 224Q389 319 430 390Q442 411 442 425Q442 447 404 448Q397 476 397 502Q423 500 485 500Q517 500 563 502Z"
/>
<glyph unicode="z" glyph-name="z" horiz-adv-x="606" d="M507 148T532 132Q525 107 519 67T512 -2Q432 0 280 0Q169 0 81 -2Q70 20 70 46Q123 121 206 228Q309 363 368 448H275Q238 448 216 440T180 409T156 343Q110 343 89 353Q98 386 103 427T108 502Q186 500
323 500Q444 500 505 502Q517 476 518 454Q467 377 416 308T292 143L224 52H318Q369 52 396 60T440 89T467 153Q507 148 532 132Z" />
<glyph unicode="{" glyph-name="braceleft" horiz-adv-x="354" d="M203 -248T165 -195T126 -65Q126 -39 130 11Q134 59 134 81Q133 135 112 170T35 224Q35 252 40 264Q94 282 114 315T136 397Q136 414 134 437T131 471Q125 523 125 551Q126 620 161 668T296 745Q308
730 308 706Q260 690 242 659T223 584Q223 559 228 528T234 487Q246 421 246 389Q246 334 217 298T115 246Q189 229 218 190T247 92Q247 60 237 -8Q227 -74 227 -104Q227 -152 246 -184T314 -231Q315 -236 315 -246Q315 -264 306 -274Q203 -248 165 -195Z" />
<glyph unicode="}" glyph-name="braceright" horiz-adv-x="354" d="M38 -261T38 -244Q38 -235 39 -231Q88 -216 107 -184T127 -104Q127 -74 117 -8Q107 60 107 92Q107 151 136 190T238 246Q165 261 137 297T108 389Q108 421 120 487Q121 496 126 527T131 584Q131
628 112 659T45 706Q45 729 58 745Q156 717 192 669T229 551Q229 523 223 471Q222 460 220 437T218 397Q218 349 239 316T314 264Q319 252 319 224Q262 206 241 171T220 81Q220 59 224 11Q228 -39 228 -65Q227 -141 189 -194T48 -274Q38 -261 38 -244Z" />
<glyph unicode="~" glyph-name="asciitilde" horiz-adv-x="550" d="M61 193T54 200T44 218Q112 326 186 326Q209 326 232 318T286 294Q317 279 338 272T380 264Q425 264 469 314Q491 311 506 293Q440 189 371 189Q348 189 327 197T275 223Q243 240 224 248T182
256Q127 256 74 187Q61 193 54 200Z" />
<glyph unicode="&#xa0;" glyph-name="uni00A0" horiz-adv-x="200" />
<glyph unicode="&#xa1;" glyph-name="exclamdown" horiz-adv-x="411" d="M133 428T153 447T204 467Q237 467 255 449T274 401Q274 371 253 352T200 332Q170 332 152 352T133 396Q133 428 153 447ZM164 37T173 220Q194 228 234 228Q251 -24 278 -220Q250 -225 214
-235T158 -256Q137 -249 137 -225Q137 -216 138 -211Q164 37 173 220Z" />
<glyph unicode="&#xa2;" glyph-name="cent" horiz-adv-x="620" d="M517 30T478 16T392 -4L393 -98Q377 -98 359 -95T332 -87V-7Q251 -5 188 29T90 121T55 252Q55 329 93 385T194 472T332 506V652Q374 652 393 640L391 506Q468 499 547 468Q537 426 537 354Q518
344 475 344Q472 438 391 451V59Q469 61 539 92Q546 86 551 76T559 54Q517 30 478 16ZM182 193T221 137T332 65V453Q256 445 219 394T182 272Q182 193 221 137Z" />
<glyph unicode="&#xa3;" glyph-name="sterling" horiz-adv-x="558" d="M468 146T481 137T504 118Q444 37 428 -7Q407 -7 392 -4T359 5Q350 8 328 16T284 29T231 33Q193 33 162 24T103 -6Q81 9 69 39Q120 68 144 101T169 177Q169 199 165 212Q116 212 74 210Q74
246 85 269H141Q125 298 118 319T110 372Q110 434 160 470T303 507Q404 507 456 483Q452 460 452 425Q452 410 454 376Q424 362 380 364Q376 412 356 432T292 452Q263 452 245 438T226 398Q226 379 233 364T255 328Q279 294 284 269H387Q387 236 376 211L281 213Q267
156 216 98Q246 119 269 129T312 139Q344 139 380 127Q404 120 417 120Q428 120 437 126T455 149Q468 146 481 137Z" />
<glyph unicode="&#xa5;" glyph-name="yen" horiz-adv-x="604" d="M517 500T563 502Q563 471 558 449Q535 446 517 433T480 384L428 286H498Q498 262 488 232L400 233L375 187H496Q496 159 485 134H365Q366 100 371 84T392 62T440 52Q447 30 447 -2Q403 0 305 0Q232
0 158 -2Q158 31 166 52Q203 55 218 60T238 82T245 134H105Q105 164 115 187L234 188L208 233L108 232Q108 263 118 286H177L109 405Q95 429 81 438T46 448Q41 468 41 502Q103 500 155 500Q254 500 285 502Q285 476 280 449Q243 446 243 423Q243 408 256 388Q272
361 297 313T343 224Q389 319 430 390Q442 411 442 425Q442 447 404 448Q397 476 397 502Q423 500 485 500Q517 500 563 502Z" />
<glyph unicode="&#xa8;" glyph-name="dieresis" horiz-adv-x="300" d="M15 525T-4 542T-23 584Q-23 612 -7 631T43 650Q77 650 94 633T111 586Q111 560 92 543T45 525Q15 525 -4 542ZM224 525T206 543T187 591Q187 618 206 634T255 650Q284 650 303 633T323 591Q323
563 307 544T258 525Q224 525 206 543Z" />
<glyph unicode="&#xa9;" glyph-name="copyright" horiz-adv-x="805" d="M497 573T575 528T699 403T745 230Q745 136 700 58T576 -67T403 -113Q308 -113 229 -68T105 56T60 230Q60 325 105 403T229 527T403 573Q497 573 575 528ZM322 523T255 484T149 378T110 230Q110
148 148 82T254 -23T403 -62Q484 -62 551 -24T657 82T696 230Q696 311 657 378T551 484T403 523Q322 523 255 484ZM456 453T487 444T556 412Q549 370 549 301Q530 292 498 292Q488 401 398 401Q351 401 330 359T308 242Q308 167 337 116T427 65Q492 65 538 112Q554
100 558 79Q502 5 395 5Q343 5 299 31T227 107T199 228Q199 295 226 346T301 425T413 453Q456 453 487 444Z" />
<glyph unicode="&#xaa;" glyph-name="ordfeminine" horiz-adv-x="436" d="M252 367T252 396Q252 410 257 432Q251 408 227 386Q196 360 149 360Q97 360 71 382T44 446Q44 505 97 533T246 577Q246 614 243 628T231 654Q216 675 189 675Q164 675 152 651T136 590Q93
590 74 597Q75 604 75 619Q75 654 69 679Q136 717 210 717Q252 717 276 709T318 683Q336 664 342 639T349 561V488Q349 453 357 442T394 430Q396 402 387 385Q330 383 278 359Q252 367 252 396ZM207 421T226 446T246 517V537Q198 530 173 515T148 465Q148 442 157
432T182 421Q207 421 226 446Z" />
<glyph unicode="&#xab;" glyph-name="guillemotleft" horiz-adv-x="508" d="M188 310T159 265Q202 185 254 116Q244 90 220 75Q140 159 60 233Q60 256 69 280Q138 339 213 417Q243 414 261 399Q188 310 159 265ZM378 324T342 262Q386 178 423 120Q419 109 409
99T384 81Q314 165 250 230Q250 260 258 279Q311 332 378 411Q407 409 426 392Q378 324 342 262Z" />
<glyph unicode="&#xad;" glyph-name="uni00AD" horiz-adv-x="419" d="M359 253T346 223Q160 223 60 218Q60 237 64 259T76 297H359Q359 253 346 223Z" />
<glyph unicode="&#xae;" glyph-name="registered" horiz-adv-x="516" d="M314 783T359 757T430 685T456 585Q456 530 430 485T359 413T259 387Q204 387 159 413T87 484T60 585Q60 640 86 685T158 756T259 783Q314 783 359 757ZM303 429T338 449T394 506T414 585Q414
628 394 664T338 720T259 741Q215 741 179 721T123 664T102 585Q102 542 122 506T179 450T259 429Q303 429 338 449ZM325 535T347 489Q332 483 316 483Q306 483 301 484Q285 526 260 555H236V485Q226 482 214 482Q203 482 193 485V682Q225 691 262 691Q301 691
319 676T338 631Q338 607 328 589T294 563Q325 535 347 489ZM294 582T294 622Q294 643 285 653T259 663Q252 663 236 659V584Q250 582 256 582Q294 582 294 622Z" />
<glyph unicode="&#xaf;" glyph-name="overscore" horiz-adv-x="300" d="M-35 589T-33 605T-26 631H335Q335 608 326 584Q168 584 -35 579Q-35 589 -33 605Z" />
<glyph unicode="&#xb0;" glyph-name="degree" horiz-adv-x="398" d="M338 517T299 480T197 443Q134 443 97 479T60 572Q60 627 98 663T197 700Q264 700 301 665T338 573Q338 517 299 480ZM141 546T161 518T211 489Q232 489 244 507T257 562Q257 605 240 630T192
656Q170 656 156 637T141 591Q141 546 161 518Z" />
<glyph unicode="&#xb4;" glyph-name="acute" horiz-adv-x="300" d="M80 529T58 541Q104 636 122 708Q160 722 204 720Q222 720 242 714Q173 632 111 531Q80 529 58 541Z" />
<glyph unicode="&#xb6;" glyph-name="paragraph" horiz-adv-x="565" d="M515 676T544 679Q544 646 537 627Q508 626 494 617T475 589T470 534V-237Q448 -249 412 -249V626Q391 629 356 631V-237Q334 -249 298 -249V310Q287 308 266 308Q151 308 94 349T36 490Q36
576 101 627T302 679Q336 679 388 677L453 676Q515 676 544 679ZM298 357V632Q220 629 188 599T156 495Q156 427 194 392T287 357H298Z" />
<glyph unicode="&#xb7;" glyph-name="middot" horiz-adv-x="261" d="M97 192T79 210T60 258Q60 288 81 307T134 327Q164 327 182 307T201 263Q201 231 181 212T130 192Q97 192 79 210Z" />
<glyph unicode="&#xb8;" glyph-name="cedilla" horiz-adv-x="300" d="M77 -228T77 -205Q109 -205 132 -191T156 -153Q156 -131 138 -118T93 -104Q75 -88 75 -63L129 16H185L138 -48Q179 -55 202 -79T226 -140Q226 -187 183 -214T84 -242Q77 -228 77 -205Z" />
<glyph unicode="&#xba;" glyph-name="ordmasculine" horiz-adv-x="428" d="M300 717T345 669T390 540Q390 456 342 407T211 357Q129 357 83 404T37 533Q37 589 60 631T123 695T215 717Q300 717 345 669ZM252 403T268 436T285 523Q285 593 262 632T206 672Q176
672 160 640T144 555Q144 486 164 445T222 403Q252 403 268 436Z" />
<glyph unicode="&#xbb;" glyph-name="guillemotright" horiz-adv-x="515" d="M314 178T356 245Q317 309 253 400Q262 407 275 411T301 416Q369 352 446 288Q455 270 455 242Q380 168 298 78Q276 90 264 115Q314 178 356 245ZM135 185T169 246Q139 304 83 393Q91
401 105 406T135 412Q190 349 256 287Q264 270 264 240Q192 158 133 83Q108 96 93 121Q135 185 169 246Z" />
<glyph unicode="&#xbf;" glyph-name="questiondown" horiz-adv-x="537" d="M291 467T312 447T333 392Q333 357 310 335T249 313Q215 313 194 335T172 386Q172 423 194 445T253 467Q291 467 312 447ZM173 -257T128 -224T83 -131Q83 -86 102 -54T158 21Q195 62 214
95T233 173Q233 188 230 209T221 246Q242 257 272 257Q292 243 307 208T322 133Q322 86 305 55T254 -12Q227 -42 214 -65T200 -118Q200 -158 221 -182T271 -206Q305 -206 324 -176T351 -75Q394 -75 420 -89Q417 -127 417 -156Q417 -183 420 -213Q346 -257 252 -257Q173
-257 128 -224Z" />
<glyph unicode="&#xc0;" glyph-name="Agrave" horiz-adv-x="708" d="M687 26T687 -3Q648 0 561 0Q468 0 430 -3Q430 31 438 50Q463 53 474 60T486 81Q486 96 472 127L439 205Q284 205 185 200L165 148Q152 115 152 93Q152 73 164 63T201 50Q209 26 209 -3Q175
0 107 0Q78 0 21 -3Q21 28 29 49Q55 54 69 74T109 155L317 677Q338 682 366 682L600 152Q619 110 631 90T653 61T680 50Q687 26 687 -3ZM417 256L352 408Q325 468 306 527Q288 469 265 408L207 256H417ZM270 807T218 859Q237 869 265 873T323 875Q350 806 386 741Q363
733 329 733Q270 807 218 859Z" />
<glyph unicode="&#xc1;" glyph-name="Aacute" horiz-adv-x="708" d="M687 26T687 -3Q648 0 561 0Q468 0 430 -3Q430 31 438 50Q463 53 474 60T486 81Q486 96 472 127L439 205Q284 205 185 200L165 148Q152 115 152 93Q152 73 164 63T201 50Q209 26 209 -3Q175
0 107 0Q78 0 21 -3Q21 28 29 49Q55 54 69 74T109 155L317 677Q338 682 366 682L600 152Q619 110 631 90T653 61T680 50Q687 26 687 -3ZM417 256L352 408Q325 468 306 527Q288 469 265 408L207 256H417ZM321 733T298 741Q331 804 355 871Q387 879 416 879Q443 879
469 872Q417 812 355 733Q321 733 298 741Z" />
<glyph unicode="&#xc2;" glyph-name="Acircumflex" horiz-adv-x="708" d="M687 26T687 -3Q648 0 561 0Q468 0 430 -3Q430 31 438 50Q463 53 474 60T486 81Q486 96 472 127L439 205Q284 205 185 200L165 148Q152 115 152 93Q152 73 164 63T201 50Q209 26 209 -3Q175
0 107 0Q78 0 21 -3Q21 28 29 49Q55 54 69 74T109 155L317 677Q338 682 366 682L600 152Q619 110 631 90T653 61T680 50Q687 26 687 -3ZM417 256L352 408Q325 468 306 527Q288 469 265 408L207 256H417ZM196 731T189 743T178 767Q265 823 321 877Q341 882 371 882Q427
822 505 762Q488 738 455 729Q379 775 334 795Q249 754 208 728Q196 731 189 743Z" />
<glyph unicode="&#xc3;" glyph-name="Atilde" horiz-adv-x="708" d="M687 26T687 -3Q648 0 561 0Q468 0 430 -3Q430 31 438 50Q463 53 474 60T486 81Q486 96 472 127L439 205Q284 205 185 200L165 148Q152 115 152 93Q152 73 164 63T201 50Q209 26 209 -3Q175
0 107 0Q78 0 21 -3Q21 28 29 49Q55 54 69 74T109 155L317 677Q338 682 366 682L600 152Q619 110 631 90T653 61T680 50Q687 26 687 -3ZM417 256L352 408Q325 468 306 527Q288 469 265 408L207 256H417ZM377 744T361 749T323 765Q300 775 288 779T260 783Q221 783
187 747Q168 764 167 791Q194 827 225 842T287 858Q307 858 323 853T364 838Q383 829 396 825T422 821Q453 821 480 851Q505 847 517 831Q470 744 396 744Q377 744 361 749Z" />
<glyph unicode="&#xc4;" glyph-name="Adieresis" horiz-adv-x="708" d="M687 26T687 -3Q648 0 561 0Q468 0 430 -3Q430 31 438 50Q463 53 474 60T486 81Q486 96 472 127L439 205Q284 205 185 200L165 148Q152 115 152 93Q152 73 164 63T201 50Q209 26 209 -3Q175
0 107 0Q78 0 21 -3Q21 28 29 49Q55 54 69 74T109 155L317 677Q338 682 366 682L600 152Q619 110 631 90T653 61T680 50Q687 26 687 -3ZM417 256L352 408Q325 468 306 527Q288 469 265 408L207 256H417ZM207 729T188 746T169 788Q169 816 185 835T235 854Q269 854
286 837T303 790Q303 764 284 747T237 729Q207 729 188 746ZM416 729T398 747T379 795Q379 822 398 838T447 854Q476 854 495 837T515 795Q515 767 499 748T450 729Q416 729 398 747Z" />
<glyph unicode="&#xc5;" glyph-name="Aring" horiz-adv-x="708" d="M687 26T687 -3Q648 0 561 0Q468 0 430 -3Q430 31 438 50Q463 53 474 60T486 81Q486 96 472 127L439 205Q284 205 185 200L165 148Q152 115 152 93Q152 73 164 63T201 50Q209 26 209 -3Q175 0
107 0Q78 0 21 -3Q21 28 29 49Q55 54 69 74T109 155L317 677Q338 682 366 682L600 152Q619 110 631 90T653 61T680 50Q687 26 687 -3ZM417 256L352 408Q325 468 306 527Q288 469 265 408L207 256H417ZM295 720T266 741T237 798Q237 836 268 859T346 882Q389 882
418 863T447 805Q447 768 416 744T337 720Q295 720 266 741ZM362 755T373 766T384 797Q384 817 372 833T338 850Q321 850 311 838T301 803Q301 781 313 768T346 755Q362 755 373 766Z" />
<glyph unicode="&#xc6;" glyph-name="AE" horiz-adv-x="936" d="M882 95T871 -2Q743 0 611 0Q489 0 389 -2Q389 34 396 50Q424 53 437 61T455 90T460 152V294Q337 292 277 287Q249 239 205 159Q180 112 180 88Q180 70 191 61T225 48Q233 29 233 -3Q187 0 125 0Q51
0 21 -3Q21 32 29 49Q58 53 79 72T134 152L362 546Q378 574 378 591Q378 620 322 626Q314 645 314 678Q418 676 487 676H549Q722 676 846 678Q848 638 854 592T867 515Q859 509 842 506T806 502Q800 559 766 592T650 626H584V344H624Q677 344 696 362T717 423Q747
432 776 432Q774 384 774 318Q774 251 776 203Q735 203 719 209Q716 240 709 258T680 285T618 295H584V153Q584 110 592 89T615 60T656 53H680Q733 53 762 66T808 105T843 182Q886 171 902 155Q882 95 871 -2ZM460 344V540Q460 582 464 618Q452 591 426 546L310
344H460Z" />
<glyph unicode="&#xc7;" glyph-name="Ccedilla" horiz-adv-x="648" d="M393 -55T416 -79T440 -140Q440 -187 397 -214T298 -242Q291 -228 291 -205Q323 -205 346 -191T370 -153Q370 -131 352 -118T307 -104Q289 -88 289 -63L327 -8Q241 0 175 46T72 169T35 342Q35
452 82 529T206 646T372 685Q431 685 484 672T593 633Q582 576 582 478Q561 468 516 468Q514 561 480 597T379 634Q272 634 220 558T168 369Q168 281 196 211T278 101T407 61Q451 61 497 75T585 115Q592 109 598 98T606 78Q555 37 501 16T381 -9L352 -48Q393 -55
416 -79Z" />
<glyph unicode="&#xc8;" glyph-name="Egrave" horiz-adv-x="614" d="M559 175T580 155Q558 87 549 -2Q459 0 322 0Q123 0 49 -3Q49 34 55 50Q83 52 97 60T117 89T123 152V533Q123 570 117 589T97 616T54 626Q49 644 49 679Q117 676 245 676Q406 676 523 679Q533
566 544 515Q522 502 484 502Q478 559 444 592T327 626H246V365H292Q350 365 372 381T395 444Q419 452 454 452Q451 403 451 341Q451 274 454 224Q417 224 397 230Q393 279 371 296T292 313H246V153Q246 112 253 91T279 62T334 53H343Q402 53 435 67T486 107T520
182Q559 175 580 155ZM223 807T171 859Q190 869 218 873T276 875Q303 806 339 741Q316 733 282 733Q223 807 171 859Z" />
<glyph unicode="&#xc9;" glyph-name="Eacute" horiz-adv-x="614" d="M559 175T580 155Q558 87 549 -2Q459 0 322 0Q123 0 49 -3Q49 34 55 50Q83 52 97 60T117 89T123 152V533Q123 570 117 589T97 616T54 626Q49 644 49 679Q117 676 245 676Q406 676 523 679Q533
566 544 515Q522 502 484 502Q478 559 444 592T327 626H246V365H292Q350 365 372 381T395 444Q419 452 454 452Q451 403 451 341Q451 274 454 224Q417 224 397 230Q393 279 371 296T292 313H246V153Q246 112 253 91T279 62T334 53H343Q402 53 435 67T486 107T520
182Q559 175 580 155ZM274 733T251 741Q284 804 308 871Q340 879 369 879Q396 879 422 872Q370 812 308 733Q274 733 251 741Z" />
<glyph unicode="&#xca;" glyph-name="Ecircumflex" horiz-adv-x="614" d="M559 175T580 155Q558 87 549 -2Q459 0 322 0Q123 0 49 -3Q49 34 55 50Q83 52 97 60T117 89T123 152V533Q123 570 117 589T97 616T54 626Q49 644 49 679Q117 676 245 676Q406 676 523 679Q533
566 544 515Q522 502 484 502Q478 559 444 592T327 626H246V365H292Q350 365 372 381T395 444Q419 452 454 452Q451 403 451 341Q451 274 454 224Q417 224 397 230Q393 279 371 296T292 313H246V153Q246 112 253 91T279 62T334 53H343Q402 53 435 67T486 107T520
182Q559 175 580 155ZM149 731T142 743T131 767Q218 823 274 877Q294 882 324 882Q380 822 458 762Q441 738 408 729Q332 775 287 795Q202 754 161 728Q149 731 142 743Z" />
<glyph unicode="&#xcb;" glyph-name="Edieresis" horiz-adv-x="614" d="M559 175T580 155Q558 87 549 -2Q459 0 322 0Q123 0 49 -3Q49 34 55 50Q83 52 97 60T117 89T123 152V533Q123 570 117 589T97 616T54 626Q49 644 49 679Q117 676 245 676Q406 676 523 679Q533
566 544 515Q522 502 484 502Q478 559 444 592T327 626H246V365H292Q350 365 372 381T395 444Q419 452 454 452Q451 403 451 341Q451 274 454 224Q417 224 397 230Q393 279 371 296T292 313H246V153Q246 112 253 91T279 62T334 53H343Q402 53 435 67T486 107T520
182Q559 175 580 155ZM160 729T141 746T122 788Q122 816 138 835T188 854Q222 854 239 837T256 790Q256 764 237 747T190 729Q160 729 141 746ZM369 729T351 747T332 795Q332 822 351 838T400 854Q429 854 448 837T468 795Q468 767 452 748T403 729Q369 729 351
747Z" />
<glyph unicode="&#xcc;" glyph-name="Igrave" horiz-adv-x="369" d="M123 570T117 589T97 616T55 626Q49 647 49 679Q103 676 186 676Q260 676 320 679Q320 664 319 650T314 626Q286 624 272 616T252 589T246 533V144Q246 106 252 87T272 60T314 50Q320 34 320
-3Q265 0 189 0Q105 0 49 -3Q49 31 55 50Q83 52 97 60T117 87T123 144V533Q123 570 117 589ZM113 807T61 859Q80 869 108 873T166 875Q193 806 229 741Q206 733 172 733Q113 807 61 859Z" />
<glyph unicode="&#xcd;" glyph-name="Iacute" horiz-adv-x="369" d="M123 570T117 589T97 616T55 626Q49 647 49 679Q103 676 186 676Q260 676 320 679Q320 664 319 650T314 626Q286 624 272 616T252 589T246 533V144Q246 106 252 87T272 60T314 50Q320 34 320
-3Q265 0 189 0Q105 0 49 -3Q49 31 55 50Q83 52 97 60T117 87T123 144V533Q123 570 117 589ZM164 733T141 741Q174 804 198 871Q230 879 259 879Q286 879 312 872Q260 812 198 733Q164 733 141 741Z" />
<glyph unicode="&#xce;" glyph-name="Icircumflex" horiz-adv-x="369" d="M51 721T42 748Q84 785 163 868Q193 876 212 876Q258 818 327 739Q318 729 303 722T272 711Q224 753 172 785Q119 748 80 709Q51 721 42 748ZM123 570T117 589T97 616T55 626Q49 647 49
679Q103 676 186 676Q260 676 320 679Q320 664 319 650T314 626Q286 624 272 616T252 589T246 533V144Q246 106 252 87T272 60T314 50Q320 34 320 -3Q265 0 189 0Q105 0 49 -3Q49 31 55 50Q83 52 97 60T117 87T123 144V533Q123 570 117 589Z" />
<glyph unicode="&#xcf;" glyph-name="Idieresis" horiz-adv-x="369" d="M69 730T50 745T31 785Q31 812 47 830T96 848Q130 848 147 831T164 787Q164 762 146 746T99 730Q69 730 50 745ZM239 730T221 747T203 792Q203 818 221 833T270 848Q299 848 318 832T337
792Q337 765 322 748T273 730Q239 730 221 747ZM123 570T117 589T97 616T55 626Q49 647 49 679Q103 676 186 676Q260 676 320 679Q320 664 319 650T314 626Q286 624 272 616T252 589T246 533V144Q246 106 252 87T272 60T314 50Q320 34 320 -3Q265 0 189 0Q105 0
49 -3Q49 31 55 50Q83 52 97 60T117 87T123 144V533Q123 570 117 589Z" />
<glyph unicode="&#xd0;" glyph-name="Eth" horiz-adv-x="733" d="M489 678T593 610T698 355Q698 207 633 129T484 25T322 0Q123 0 49 -3Q49 34 55 50Q83 52 97 60T118 89T124 152V309L53 308Q53 324 56 342T63 370H124V533Q124 570 118 589T98 616T55 626Q50 644
50 679Q103 676 209 676Q245 676 263 677L323 678Q489 678 593 610ZM440 53T503 116T567 339Q567 490 495 560T312 630Q274 630 247 620V370H378Q378 331 369 309Q321 310 247 310V153Q247 112 254 91T279 62T334 53Q440 53 503 116Z" />
<glyph unicode="&#xd1;" glyph-name="Ntilde" horiz-adv-x="733" d="M656 676T695 679Q695 644 690 626Q666 625 654 613T636 570T630 484V0Q608 -7 573 -7L180 512V196Q180 138 186 108T207 64T252 50Q258 32 258 -3Q213 0 153 0Q81 0 45 -3Q45 31 50 50Q79 51
94 64T116 107T123 196V587L116 596Q103 612 91 618T50 626Q45 647 45 679Q77 676 135 676Q184 676 215 679L572 201V484Q572 541 566 570T545 612T499 626Q493 654 493 679Q537 676 597 676Q656 676 695 679ZM407 744T391 749T353 765Q330 775 318 779T290 783Q251
783 217 747Q198 764 197 791Q224 827 255 842T317 858Q337 858 353 853T394 838Q413 829 426 825T452 821Q483 821 510 851Q535 847 547 831Q500 744 426 744Q407 744 391 749Z" />
<glyph unicode="&#xd2;" glyph-name="Ograve" horiz-adv-x="739" d="M269 -9T194 36T77 160T35 340Q35 442 78 520T198 641T369 685Q466 685 542 642T661 522T704 344Q704 244 662 164T543 37T369 -9Q269 -9 194 36ZM444 48T486 83T550 179T573 319Q573 405 545
476T465 588T350 630Q297 630 255 598T190 505T166 366Q166 281 192 209T268 92T387 48Q444 48 486 83ZM298 807T246 859Q265 869 293 873T351 875Q378 806 414 741Q391 733 357 733Q298 807 246 859Z" />
<glyph unicode="&#xd3;" glyph-name="Oacute" horiz-adv-x="739" d="M269 -9T194 36T77 160T35 340Q35 442 78 520T198 641T369 685Q466 685 542 642T661 522T704 344Q704 244 662 164T543 37T369 -9Q269 -9 194 36ZM444 48T486 83T550 179T573 319Q573 405 545
476T465 588T350 630Q297 630 255 598T190 505T166 366Q166 281 192 209T268 92T387 48Q444 48 486 83ZM349 733T326 741Q359 804 383 871Q415 879 444 879Q471 879 497 872Q445 812 383 733Q349 733 326 741Z" />
<glyph unicode="&#xd4;" glyph-name="Ocircumflex" horiz-adv-x="739" d="M269 -9T194 36T77 160T35 340Q35 442 78 520T198 641T369 685Q466 685 542 642T661 522T704 344Q704 244 662 164T543 37T369 -9Q269 -9 194 36ZM444 48T486 83T550 179T573 319Q573 405
545 476T465 588T350 630Q297 630 255 598T190 505T166 366Q166 281 192 209T268 92T387 48Q444 48 486 83ZM224 731T217 743T206 767Q293 823 349 877Q369 882 399 882Q455 822 533 762Q516 738 483 729Q407 775 362 795Q277 754 236 728Q224 731 217 743Z" />
<glyph unicode="&#xd5;" glyph-name="Otilde" horiz-adv-x="739" d="M269 -9T194 36T77 160T35 340Q35 442 78 520T198 641T369 685Q466 685 542 642T661 522T704 344Q704 244 662 164T543 37T369 -9Q269 -9 194 36ZM444 48T486 83T550 179T573 319Q573 405 545
476T465 588T350 630Q297 630 255 598T190 505T166 366Q166 281 192 209T268 92T387 48Q444 48 486 83ZM405 744T389 749T351 765Q328 775 316 779T288 783Q249 783 215 747Q196 764 195 791Q222 827 253 842T315 858Q335 858 351 853T392 838Q411 829 424 825T450
821Q481 821 508 851Q533 847 545 831Q498 744 424 744Q405 744 389 749Z" />
<glyph unicode="&#xd6;" glyph-name="Odieresis" horiz-adv-x="739" d="M269 -9T194 36T77 160T35 340Q35 442 78 520T198 641T369 685Q466 685 542 642T661 522T704 344Q704 244 662 164T543 37T369 -9Q269 -9 194 36ZM444 48T486 83T550 179T573 319Q573 405
545 476T465 588T350 630Q297 630 255 598T190 505T166 366Q166 281 192 209T268 92T387 48Q444 48 486 83ZM235 729T216 746T197 788Q197 816 213 835T263 854Q297 854 314 837T331 790Q331 764 312 747T265 729Q235 729 216 746ZM444 729T426 747T407 795Q407
822 426 838T475 854Q504 854 523 837T543 795Q543 767 527 748T478 729Q444 729 426 747Z" />
<glyph unicode="&#xd7;" glyph-name="multiply" horiz-adv-x="550" d="M510 49Q500 36 483 29T449 21L428 45Q311 174 273 215L230 167Q199 132 167 95T102 21Q82 21 65 26T39 43L233 258Q139 360 40 463Q51 475 66 482T99 490L273 303L448 497Q494 489 508 471Q430
390 313 260L510 49Z" />
<glyph unicode="&#xd8;" glyph-name="Oslash" horiz-adv-x="739" d="M653 548T678 484T704 344Q704 244 662 164T543 37T369 -9Q259 -9 175 48L115 -28Q96 -28 80 -22T55 -6L130 86Q84 134 60 198T35 340Q35 442 78 520T198 641T369 685Q476 685 558 633L610 701Q654
701 676 683L607 594Q653 548 678 484ZM297 630T255 598T190 505T166 366Q166 258 205 177L497 557Q435 630 350 630Q297 630 255 598ZM444 48T486 83T550 179T573 319Q573 423 532 503L239 121Q297 48 387 48Q444 48 486 83Z" />
<glyph unicode="&#xd9;" glyph-name="Ugrave" horiz-adv-x="681" d="M577 180T565 130T519 47Q463 -9 353 -9Q259 -9 205 17T127 97T103 233V532Q103 571 98 589T81 615T42 626Q36 645 36 679Q76 676 157 676Q252 676 299 679Q299 647 294 626Q263 623 250 616T231
591T226 532V248Q226 154 261 103T380 52Q407 52 434 61T480 91Q502 114 510 152T519 268V497Q519 547 514 573T494 611T451 626Q446 654 446 679Q482 676 545 676Q604 676 643 679Q643 652 637 626Q613 623 600 612T582 575T577 500V271Q577 180 565 130ZM301
807T249 859Q268 869 296 873T354 875Q381 806 417 741Q394 733 360 733Q301 807 249 859Z" />
<glyph unicode="&#xda;" glyph-name="Uacute" horiz-adv-x="681" d="M577 180T565 130T519 47Q463 -9 353 -9Q259 -9 205 17T127 97T103 233V532Q103 571 98 589T81 615T42 626Q36 645 36 679Q76 676 157 676Q252 676 299 679Q299 647 294 626Q263 623 250 616T231
591T226 532V248Q226 154 261 103T380 52Q407 52 434 61T480 91Q502 114 510 152T519 268V497Q519 547 514 573T494 611T451 626Q446 654 446 679Q482 676 545 676Q604 676 643 679Q643 652 637 626Q613 623 600 612T582 575T577 500V271Q577 180 565 130ZM352
733T329 741Q362 804 386 871Q418 879 447 879Q474 879 500 872Q448 812 386 733Q352 733 329 741Z" />
<glyph unicode="&#xdb;" glyph-name="Ucircumflex" horiz-adv-x="681" d="M577 180T565 130T519 47Q463 -9 353 -9Q259 -9 205 17T127 97T103 233V532Q103 571 98 589T81 615T42 626Q36 645 36 679Q76 676 157 676Q252 676 299 679Q299 647 294 626Q263 623 250
616T231 591T226 532V248Q226 154 261 103T380 52Q407 52 434 61T480 91Q502 114 510 152T519 268V497Q519 547 514 573T494 611T451 626Q446 654 446 679Q482 676 545 676Q604 676 643 679Q643 652 637 626Q613 623 600 612T582 575T577 500V271Q577 180 565 130ZM227
731T220 743T209 767Q296 823 352 877Q372 882 402 882Q458 822 536 762Q519 738 486 729Q410 775 365 795Q280 754 239 728Q227 731 220 743Z" />
<glyph unicode="&#xdc;" glyph-name="Udieresis" horiz-adv-x="681" d="M577 180T565 130T519 47Q463 -9 353 -9Q259 -9 205 17T127 97T103 233V532Q103 571 98 589T81 615T42 626Q36 645 36 679Q76 676 157 676Q252 676 299 679Q299 647 294 626Q263 623 250
616T231 591T226 532V248Q226 154 261 103T380 52Q407 52 434 61T480 91Q502 114 510 152T519 268V497Q519 547 514 573T494 611T451 626Q446 654 446 679Q482 676 545 676Q604 676 643 679Q643 652 637 626Q613 623 600 612T582 575T577 500V271Q577 180 565 130ZM238
729T219 746T200 788Q200 816 216 835T266 854Q300 854 317 837T334 790Q334 764 315 747T268 729Q238 729 219 746ZM447 729T429 747T410 795Q410 822 429 838T478 854Q507 854 526 837T546 795Q546 767 530 748T481 729Q447 729 429 747Z" />
<glyph unicode="&#xdd;" glyph-name="Yacute" horiz-adv-x="631" d="M560 676T610 678Q610 655 605 628Q579 622 558 599T513 527L381 255V173Q381 119 387 96T409 63T464 50Q471 30 471 -3Q399 0 320 0Q237 0 163 -2Q163 29 170 50Q212 53 229 61T252 91T258
164V254L99 568Q83 600 68 613T27 627Q21 647 21 678Q87 676 143 676Q252 676 286 678Q286 649 281 628Q258 626 248 619T238 597Q238 580 255 546Q305 446 359 320Q408 435 458 537Q476 573 476 592Q476 607 465 615T431 627Q423 653 423 678Q450 676 522 676Q560
676 610 678ZM332 733T309 741Q342 804 366 871Q398 879 427 879Q454 879 480 872Q428 812 366 733Q332 733 309 741Z" />
<glyph unicode="&#xde;" glyph-name="Thorn" horiz-adv-x="614" d="M472 541T525 489T579 355Q579 302 552 255T473 179T349 150Q310 150 280 160Q278 172 278 177Q278 191 283 204Q302 200 329 200Q385 200 421 231T458 337Q458 408 420 450T305 492Q276 492
246 485V161Q246 118 255 95T285 62T341 50Q347 33 347 -3Q296 0 199 0Q109 0 49 -3Q49 31 55 50Q83 52 97 60T117 87T123 144V533Q123 570 117 589T97 616T55 626Q49 647 49 679Q103 676 186 676Q260 676 320 679Q320 664 319 650T314 626Q287 624 273 617T253
592T246 540Q281 541 364 541Q472 541 525 489Z" />
<glyph unicode="&#xdf;" glyph-name="germandbls" horiz-adv-x="709" d="M646 269T646 144Q646 72 594 33T444 -7Q396 -7 362 1T296 25Q301 48 304 78T307 131Q338 142 376 142Q378 104 384 85T405 59T449 52Q486 52 505 69T525 127Q525 183 485 211T359 245Q354
254 350 272T346 303Q410 362 466 445L440 446Q392 449 354 449Q314 449 290 439T254 399T241 313V-2Q224 0 169 0Q122 0 56 -2Q56 33 62 52Q87 53 99 59T116 83T121 136V306Q121 416 185 460T365 504Q384 504 414 502Q446 500 475 500Q531 500 589 505Q594 494
598 476T603 444Q558 367 490 296Q646 269 646 144Z" />
<glyph unicode="&#xe0;" glyph-name="agrave" horiz-adv-x="645" d="M605 33T605 -2Q580 0 490 0Q392 0 368 -2Q368 35 374 52Q396 56 405 62T415 80Q415 89 407 107L391 141Q262 141 173 133L167 119Q159 100 159 86Q159 56 199 52Q205 30 205 -2Q167 0 116 0Q73
0 41 -2Q41 28 48 52Q69 55 82 69T115 127L290 500Q311 505 339 505L531 124Q553 81 566 68T599 52Q605 33 605 -2ZM369 187L318 295Q315 301 303 328T281 382Q271 351 246 298L197 187H369ZM238 675T174 741Q209 757 257 757Q269 757 289 755Q315 666 359 583Q342
574 302 576Q238 675 174 741Z" />
<glyph unicode="&#xe1;" glyph-name="aacute" horiz-adv-x="645" d="M605 33T605 -2Q580 0 490 0Q392 0 368 -2Q368 35 374 52Q396 56 405 62T415 80Q415 89 407 107L391 141Q262 141 173 133L167 119Q159 100 159 86Q159 56 199 52Q205 30 205 -2Q167 0 116 0Q73
0 41 -2Q41 28 48 52Q69 55 82 69T115 127L290 500Q311 505 339 505L531 124Q553 81 566 68T599 52Q605 33 605 -2ZM369 187L318 295Q315 301 303 328T281 382Q271 351 246 298L197 187H369ZM300 571T278 583Q324 678 342 750Q380 764 424 762Q442 762 462 756Q393
674 331 573Q300 571 278 583Z" />
<glyph unicode="&#xe2;" glyph-name="acircumflex" horiz-adv-x="645" d="M605 33T605 -2Q580 0 490 0Q392 0 368 -2Q368 35 374 52Q396 56 405 62T415 80Q415 89 407 107L391 141Q262 141 173 133L167 119Q159 100 159 86Q159 56 199 52Q205 30 205 -2Q167 0
116 0Q73 0 41 -2Q41 28 48 52Q69 55 82 69T115 127L290 500Q311 505 339 505L531 124Q553 81 566 68T599 52Q605 33 605 -2ZM369 187L318 295Q315 301 303 328T281 382Q271 351 246 298L197 187H369ZM160 564T154 577T145 602Q186 632 229 671T305 748Q326 755
352 755Q418 670 502 590Q484 569 456 563L431 581Q422 587 385 612T317 654Q293 642 244 610T170 558Q160 564 154 577Z" />
<glyph unicode="&#xe3;" glyph-name="atilde" horiz-adv-x="645" d="M605 33T605 -2Q580 0 490 0Q392 0 368 -2Q368 35 374 52Q396 56 405 62T415 80Q415 89 407 107L391 141Q262 141 173 133L167 119Q159 100 159 86Q159 56 199 52Q205 30 205 -2Q167 0 116 0Q73
0 41 -2Q41 28 48 52Q69 55 82 69T115 127L290 500Q311 505 339 505L531 124Q553 81 566 68T599 52Q605 33 605 -2ZM369 187L318 295Q315 301 303 328T281 382Q271 351 246 298L197 187H369ZM347 591T305 614Q282 626 267 631T234 637Q193 637 154 594Q137 609
135 636Q194 710 257 710Q275 710 290 705T329 687Q348 677 363 672T393 666Q427 666 456 701Q466 700 476 696T494 684Q466 635 437 613T375 591Q347 591 305 614Z" />
<glyph unicode="&#xe4;" glyph-name="adieresis" horiz-adv-x="645" d="M605 33T605 -2Q580 0 490 0Q392 0 368 -2Q368 35 374 52Q396 56 405 62T415 80Q415 89 407 107L391 141Q262 141 173 133L167 119Q159 100 159 86Q159 56 199 52Q205 30 205 -2Q167 0 116
0Q73 0 41 -2Q41 28 48 52Q69 55 82 69T115 127L290 500Q311 505 339 505L531 124Q553 81 566 68T599 52Q605 33 605 -2ZM369 187L318 295Q315 301 303 328T281 382Q271 351 246 298L197 187H369ZM180 567T161 584T142 626Q142 654 158 673T208 692Q242 692 259
675T276 628Q276 602 257 585T210 567Q180 567 161 584ZM389 567T371 585T352 633Q352 660 371 676T420 692Q449 692 468 675T488 633Q488 605 472 586T423 567Q389 567 371 585Z" />
<glyph unicode="&#xe5;" glyph-name="aring" horiz-adv-x="645" d="M605 33T605 -2Q580 0 490 0Q392 0 368 -2Q368 35 374 52Q396 56 405 62T415 80Q415 89 407 107L391 141Q262 141 173 133L167 119Q159 100 159 86Q159 56 199 52Q205 30 205 -2Q167 0 116 0Q73
0 41 -2Q41 28 48 52Q69 55 82 69T115 127L290 500Q311 505 339 505L531 124Q553 81 566 68T599 52Q605 33 605 -2ZM369 187L318 295Q315 301 303 328T281 382Q271 351 246 298L197 187H369ZM266 565T235 590T204 657Q204 700 237 728T319 756Q364 756 395 733T426
665Q426 622 393 594T310 565Q266 565 235 590ZM336 609T347 621T358 655Q358 678 346 697T311 716Q294 716 284 702T273 662Q273 639 285 624T320 609Q336 609 347 621Z" />
<glyph unicode="&#xe6;" glyph-name="ae" horiz-adv-x="884" d="M812 81T803 -1L571 0Q452 0 366 -2Q366 34 372 52Q396 54 408 60T424 83T429 133V211Q313 208 260 201L207 125Q186 97 186 80Q186 57 226 51Q233 33 233 -2Q179 0 136 0Q77 0 41 -2Q41 35 48 52Q74
54 91 66T140 112L338 388Q353 409 353 422Q353 445 305 449Q302 456 300 473T297 502Q389 500 454 500H520Q672 500 780 502Q781 468 786 433T799 373Q791 367 774 364T739 361Q733 404 705 426T604 448H549V260H580Q613 260 629 264T651 279T659 316Q686 325
715 325Q713 279 713 238Q713 190 715 150Q675 150 660 156Q658 181 652 192T629 208T576 213H549V136Q549 87 564 70T613 52H633Q678 52 702 61T741 90T772 152Q811 146 830 128Q812 81 803 -1ZM429 260V400Q429 426 432 456Q420 433 400 404Q387 386 359 344L301
260H429Z" />
<glyph unicode="&#xe7;" glyph-name="ccedilla" horiz-adv-x="620" d="M380 -55T403 -79T427 -140Q427 -187 384 -214T285 -242Q278 -228 278 -205Q310 -205 333 -191T357 -153Q357 -131 339 -118T294 -104Q276 -88 276 -63L315 -6Q238 -1 179 33T88 124T55 252Q55
333 96 390T206 477T353 507Q449 507 547 468Q537 426 537 354Q518 344 475 344Q473 402 443 428T358 454Q269 454 226 402T182 272Q182 211 205 163T275 87T387 59Q467 59 539 92Q546 86 551 76T559 54Q513 28 469 13T370 -6L339 -48Q380 -55 403 -79Z" />
<glyph unicode="&#xe8;" glyph-name="egrave" horiz-adv-x="600" d="M528 145T546 127Q528 80 519 -1L314 0Q155 0 69 -2Q69 36 75 52Q100 54 112 60T129 83T134 133V370Q134 402 129 417T112 439T74 448Q69 467 69 502Q153 500 253 500Q422 500 496 502Q503 414
515 374Q487 361 456 361Q450 404 422 426T321 448H254V273H293Q339 273 356 284T374 326Q398 334 430 334Q427 298 427 249Q427 195 430 162Q395 162 376 169Q374 199 357 210T293 221H254V136Q254 102 260 85T282 60T329 52H338Q387 52 415 62T458 92T487 151Q528
145 546 127ZM214 675T150 741Q185 757 233 757Q245 757 265 755Q291 666 335 583Q318 574 278 576Q214 675 150 741Z" />
<glyph unicode="&#xe9;" glyph-name="eacute" horiz-adv-x="600" d="M528 145T546 127Q528 80 519 -1L314 0Q155 0 69 -2Q69 36 75 52Q100 54 112 60T129 83T134 133V370Q134 402 129 417T112 439T74 448Q69 467 69 502Q153 500 253 500Q422 500 496 502Q503 414
515 374Q487 361 456 361Q450 404 422 426T321 448H254V273H293Q339 273 356 284T374 326Q398 334 430 334Q427 298 427 249Q427 195 430 162Q395 162 376 169Q374 199 357 210T293 221H254V136Q254 102 260 85T282 60T329 52H338Q387 52 415 62T458 92T487 151Q528
145 546 127ZM276 571T254 583Q300 678 318 750Q356 764 400 762Q418 762 438 756Q369 674 307 573Q276 571 254 583Z" />
<glyph unicode="&#xea;" glyph-name="ecircumflex" horiz-adv-x="600" d="M528 145T546 127Q528 80 519 -1L314 0Q155 0 69 -2Q69 36 75 52Q100 54 112 60T129 83T134 133V370Q134 402 129 417T112 439T74 448Q69 467 69 502Q153 500 253 500Q422 500 496 502Q503
414 515 374Q487 361 456 361Q450 404 422 426T321 448H254V273H293Q339 273 356 284T374 326Q398 334 430 334Q427 298 427 249Q427 195 430 162Q395 162 376 169Q374 199 357 210T293 221H254V136Q254 102 260 85T282 60T329 52H338Q387 52 415 62T458 92T487
151Q528 145 546 127ZM136 564T130 577T121 602Q162 632 205 671T281 748Q302 755 328 755Q394 670 478 590Q460 569 432 563L407 581Q398 587 361 612T293 654Q269 642 220 610T146 558Q136 564 130 577Z" />
<glyph unicode="&#xeb;" glyph-name="edieresis" horiz-adv-x="600" d="M528 145T546 127Q528 80 519 -1L314 0Q155 0 69 -2Q69 36 75 52Q100 54 112 60T129 83T134 133V370Q134 402 129 417T112 439T74 448Q69 467 69 502Q153 500 253 500Q422 500 496 502Q503
414 515 374Q487 361 456 361Q450 404 422 426T321 448H254V273H293Q339 273 356 284T374 326Q398 334 430 334Q427 298 427 249Q427 195 430 162Q395 162 376 169Q374 199 357 210T293 221H254V136Q254 102 260 85T282 60T329 52H338Q387 52 415 62T458 92T487
151Q528 145 546 127ZM156 567T137 584T118 626Q118 654 134 673T184 692Q218 692 235 675T252 628Q252 602 233 585T186 567Q156 567 137 584ZM365 567T347 585T328 633Q328 660 347 676T396 692Q425 692 444 675T464 633Q464 605 448 586T399 567Q365 567 347
585Z" />
<glyph unicode="&#xec;" glyph-name="igrave" horiz-adv-x="388" d="M69 33T75 52Q100 54 112 60T129 82T134 132V370Q134 402 129 417T112 439T75 448Q69 466 69 502Q131 500 196 500Q249 500 319 502Q319 466 313 448Q288 446 276 440T259 418T254 370V132Q254
99 259 83T276 60T314 52Q319 36 319 -2Q255 0 199 0Q137 0 69 -2Q69 33 75 52ZM117 675T53 741Q88 757 136 757Q148 757 168 755Q194 666 238 583Q221 574 181 576Q117 675 53 741Z" />
<glyph unicode="&#xed;" glyph-name="iacute" horiz-adv-x="388" d="M69 33T75 52Q100 54 112 60T129 82T134 132V370Q134 402 129 417T112 439T75 448Q69 466 69 502Q131 500 196 500Q249 500 319 502Q319 466 313 448Q288 446 276 440T259 418T254 370V132Q254
99 259 83T276 60T314 52Q319 36 319 -2Q255 0 199 0Q137 0 69 -2Q69 33 75 52ZM179 571T157 583Q203 678 221 750Q259 764 303 762Q321 762 341 756Q272 674 210 573Q179 571 157 583Z" />
<glyph unicode="&#xee;" glyph-name="icircumflex" horiz-adv-x="388" d="M61 573T51 601Q97 649 172 748Q201 754 221 754Q269 680 336 588Q327 579 312 572T281 563Q222 628 181 658Q128 609 89 559Q61 573 51 601ZM69 33T75 52Q100 54 112 60T129 82T134 132V370Q134
402 129 417T112 439T75 448Q69 466 69 502Q131 500 196 500Q249 500 319 502Q319 466 313 448Q288 446 276 440T259 418T254 370V132Q254 99 259 83T276 60T314 52Q319 36 319 -2Q255 0 199 0Q137 0 69 -2Q69 33 75 52Z" />
<glyph unicode="&#xef;" glyph-name="idieresis" horiz-adv-x="388" d="M78 567T59 584T40 626Q40 654 56 673T106 692Q140 692 157 675T174 628Q174 602 155 585T108 567Q78 567 59 584ZM250 568T232 585T213 633Q213 660 231 676T280 692Q310 692 329 676T348
633Q348 605 333 587T284 568Q250 568 232 585ZM69 33T75 52Q100 54 112 60T129 82T134 132V370Q134 402 129 417T112 439T75 448Q69 466 69 502Q131 500 196 500Q249 500 319 502Q319 466 313 448Q288 446 276 440T259 418T254 370V132Q254 99 259 83T276 60T314
52Q319 36 319 -2Q255 0 199 0Q137 0 69 -2Q69 33 75 52Z" />
<glyph unicode="&#xf0;" glyph-name="eth" horiz-adv-x="698" d="M462 502T552 451T643 263Q643 107 538 54T314 0Q155 0 69 -2Q69 36 75 52Q99 54 111 60T129 83T135 133V230Q89 230 68 229Q68 258 78 278H135V370Q135 402 130 417T113 439T74 448Q70 468 70
502Q134 500 216 500Q246 500 262 501L316 502Q462 502 552 451ZM386 52T426 65T492 122T518 249Q518 358 459 404T307 450Q273 450 255 444V278H345Q345 257 336 231H255V136Q255 102 261 85T282 60T329 52Q386 52 426 65Z" />
<glyph unicode="&#xf1;" glyph-name="ntilde" horiz-adv-x="712" d="M599 500T643 502Q643 466 639 448Q617 446 606 438T591 408T586 343V0Q569 -7 532 -7L192 370V158Q192 115 197 94T216 63T257 52Q262 32 262 -2Q210 0 167 0Q113 0 69 -2Q69 33 75 52Q101
54 114 63T133 93T139 158V429L137 431Q129 440 117 443T75 448Q69 467 69 502Q107 500 154 500Q192 500 230 502L532 160V343Q532 386 527 407T508 436T465 448Q461 471 461 502Q511 500 556 500Q599 500 643 502ZM391 591T349 614Q326 626 311 631T278 637Q237
637 198 594Q181 609 179 636Q238 710 301 710Q319 710 334 705T373 687Q392 677 407 672T437 666Q471 666 500 701Q510 700 520 696T538 684Q510 635 481 613T419 591Q391 591 349 614Z" />
<glyph unicode="&#xf2;" glyph-name="ograve" horiz-adv-x="702" d="M261 -9T195 23T92 113T55 249Q55 326 92 384T196 475T353 507Q440 507 507 476T610 388T647 253Q647 176 610 117T506 24T349 -9Q261 -9 195 23ZM435 45T476 97T518 238Q518 302 495 351T432
427T338 454Q266 454 225 404T184 265Q184 201 206 151T269 73T362 45Q435 45 476 97ZM274 675T210 741Q245 757 293 757Q305 757 325 755Q351 666 395 583Q378 574 338 576Q274 675 210 741Z" />
<glyph unicode="&#xf3;" glyph-name="oacute" horiz-adv-x="702" d="M261 -9T195 23T92 113T55 249Q55 326 92 384T196 475T353 507Q440 507 507 476T610 388T647 253Q647 176 610 117T506 24T349 -9Q261 -9 195 23ZM435 45T476 97T518 238Q518 302 495 351T432
427T338 454Q266 454 225 404T184 265Q184 201 206 151T269 73T362 45Q435 45 476 97ZM336 571T314 583Q360 678 378 750Q416 764 460 762Q478 762 498 756Q429 674 367 573Q336 571 314 583Z" />
<glyph unicode="&#xf4;" glyph-name="ocircumflex" horiz-adv-x="702" d="M261 -9T195 23T92 113T55 249Q55 326 92 384T196 475T353 507Q440 507 507 476T610 388T647 253Q647 176 610 117T506 24T349 -9Q261 -9 195 23ZM435 45T476 97T518 238Q518 302 495 351T432
427T338 454Q266 454 225 404T184 265Q184 201 206 151T269 73T362 45Q435 45 476 97ZM196 564T190 577T181 602Q222 632 265 671T341 748Q362 755 388 755Q454 670 538 590Q520 569 492 563L467 581Q458 587 421 612T353 654Q329 642 280 610T206 558Q196 564
190 577Z" />
<glyph unicode="&#xf5;" glyph-name="otilde" horiz-adv-x="702" d="M261 -9T195 23T92 113T55 249Q55 326 92 384T196 475T353 507Q440 507 507 476T610 388T647 253Q647 176 610 117T506 24T349 -9Q261 -9 195 23ZM435 45T476 97T518 238Q518 302 495 351T432
427T338 454Q266 454 225 404T184 265Q184 201 206 151T269 73T362 45Q435 45 476 97ZM384 591T342 614Q319 626 304 631T271 637Q230 637 191 594Q174 609 172 636Q231 710 294 710Q312 710 327 705T366 687Q385 677 400 672T430 666Q464 666 493 701Q503 700
513 696T531 684Q503 635 474 613T412 591Q384 591 342 614Z" />
<glyph unicode="&#xf6;" glyph-name="odieresis" horiz-adv-x="702" d="M261 -9T195 23T92 113T55 249Q55 326 92 384T196 475T353 507Q440 507 507 476T610 388T647 253Q647 176 610 117T506 24T349 -9Q261 -9 195 23ZM435 45T476 97T518 238Q518 302 495 351T432
427T338 454Q266 454 225 404T184 265Q184 201 206 151T269 73T362 45Q435 45 476 97ZM216 567T197 584T178 626Q178 654 194 673T244 692Q278 692 295 675T312 628Q312 602 293 585T246 567Q216 567 197 584ZM425 567T407 585T388 633Q388 660 407 676T456 692Q485
692 504 675T524 633Q524 605 508 586T459 567Q425 567 407 585Z" />
<glyph unicode="&#xf7;" glyph-name="divide" horiz-adv-x="550" d="M248 366T232 383T215 429Q215 455 233 469T276 483Q301 483 318 469T335 432Q335 403 321 385T280 366Q248 366 232 383ZM43 246T46 264T53 293H507Q507 273 505 259T497 233Q391 235 285 235Q233
235 133 233L43 232Q43 246 46 264ZM251 44T234 60T216 101Q216 127 230 143T274 159Q334 159 334 101Q334 75 318 60T276 44Q251 44 234 60Z" />
<glyph unicode="&#xf8;" glyph-name="oslash" horiz-adv-x="702" d="M606 404T626 357T647 253Q647 176 610 117T506 24T349 -9Q263 -9 196 22L140 -43Q120 -43 104 -38T80 -25L147 52Q102 86 79 136T55 249Q55 326 92 384T196 475T353 507Q445 507 517 471L573
536Q616 536 638 518L567 437Q606 404 626 357ZM266 454T225 404T184 265Q184 189 216 131L456 407Q407 454 338 454Q266 454 225 404ZM435 45T476 97T518 238Q518 304 493 356L254 85Q299 45 362 45Q435 45 476 97Z" />
<glyph unicode="&#xf9;" glyph-name="ugrave" horiz-adv-x="657" d="M255 -7T207 12T137 71T116 176V366Q116 400 112 416T96 438T62 448Q56 466 56 502Q104 500 166 500Q245 500 299 502Q299 471 295 448Q268 445 256 439T240 416T235 366V189Q235 118 265 84T366
50Q390 50 414 57T454 81Q471 98 479 126T487 209V350Q487 388 482 407T464 436T426 448Q422 475 422 502Q464 500 511 500Q553 500 599 502Q599 467 593 448Q561 445 551 427T540 356V204Q540 136 529 97T488 33Q438 -7 340 -7Q255 -7 207 12ZM284 675T220 741Q255
757 303 757Q315 757 335 755Q361 666 405 583Q388 574 348 576Q284 675 220 741Z" />
<glyph unicode="&#xfa;" glyph-name="uacute" horiz-adv-x="657" d="M255 -7T207 12T137 71T116 176V366Q116 400 112 416T96 438T62 448Q56 466 56 502Q104 500 166 500Q245 500 299 502Q299 471 295 448Q268 445 256 439T240 416T235 366V189Q235 118 265 84T366
50Q390 50 414 57T454 81Q471 98 479 126T487 209V350Q487 388 482 407T464 436T426 448Q422 475 422 502Q464 500 511 500Q553 500 599 502Q599 467 593 448Q561 445 551 427T540 356V204Q540 136 529 97T488 33Q438 -7 340 -7Q255 -7 207 12ZM346 571T324 583Q370
678 388 750Q426 764 470 762Q488 762 508 756Q439 674 377 573Q346 571 324 583Z" />
<glyph unicode="&#xfb;" glyph-name="ucircumflex" horiz-adv-x="657" d="M255 -7T207 12T137 71T116 176V366Q116 400 112 416T96 438T62 448Q56 466 56 502Q104 500 166 500Q245 500 299 502Q299 471 295 448Q268 445 256 439T240 416T235 366V189Q235 118 265
84T366 50Q390 50 414 57T454 81Q471 98 479 126T487 209V350Q487 388 482 407T464 436T426 448Q422 475 422 502Q464 500 511 500Q553 500 599 502Q599 467 593 448Q561 445 551 427T540 356V204Q540 136 529 97T488 33Q438 -7 340 -7Q255 -7 207 12ZM206 564T200
577T191 602Q232 632 275 671T351 748Q372 755 398 755Q464 670 548 590Q530 569 502 563L477 581Q468 587 431 612T363 654Q339 642 290 610T216 558Q206 564 200 577Z" />
<glyph unicode="&#xfc;" glyph-name="udieresis" horiz-adv-x="657" d="M255 -7T207 12T137 71T116 176V366Q116 400 112 416T96 438T62 448Q56 466 56 502Q104 500 166 500Q245 500 299 502Q299 471 295 448Q268 445 256 439T240 416T235 366V189Q235 118 265
84T366 50Q390 50 414 57T454 81Q471 98 479 126T487 209V350Q487 388 482 407T464 436T426 448Q422 475 422 502Q464 500 511 500Q553 500 599 502Q599 467 593 448Q561 445 551 427T540 356V204Q540 136 529 97T488 33Q438 -7 340 -7Q255 -7 207 12ZM226 567T207
584T188 626Q188 654 204 673T254 692Q288 692 305 675T322 628Q322 602 303 585T256 567Q226 567 207 584ZM435 567T417 585T398 633Q398 660 417 676T466 692Q495 692 514 675T534 633Q534 605 518 586T469 567Q435 567 417 585Z" />
<glyph unicode="&#xfd;" glyph-name="yacute" horiz-adv-x="604" d="M517 500T563 502Q563 471 558 449Q535 446 517 433T480 384L365 167V143Q365 104 370 87T391 62T440 52Q447 30 447 -2Q403 0 305 0Q232 0 158 -2Q158 31 166 52Q204 55 219 61T240 84T245
142V168L109 405Q95 429 81 438T46 448Q41 468 41 502Q103 500 155 500Q254 500 285 502Q285 476 280 449Q243 446 243 423Q243 408 256 388Q272 361 297 313T343 224Q389 319 430 390Q442 411 442 425Q442 447 404 448Q397 476 397 502Q423 500 485 500Q517 500
563 502ZM323 571T301 583Q347 678 365 750Q403 764 447 762Q465 762 485 756Q416 674 354 573Q323 571 301 583Z" />
<glyph unicode="&#xfe;" glyph-name="thorn" horiz-adv-x="599" d="M365 165T396 187T427 254Q427 297 395 323T300 349Q277 349 254 344V140Q254 93 273 74T339 52Q345 34 345 -2Q283 0 205 0Q141 0 69 -2Q69 33 75 52Q100 54 112 60T129 82T134 132V370Q134
402 129 417T112 439T75 448Q69 466 69 502Q131 500 196 500Q249 500 319 502Q319 466 313 448Q284 446 272 437T256 402Q285 403 354 403Q450 403 497 365T544 265Q544 196 491 153T341 110Q301 110 279 117Q278 123 278 133Q278 151 283 166Q292 165 303 165T320
165Q365 165 396 187Z" />
<glyph unicode="&#xff;" glyph-name="ydieresis" horiz-adv-x="604" d="M517 500T563 502Q563 471 558 449Q535 446 517 433T480 384L365 167V143Q365 104 370 87T391 62T440 52Q447 30 447 -2Q403 0 305 0Q232 0 158 -2Q158 31 166 52Q204 55 219 61T240 84T245
142V168L109 405Q95 429 81 438T46 448Q41 468 41 502Q103 500 155 500Q254 500 285 502Q285 476 280 449Q243 446 243 423Q243 408 256 388Q272 361 297 313T343 224Q389 319 430 390Q442 411 442 425Q442 447 404 448Q397 476 397 502Q423 500 485 500Q517 500
563 502ZM203 567T184 584T165 626Q165 654 181 673T231 692Q265 692 282 675T299 628Q299 602 280 585T233 567Q203 567 184 584ZM412 567T394 585T375 633Q375 660 394 676T443 692Q472 692 491 675T511 633Q511 605 495 586T446 567Q412 567 394 585Z" />
<glyph unicode="&#x2013;" glyph-name="endash" horiz-adv-x="574" d="M514 251T502 230Q265 230 60 226Q60 243 63 262T72 292H514Q514 251 502 230Z" />
<glyph unicode="&#x2014;" glyph-name="emdash" horiz-adv-x="1033" d="M973 251T961 230Q304 230 60 226Q60 242 63 262T72 291H973Q973 251 961 230Z" />
<glyph unicode="&#x2018;" glyph-name="quoteleft" horiz-adv-x="263" d="M60 585T80 631T142 721Q172 721 192 706Q166 673 158 653T149 606Q149 563 203 557Q203 513 192 482Q135 474 100 451Q79 459 70 478T60 531Q60 585 80 631Z" />
<glyph unicode="&#x2019;" glyph-name="quoteright" horiz-adv-x="263" d="M203 586T183 540T121 450Q91 450 71 465Q97 498 105 518T114 565Q114 608 60 614Q60 658 71 689Q128 697 163 720Q184 713 193 694T203 640Q203 586 183 540Z" />
<glyph unicode="&#x201a;" glyph-name="quotesinglbase" horiz-adv-x="263" d="M203 -19T183 -65T121 -155Q91 -155 71 -140Q97 -107 105 -87T114 -40Q114 3 60 9Q60 53 71 84Q128 92 163 115Q184 108 193 89T203 35Q203 -19 183 -65Z" />
<glyph unicode="&#x201c;" glyph-name="quotedblleft" horiz-adv-x="423" d="M60 581T82 630T142 719Q154 720 167 717T191 706Q171 682 159 655T147 606Q147 562 196 558Q198 511 186 482Q133 474 100 451Q80 461 70 480T60 534Q60 581 82 630ZM226 582T246 629T304
716Q317 716 330 713T353 703Q333 678 322 653T310 606Q310 562 363 558Q365 516 353 483Q298 477 264 453Q244 463 235 482T226 536Q226 582 246 629Z" />
<glyph unicode="&#x201d;" glyph-name="quotedblright" horiz-adv-x="423" d="M363 591T341 542T281 453Q269 452 256 455T232 466Q252 490 264 517T276 566Q276 610 227 614Q225 661 237 690Q290 698 323 721Q343 711 353 692T363 638Q363 591 341 542ZM197 590T177
543T119 456Q106 456 93 459T70 469Q90 494 101 519T113 566Q113 610 60 614Q58 656 70 689Q125 695 159 719Q179 709 188 690T197 636Q197 590 177 543Z" />
<glyph unicode="&#x201e;" glyph-name="quotedblbase" horiz-adv-x="423" d="M363 -15T341 -64T281 -153Q269 -154 256 -151T232 -140Q252 -116 264 -89T276 -40Q276 4 227 8Q225 55 237 84Q290 92 323 115Q343 105 353 86T363 32Q363 -15 341 -64ZM197 -16T177
-63T119 -150Q106 -150 93 -147T70 -137Q90 -112 101 -87T113 -40Q113 4 60 8Q58 50 70 83Q125 89 159 113Q179 103 188 84T197 30Q197 -16 177 -63Z" />
<glyph unicode="&#x2022;" glyph-name="bullet" horiz-adv-x="366" d="M124 137T92 173T60 261Q60 310 95 342T185 375Q242 375 274 341T306 259Q306 205 274 171T185 137Q124 137 92 173Z" />
<glyph unicode="&#x2039;" glyph-name="guilsinglleft" horiz-adv-x="337" d="M230 367T203 328T162 262Q201 188 251 121Q248 109 238 97T218 77Q131 172 60 230Q60 258 68 280Q127 328 206 415Q219 414 232 409T254 396Q230 367 203 328Z" />
<glyph unicode="&#x203a;" glyph-name="guilsinglright" horiz-adv-x="345" d="M146 180T185 245Q151 305 83 400Q92 407 105 411T131 416Q209 343 276 288Q285 269 285 242Q210 168 128 78Q105 92 94 115Q146 180 185 245Z" />
</font>
</defs>
</svg>
