<?xml version="1.0" standalone="no"?>
<!DOCTYPE svg PUBLIC "-//W3C//DTD SVG 1.1//EN" "http://www.w3.org/Graphics/SVG/1.1/DTD/svg11.dtd">
<svg xmlns="http://www.w3.org/2000/svg">
<defs >
<font id="Vollkorn" horiz-adv-x="593" ><font-face
    font-family="Vollkorn Medium"
    units-per-em="1000"
    panose-1="0 0 0 0 0 0 0 0 0 0"
    ascent="952"
    descent="-441"
    alphabetic="0" />
<glyph unicode=" " horiz-adv-x="200" />
<glyph unicode="!" horiz-adv-x="411" d="M269 676Q263 617 256 542T244 388T235 235Q223 231 210 230T180 228Q175 321 169 397T156 542T138 680Q154 683 175 688T217 701T250 714Q262 710 267 702T269 676ZM273 57Q273 25 254 9T207 -8Q177 -8 160 9T143 52Q143
79 162 97T211 116Q240 116 256 97T273 57Z" />
<glyph unicode="&quot;" horiz-adv-x="354" d="M123 714Q135 712 141 703T145 680Q144 677 144 673T143 664Q138 623 134 575T125 469Q114 469 100 471T81 478Q78 533 74 587T60 692Q77 695 94 701T123 714ZM272 714Q282 712 288 704T294 685Q294 683 294 681T293
676Q288 632 284 584T274 468Q262 468 249 470T228 477Q226 531 222 586T209 692Q225 695 242 701T272 714Z" />
<glyph unicode="#" horiz-adv-x="597" d="M362 -8Q342 -6 331 0T312 14L457 714Q474 712 487 707T507 694L362 -8ZM28 207Q28 220 31 235T41 265H528Q528 248 526 237T515 209H419Q301 209 223 209T99 208T28 207ZM151 -8Q134 -6 122 0T101 18L246 714Q262 713
275 708T296 692L151 -8ZM80 439Q80 453 82 467T93 497H569Q569 480 567 468T556 441H487Q394 441 321 441T189 441T80 439Z" />
<glyph unicode="$" horiz-adv-x="554" d="M271 -9Q209 -9 160 8T62 54Q68 92 70 131T72 200Q85 204 103 205T136 207Q140 154 154 118T200 63T283 44Q349 44 377 73T406 143Q406 184 382 211T320 257T240 296T160 340T98 404T74 501Q74 560 100 601T172 663T282
685Q317 685 350 679T410 663T455 641Q455 610 456 571T461 506Q449 501 431 498T396 495Q386 552 370 582T332 623T279 635Q229 635 201 611T172 543Q172 501 196 473T258 425T338 385T419 340T482 278T506 185Q506 133 481 89T405 18T271 -9ZM304 -90Q291 -90
275 -87T251 -78V327L302 314Q302 242 302 181T302 56T304 -90ZM303 358L253 370V745Q269 745 281 743T305 734Q304 688 304 643T303 551T303 457T303 358Z" />
<glyph unicode="%" horiz-adv-x="863" d="M178 -7Q163 0 152 9T136 30L687 686Q703 683 714 676T736 657L178 -7ZM246 359Q194 359 159 381T107 439T89 512Q89 555 107 592T163 653T256 677Q305 677 338 655T387 597T404 526Q404 481 386 443T333 382T246 359ZM254
406Q277 406 299 433T322 512Q322 564 300 597T243 630Q214 630 193 600T172 525Q172 473 194 440T254 406ZM616 -8Q564 -8 529 14T477 72T459 145Q459 188 477 225T533 286T626 310Q675 310 708 288T757 230T774 159Q774 114 756 76T703 15T616 -8ZM624 39Q647
39 669 66T692 145Q692 197 670 230T613 263Q584 263 563 233T542 158Q542 106 564 73T624 39Z" />
<glyph unicode="&amp;" horiz-adv-x="752" d="M483 185Q512 231 528 265T552 332Q561 371 546 388T480 415Q477 427 475 438T473 461Q494 460 523 459T578 458Q603 458 631 459T678 461Q678 451 677 439T674 416Q653 409 640 399T619 374T604 335Q595 305 584
277T558 218T521 149L483 185ZM582 111Q600 93 615 83T649 69T697 62Q697 51 696 37T690 10Q669 10 640 8T583 1T536 -9Q469 80 402 154T268 307Q229 356 201 397T159 480T145 566Q145 606 164 640T223 695T322 717Q367 717 400 709T468 682Q463 655 462 623T462
559Q448 554 432 552T400 550Q396 614 377 641T316 668Q284 668 263 647T242 586Q242 558 249 531T277 472T336 391Q351 372 371 347T421 288T489 211T582 111ZM293 68Q336 68 371 84T442 141L477 100Q432 42 384 16T273 -10Q213 -10 171 8T103 58T66 127T54 206Q54
283 96 338T203 430L223 391Q196 365 175 328T154 236Q154 181 173 144T224 87T293 68Z" />
<glyph unicode="&apos;" horiz-adv-x="207" d="M124 714Q145 711 147 687Q147 684 147 682T146 676Q140 633 136 583T127 467Q116 467 102 469T81 478Q79 533 74 587T60 692Q77 694 95 700T124 714Z" />
<glyph unicode="(" horiz-adv-x="301" d="M218 741Q232 743 240 739T258 727Q212 659 184 586T143 430T130 244Q130 139 144 51T189 -115T264 -264Q256 -270 245 -271T223 -271Q166 -197 124 -117T58 53T35 240Q35 330 54 411T114 572T218 741Z" />
<glyph unicode=")" horiz-adv-x="301" d="M83 741Q146 653 186 573T246 413T266 245Q266 144 243 54T177 -116T78 -271Q68 -272 57 -271T37 -264Q84 -190 113 -114T157 49T171 241Q171 343 158 427T117 585T43 727Q51 734 60 738T83 741Z" />
<glyph unicode="*" horiz-adv-x="453" d="M296 740Q281 710 268 676T241 606Q266 611 288 616T333 628T382 642Q389 625 391 604T391 562Q356 566 319 568T244 573Q263 540 281 512T322 451Q308 438 290 430T249 419Q243 450 234 486T214 558Q189 532 168 506T122
449Q107 458 92 473T71 508Q99 524 130 544T192 585Q160 601 129 613T60 637Q64 654 74 673T99 705Q122 683 151 660T209 613Q213 650 215 683T218 756Q235 758 258 754T296 740Z" />
<glyph unicode="+" horiz-adv-x="550" d="M245 3Q246 42 246 87T246 178T247 266Q247 304 247 336T247 405T246 493Q258 500 271 501T302 503V13Q294 9 276 6T245 3ZM47 229Q47 242 49 259T57 286H503Q503 269 502 256T492 230Q444 231 410 231T346 231T279 231Q242
231 202 231T123 230T47 229Z" />
<glyph unicode="," horiz-adv-x="268" d="M171 107Q190 100 199 82T208 30Q208 -30 176 -86T100 -185Q89 -185 78 -181T61 -168Q125 -96 125 -42Q125 -21 113 -8T74 8Q74 22 76 41T84 76Q109 81 131 88T171 107Z" />
<glyph unicode="-" horiz-adv-x="419" d="M359 296Q359 279 356 261T346 226Q318 226 281 226T203 225T126 224T60 221Q60 239 64 260T76 296H359Z" />
<glyph unicode="." horiz-adv-x="250" d="M385 -10Q349 -10 329 10T308 62Q308 95 331 117T390 139Q424 139 444 116T464 68Q464 30 441 10T385 -10Z" />
<glyph unicode="/" horiz-adv-x="371" d="M82 -9Q48 -1 32 16L291 714Q304 711 318 704T341 688L82 -9Z" />
<glyph unicode="0" horiz-adv-x="605" d="M279 451Q235 451 206 427T160 362T144 271Q144 235 157 196T194 125T252 72T330 52Q376 52 404 76T445 142T458 232Q458 266 447 304T412 375T356 430T279 451ZM306 506Q374 506 434 477T530 392T567 255Q567 174 531
115T436 24T306 -9Q235 -9 174 23T76 115T38 255Q38 315 61 362T122 441T208 489T306 506Z" />
<glyph unicode="1" horiz-adv-x="392" d="M249 137Q249 101 254 82T275 54T318 45Q321 34 322 22T323 -3Q308 -2 291 -2T255 -1T221 0T196 0Q183 0 167 0T133 0T99 -1T69 -3Q69 10 70 22T74 45Q100 47 115 55T136 82T143 136V364Q143 399 137 418T117 445T74 455Q72
465 71 477T69 503Q81 502 97 502T132 501T167 500T196 500Q217 500 240 500T285 501T323 503Q323 489 322 477T318 455Q291 454 276 446T255 418T249 364V137Z" />
<glyph unicode="2" horiz-adv-x="532" d="M265 506Q314 506 352 493T413 452T435 376Q435 345 424 320T387 268T320 206Q291 181 261 154T189 87L171 101H336Q365 101 380 104T401 120T409 160Q424 160 437 159T462 153Q462 114 464 83T473 24Q469 13 460 6T436
-2Q391 -1 341 -1T244 0Q199 0 151 0T74 -2Q66 9 63 21T60 48Q100 86 142 124T225 198Q265 233 286 259T316 310T324 359Q324 406 303 430T241 455Q203 455 182 428T150 319Q134 319 118 321T89 327Q91 345 92 369T92 416T87 458Q118 479 162 492T265 506Z" />
<glyph unicode="3" horiz-adv-x="512" d="M196 -171Q146 -171 108 -158T46 -126Q46 -116 50 -106T63 -87Q78 -97 108 -106T187 -116Q226 -116 263 -99T325 -49T350 34Q350 89 317 125T216 161Q208 161 200 160T184 155Q175 164 170 175T165 196Q221 267 260 318T327
408H212Q183 408 166 403T139 383T118 336Q106 336 93 339T70 351Q78 391 79 427T81 502Q99 502 125 502T185 501T261 500Q302 500 332 500T386 501T428 502Q437 494 440 482T442 456Q408 415 365 360T273 242Q324 244 367 223T438 158T465 49Q465 -10 433 -60T341
-141T196 -171Z" />
<glyph unicode="4" horiz-adv-x="600" d="M321 0Q248 0 187 -2T61 -6Q53 4 47 18T40 47L380 506Q396 506 412 504T440 497V-150Q425 -150 405 -154T367 -163T344 -171Q337 -164 334 -155T331 -133V20V37V383L352 387L138 70L132 92H402H424H521Q534 92 542 89T555
79Q550 68 546 54T539 27T536 0H321Z" />
<glyph unicode="5" horiz-adv-x="481" d="M129 502Q164 501 192 501T247 500T307 500Q335 500 347 514T359 549Q369 553 383 554T410 555Q406 525 405 491T404 419Q399 410 389 405T358 400Q338 400 309 400T250 400T194 399T158 396L136 303Q228 285 293 256T392
180T426 64Q426 6 403 -37T342 -111T260 -156T174 -171Q134 -171 103 -162T55 -140Q55 -130 58 -121T69 -102Q82 -106 108 -111T165 -116Q205 -116 238 -98T292 -45T312 36Q312 75 293 105T242 157T170 191T87 209Q78 216 73 226T68 246L129 502Z" />
<glyph unicode="6" horiz-adv-x="519" d="M416 638Q421 631 424 623T426 600Q332 581 270 541T177 429T146 244Q146 186 158 148T190 87T231 55T270 45Q308 45 331 64T364 114T375 177Q375 237 354 271T301 319T241 333Q216 333 190 325T133 295L131 334Q178 367
214 381T290 395Q378 395 429 348T480 212Q480 160 463 119T414 49T344 6T262 -9Q189 -9 138 19T61 102T35 240Q35 329 59 395T123 506T214 580T316 622T416 638Z" />
<glyph unicode="7" horiz-adv-x="483" d="M148 -176Q134 -171 126 -160T118 -127Q118 -61 146 18T225 193T341 398H198Q168 398 150 393T122 373T102 327Q84 327 70 330T44 340Q50 365 54 391T59 445T62 503Q101 501 141 501T242 500Q277 500 307 500T367 501T427
503Q435 494 439 483T444 458Q418 422 394 382T348 302T309 227Q287 184 273 146T252 68T241 -16T237 -119Q208 -130 185 -145T148 -176Z" />
<glyph unicode="8" horiz-adv-x="519" d="M236 311Q205 289 187 267T161 219T153 156Q153 102 184 72T267 41Q311 41 336 66T362 135Q362 173 344 202T292 260T210 317Q168 344 138 369T91 423T74 488Q74 557 123 597T257 637Q343 637 394 602T445 503Q445 463
427 435T380 387T319 350L275 375Q312 397 327 423T342 491Q342 536 320 562T259 589Q224 589 203 569T181 512Q181 473 203 447T276 390Q336 354 379 321T446 249T470 159Q470 80 413 36T255 -9Q159 -9 104 32T49 144Q49 212 87 257T199 341L236 311Z" />
<glyph unicode="9" horiz-adv-x="529" d="M400 156Q361 122 324 108T244 93Q186 93 140 117T66 183T38 283Q38 339 56 381T107 450T180 492T267 506Q344 506 394 477T470 390T495 244Q495 163 468 100T397 -12T300 -94T192 -145T92 -170Q85 -161 83 -151T81 -128Q186
-91 253 -40T354 79T387 235Q387 352 351 404T255 456Q223 456 199 438T161 387T147 317Q147 268 161 237T197 189T246 166T296 159Q325 159 353 170T401 203L400 156Z" />
<glyph unicode=":" horiz-adv-x="250" d="M124 20Q94 20 77 37T60 80Q60 107 79 125T128 144Q157 144 173 125T190 85Q190 53 171 37T124 20ZM124 304Q94 304 77 321T60 364Q60 391 79 409T128 428Q157 428 173 409T190 369Q190 337 171 321T124 304Z" />
<glyph unicode=";" horiz-adv-x="270" d="M143 304Q113 304 96 321T79 364Q79 391 98 409T147 428Q176 428 192 409T209 369Q209 337 190 321T143 304ZM172 107Q191 100 200 82T209 30Q209 -30 177 -86T101 -185Q90 -185 79 -181T62 -168Q126 -96 126 -42Q126
-21 114 -8T75 8Q75 22 77 41T85 76Q110 81 132 88T172 107Z" />
<glyph unicode="&lt;" horiz-adv-x="550" d="M455 14Q354 74 255 129T64 231Q58 266 74 290L431 505Q458 496 477 468L124 260L466 78Q469 62 467 43T455 14Z" />
<glyph unicode="=" horiz-adv-x="550" d="M55 142Q55 155 58 172T66 198H496Q496 181 494 169T485 143Q446 144 416 144T356 144T283 144Q240 144 205 144T135 144T55 142ZM55 311Q55 325 58 341T67 367H495Q495 350 493 338T484 312Q445 313 416 313T356 313T283
313Q239 313 205 313T135 313T55 311Z" />
<glyph unicode="&gt;" horiz-adv-x="550" d="M101 12Q92 22 88 38T86 71L448 270L447 248L75 468Q84 483 95 492T122 507L486 280Q492 250 476 225Q405 189 346 156T229 89T101 12Z" />
<glyph unicode="?" horiz-adv-x="537" d="M280 714Q355 714 400 681T445 587Q445 548 431 517T394 460T350 408T313 351T298 278Q298 264 301 244T309 207Q299 202 288 200T265 198Q247 209 232 243T217 321Q217 360 229 388T260 439T297 481T328 524T341 577Q341
618 318 643T265 668Q242 668 226 655T199 614T182 538Q165 538 148 541T118 550Q121 585 121 612T118 671Q145 687 184 700T280 714ZM277 -10Q242 -10 223 9T203 60Q203 91 225 112T282 133Q315 133 334 111T353 66Q353 29 331 10T277 -10Z" />
<glyph unicode="@" horiz-adv-x="998" d="M655 467Q664 464 669 455T676 427T678 371V187Q678 138 680 114T690 82T713 74Q731 74 758 104T805 195T825 344Q825 417 793 478T694 577T526 614Q412 614 336 565T223 430T185 237Q185 160 206 90T271 -34T381 -120T539
-152Q622 -152 695 -125T820 -39Q834 -42 842 -49T854 -68Q824 -110 773 -140T658 -186T525 -202Q386 -202 296 -147T162 6T118 228Q118 318 146 396T227 533T359 626T537 660Q652 660 728 619T842 509T880 356Q880 275 860 209T806 93T732 18T649 -9Q610 -9 594
17T577 89Q577 115 577 161T579 262T581 369T584 458Q603 458 621 460T655 467ZM495 467Q525 467 549 465T606 454L590 383Q569 400 545 408T498 417Q467 417 448 399T420 340T410 230Q410 145 427 111T468 77Q486 77 509 106T553 193T582 337L613 360Q609 285
596 219T559 101T505 20T433 -9Q374 -9 340 39T305 199Q305 278 329 338T397 432T495 467Z" />
<glyph unicode="A" horiz-adv-x="706" d="M363 682L598 145Q616 106 627 85T650 56T677 45Q681 32 682 22T683 -3Q672 -2 650 -2T603 -1T563 0Q551 0 534 0T498 -1T464 -2T440 -3Q440 11 441 23T447 45Q487 51 494 65T482 123L354 423Q338 459 327 487T303 554H313Q301
515 291 485T269 424L163 148Q143 95 151 72T199 45Q203 35 204 23T206 -3Q195 -2 178 -2T143 -1T108 0Q83 0 60 -1T23 -3Q23 9 24 21T30 45Q48 48 60 58T83 90T110 152L318 678Q329 680 339 681T363 682ZM442 260L453 212Q386 212 311 211T171 206L187 260H442Z"
/>
<glyph unicode="B" horiz-adv-x="637" d="M53 679Q73 678 102 677T157 676Q182 676 209 676T263 677T314 678Q380 678 430 665T508 620T537 531Q537 468 498 423T390 367Q446 364 490 347T560 293T586 197Q586 142 561 97T480 26T334 0Q304 0 265 0T185 0T109
-1T52 -3Q52 12 53 24T57 45Q84 47 99 55T120 85T127 146V540Q127 576 121 594T100 621T58 631Q55 640 54 653T53 679ZM237 641V144Q237 103 245 82T273 55T327 48Q395 48 428 84T461 183Q461 228 444 257T398 301T333 322T261 328H221V376H269Q329 376 361 393T407
439T420 501Q420 550 398 578T344 617T279 629Q265 629 253 627T223 620L237 641Z" />
<glyph unicode="C" horiz-adv-x="650" d="M357 -9Q262 -9 190 35T77 159T35 343Q35 429 63 493T138 600T246 664T371 685Q432 685 485 672T592 633Q585 598 583 559T581 478Q568 473 553 471T521 468Q519 536 501 573T452 624T378 638Q319 638 277 616T208 556T169
470T156 370Q156 282 184 211T268 99T402 57Q448 57 496 72T585 113Q592 108 597 98T605 79Q549 35 492 13T357 -9Z" />
<glyph unicode="D" horiz-adv-x="731" d="M52 -3Q52 12 53 24T57 45Q84 47 99 55T120 85T127 146V540Q127 576 121 594T100 621T58 631Q55 640 54 653T53 679Q70 678 96 678T150 677T204 676Q231 676 260 677T320 678Q373 678 427 671T529 644T615 588T674 495T696
355Q696 274 676 216T623 119T549 56T466 20T385 4T319 0Q291 0 254 0T177 0T104 -1T52 -3ZM325 50Q378 50 423 63T504 108T558 197T578 340Q578 420 556 477T494 568T407 618T306 634Q285 634 261 631T228 621L237 650V146Q237 108 244 87T270 58T325 50Z" />
<glyph unicode="E" horiz-adv-x="608" d="M52 679Q68 678 92 678T144 677T196 676T236 676V146Q236 108 243 87T270 58T325 50L319 0Q291 0 254 0T177 0T104 -1T52 -3Q52 12 53 24T57 45Q84 47 99 55T120 85T126 146V540Q126 576 120 594T99 621T57 631Q54 640
53 653T52 679ZM518 177Q536 173 548 167T571 152Q560 118 553 77T540 -2Q519 -1 485 -1T408 -1T319 0L325 50H333Q399 50 433 64T486 107T518 177ZM450 451Q449 426 449 398T448 341Q448 312 448 281T450 224Q435 224 423 225T398 230Q394 280 372 298T290 316H220V364H290Q350
364 372 380T396 443Q410 448 423 449T450 451ZM515 679Q517 657 520 627T527 569T536 518Q527 511 514 508T483 505Q480 537 466 565T419 612T323 631H212L235 676Q313 676 369 676T461 678T515 679Z" />
<glyph unicode="F" horiz-adv-x="570" d="M52 -3Q52 13 53 25T57 45Q84 47 99 55T120 82T126 136V540Q126 576 120 594T100 621T58 631Q54 640 53 652T52 679Q70 678 93 678T143 677T193 676T236 676V155Q236 112 245 89T275 57T329 45Q332 36 333 24T334 -3Q319
-2 297 -2T249 -1T198 0Q160 0 117 0T52 -3ZM460 202Q445 202 433 203T408 208Q404 258 382 276T300 294H230V342H300Q360 342 382 358T406 421Q419 425 432 427T460 429Q459 404 459 375T458 319Q458 290 458 259T460 202ZM481 505Q478 537 464 565T417 612T321
631H208L232 676Q312 676 367 676T459 678T513 679Q515 657 518 627T525 569T534 518Q525 511 512 508T481 505Z" />
<glyph unicode="G" horiz-adv-x="726" d="M368 -9Q268 -9 193 34T76 158T35 346Q35 430 63 493T141 599T252 663T384 685Q455 685 517 672T623 637Q616 602 614 564T612 482Q598 477 584 475T552 472Q550 540 528 575T471 624T390 638Q310 638 258 600T181 501T156
369Q156 278 182 205T259 89T387 45Q414 45 435 47T478 59Q494 66 502 80T511 133V181Q511 225 506 244T482 270T428 277Q424 286 423 300T421 328Q442 327 478 326T546 325Q577 325 613 325T667 327Q667 316 666 302T661 277Q642 276 632 270T619 245T616 183V142Q616
118 618 101T629 66Q586 35 519 13T368 -9Z" />
<glyph unicode="H" horiz-adv-x="761" d="M450 -3Q450 12 451 24T456 45Q483 47 498 55T518 82T524 136V540Q524 576 519 594T498 621T456 631Q453 640 452 652T450 679Q469 678 490 678T535 677T580 676Q603 676 624 676T667 677T709 679Q709 665 708 653T703
631Q677 629 662 621T641 595T635 540V136Q635 101 641 82T662 55T703 45Q706 37 707 25T709 -3Q680 -1 647 -1T582 0Q549 0 514 0T450 -3ZM52 -3Q52 12 53 24T58 45Q85 47 99 55T120 82T126 136V540Q126 576 120 594T100 621T58 631Q54 640 53 652T52 679Q71 678
92 678T137 677T182 676Q204 676 226 676T269 677T310 679Q310 665 309 653T305 631Q279 629 264 621T242 595T236 540V136Q236 101 242 82T263 55T305 45Q308 37 309 25T310 -3Q282 -1 249 -1T184 0Q151 0 115 0T52 -3ZM232 316V371H529V323Q502 323 462 323T380
322T298 320T232 316Z" />
<glyph unicode="I" horiz-adv-x="362" d="M126 540Q126 576 120 594T100 621T58 631Q54 640 53 652T52 679Q71 678 92 678T137 677T182 676Q204 676 226 676T269 677T310 679Q310 665 309 653T305 631Q279 629 264 621T242 595T236 540V136Q236 101 242 82T263
55T305 45Q308 37 309 25T310 -3Q282 -1 249 -1T184 0Q151 0 115 0T52 -3Q52 12 53 24T58 45Q85 47 99 55T120 82T126 136V540Z" />
<glyph unicode="J" horiz-adv-x="339" d="M226 127Q226 57 219 3T190 -96T129 -177T20 -249Q12 -243 7 -235T0 -216Q38 -185 63 -151T102 -72T115 38V540Q115 576 109 594T89 621T47 631Q44 640 43 652T41 679Q57 678 78 678T124 677T170 676Q205 676 242 677T300
679Q300 664 299 652T294 631Q268 629 253 621T232 594T226 540V127Z" />
<glyph unicode="K" horiz-adv-x="692" d="M492 -6Q473 25 443 70T374 166T295 261T218 339L417 546Q456 586 456 607T424 631Q420 642 419 654T418 679Q435 678 464 677T523 676Q543 676 563 676T602 677T633 679Q633 668 632 654T627 631Q604 630 583 622T539
597T485 545L313 363L318 394Q363 352 414 288T524 147Q548 115 567 94T611 62T672 48Q672 38 671 25T666 0Q647 0 625 0T579 -1T533 -3T492 -6ZM52 -3Q52 12 53 24T58 45Q85 47 99 55T120 82T126 136V540Q126 576 120 594T100 621T58 631Q54 640 53 652T52 679Q71
678 92 678T137 677T182 676Q204 676 226 676T269 677T310 679Q310 665 309 653T305 631Q279 629 264 621T242 595T236 540V136Q236 101 242 82T263 55T305 45Q308 37 309 25T310 -3Q282 -1 249 -1T184 0Q151 0 115 0T52 -3Z" />
<glyph unicode="L" horiz-adv-x="573" d="M333 50Q386 50 416 62T466 102T501 177Q519 173 532 167T554 152Q543 118 536 77T523 -2Q503 -1 469 -1T396 -1T319 0Q291 0 254 0T177 0T104 -1T52 -3Q52 12 53 24T57 45Q84 47 99 55T120 85T127 146V540Q127 576 121
594T100 621T58 631Q55 640 54 653T53 679Q75 678 97 678T142 677T182 676Q204 676 226 676T269 677T311 679Q311 665 310 653T306 631Q280 629 265 621T243 594T237 537V146Q237 108 244 87T270 58T325 50H333Z" />
<glyph unicode="M" horiz-adv-x="941" d="M433 -9L194 516H206L173 187Q168 131 172 102T192 60T237 45Q240 34 241 20T243 -3Q220 -1 190 -1T135 0Q120 0 101 0T63 -1T31 -3Q31 6 32 20T37 45Q63 48 79 59T104 101T118 194L149 532Q152 570 147 591T127 622T83
631Q79 642 78 655T77 679Q88 678 103 678T134 677T163 676Q177 676 192 676T221 677T248 679L501 116H477L696 679Q709 678 724 678T755 677T784 676Q798 676 812 676T841 677T869 679Q869 667 868 655T864 631Q827 631 809 610T797 527L831 175Q837 124 844 97T866
60T905 46Q908 35 909 22T910 -3Q899 -2 883 -2T847 -1T811 0T779 0Q760 0 737 0T691 -1T652 -3Q652 8 653 21T658 45Q690 49 704 58T721 92T719 162L681 519H694L480 -2Q470 -6 458 -7T433 -9Z" />
<glyph unicode="N" horiz-adv-x="737" d="M582 -6L120 600Q107 617 94 622T55 631Q52 642 51 655T50 679Q60 678 74 678T104 677T133 676Q153 676 173 677T207 679L589 170L582 -6ZM50 -3Q50 12 51 23T55 45Q83 46 98 59T119 104T126 192V611L181 610V192Q181
136 187 104T208 59T251 45Q255 35 256 24T257 -3Q242 -2 224 -2T187 -1T154 0Q140 0 120 0T81 -1T50 -3ZM582 -6L578 107V488Q578 544 572 574T551 617T507 631Q504 648 503 658T501 679Q516 678 533 678T569 677T601 676Q623 676 650 677T698 679Q698 667 697
655T693 631Q670 630 657 618T639 575T633 488V0Q623 -3 610 -4T582 -6Z" />
<glyph unicode="O" horiz-adv-x="736" d="M367 -9Q267 -9 193 36T77 161T35 340Q35 418 60 481T131 589T236 660T367 685Q465 685 540 642T658 522T701 342Q701 267 677 203T608 92T502 18T367 -9ZM386 45Q448 45 491 80T558 178T582 317Q582 405 552 477T469
591T348 633Q292 633 248 600T179 507T154 367Q154 304 169 246T213 143T286 71T386 45Z" />
<glyph unicode="P" horiz-adv-x="598" d="M52 -3Q52 13 53 25T57 45Q84 47 99 55T120 82T126 136V540Q126 576 120 594T100 621T58 631Q54 640 53 652T52 679Q92 677 129 677T192 676Q209 676 236 676T290 677T330 678Q416 678 467 651T541 580T563 482Q563 422
537 368T460 281T332 247Q290 247 263 258Q260 271 260 282T265 304Q277 301 289 300T313 298Q348 298 378 311T426 358T445 453Q445 531 408 580T286 629Q274 629 260 627T222 619L236 635V155Q236 112 245 89T275 57T329 45Q332 36 333 24T334 -3Q319 -2 297
-2T249 -1T198 0Q173 0 145 0T92 -1T52 -3Z" />
<glyph unicode="Q" horiz-adv-x="736" d="M367 -9Q267 -9 193 36T77 161T35 340Q35 418 60 481T131 589T236 660T367 685Q465 685 540 642T658 522T701 342Q701 267 677 203T608 92T502 18T367 -9ZM386 45Q448 45 491 80T558 178T582 317Q582 405 552 477T469
591T348 633Q292 633 248 600T179 507T154 367Q154 304 169 246T213 143T286 71T386 45ZM629 -189Q591 -179 567 -159T524 -116T486 -70T438 -31T367 -9L463 20Q503 11 533 -4T588 -37T640 -69T696 -92T769 -96Q769 -107 767 -119T762 -143Q730 -151 699 -161T629
-189Z" />
<glyph unicode="R" horiz-adv-x="689" d="M493 -9Q475 23 463 45T440 89T417 133Q399 169 382 197T343 252T288 313L319 301Q292 300 271 300T228 301L229 353Q244 351 255 350T278 349Q329 349 370 364T436 412T461 495Q461 555 425 592T305 629Q284 629 267
627T231 620L236 636V138Q236 102 242 82T262 55T300 45Q303 36 304 23T305 -3Q284 -1 260 -1T214 0T177 0Q149 0 113 0T52 -3Q52 10 53 22T57 45Q84 47 99 55T120 82T126 136V540Q126 576 120 595T99 622T57 631Q54 642 53 654T52 678Q69 677 105 677T180 676Q219
676 263 677T353 678Q431 678 480 656T552 595T576 507Q576 458 554 419T491 355T395 318L403 330Q431 304 450 280T490 224T540 141Q559 107 575 88T611 59T666 48Q666 35 665 24T661 0Q617 0 573 -1T493 -9Z" />
<glyph unicode="S" horiz-adv-x="554" d="M271 -9Q209 -9 160 8T62 54Q68 92 70 131T72 200Q85 204 103 205T136 207Q140 154 154 118T200 63T283 44Q349 44 377 73T406 143Q406 184 382 211T320 257T240 296T160 340T98 404T74 501Q74 560 100 601T172 663T282
685Q317 685 350 679T410 663T455 641Q455 610 456 571T461 506Q449 501 431 498T396 495Q386 552 370 582T332 623T279 635Q229 635 201 611T172 543Q172 501 196 473T258 425T338 385T419 340T482 278T506 185Q506 133 481 89T405 18T271 -9Z" />
<glyph unicode="T" horiz-adv-x="606" d="M207 627Q161 627 137 612T101 570T82 504Q68 504 52 506T25 514Q33 556 37 600T42 679Q73 678 113 677T202 676T306 676Q361 676 410 676T500 677T571 679Q570 642 572 602T580 514Q568 509 554 506T522 504Q519 565
493 596T409 627H207ZM250 648H361V136Q361 101 367 82T390 55T442 45Q445 37 446 25T448 -3Q416 -1 380 -1T307 0Q282 0 256 0T205 -1T160 -3Q160 12 161 24T166 45Q200 47 218 55T243 82T250 136V648Z" />
<glyph unicode="U" horiz-adv-x="678" d="M574 270Q574 184 563 133T517 47Q488 19 446 5T352 -9Q258 -9 204 18T127 99T104 232V539Q104 577 100 595T82 620T44 631Q41 642 40 654T39 679Q59 678 92 677T158 676Q173 676 191 676T227 676T261 677T288 679Q288
667 287 655T283 631Q254 628 240 621T220 596T215 539V247Q215 190 229 145T279 74T376 48Q400 48 429 57T478 87Q493 103 501 124T514 178T519 265V502Q519 551 514 577T495 616T451 631Q448 646 447 657T445 679Q458 678 474 678T509 677T542 676Q566 676 593
677T639 679Q639 670 638 659T634 631Q610 628 597 617T579 579T574 504V270Z" />
<glyph unicode="V" horiz-adv-x="689" d="M320 -6Q284 89 248 181T178 359T113 515Q92 564 80 588T57 620T28 631Q25 643 24 655T23 679Q33 678 48 678T81 677T117 676T150 676Q181 676 214 677T279 679Q279 667 278 655T273 631Q242 628 227 620T214 589T236
522Q262 460 287 397T336 268T385 132H367Q396 197 422 259T472 385T521 516Q539 568 532 597T481 631Q478 642 477 655T476 679Q490 678 504 678T534 677T565 676Q588 676 617 677T667 679Q667 666 666 654T661 631Q631 624 613 595T575 515Q526 387 474 258T367
-2Q356 -4 345 -5T320 -6Z" />
<glyph unicode="W" horiz-adv-x="1000" d="M23 679Q35 678 50 678T83 677T116 676T144 676Q160 676 182 676T229 677T273 679Q273 669 272 656T268 631Q233 628 218 621T205 592T222 525Q241 468 262 402T303 267T342 138H316L501 679Q510 682 522 683T551 684Q584
598 618 505T686 320T750 140H727L836 488Q859 563 848 593T787 631Q783 642 782 655T780 679Q801 678 827 677T880 676Q903 676 930 677T978 679Q978 667 977 655T970 631Q953 626 941 613T916 570T886 486L734 -3Q724 -6 710 -7T683 -9Q653 77 620 166T554 346T487
522H501L324 -3Q318 -5 309 -6T290 -8T272 -9Q232 124 191 255T107 513Q89 567 78 591T57 621T28 630Q25 641 24 654T23 679Z" />
<glyph unicode="X" horiz-adv-x="677" d="M640 -3Q626 -2 603 -2T556 -1T508 0Q486 0 462 0T415 -1T378 -2Q378 9 379 21T383 45Q408 48 419 56T426 86T392 155Q359 212 322 271T247 391T168 512Q142 552 126 574T100 608T81 623T59 630Q54 643 53 655T52 679Q70
678 93 678T142 677T187 676Q219 676 254 676T312 678Q312 667 311 655T308 631Q281 626 270 616T264 585T294 525Q334 465 372 405T447 285T517 170Q540 132 556 109T585 72T608 54T633 45Q637 35 638 23T640 -3ZM37 -3Q37 7 38 22T43 47Q70 54 100 77T168 153L295
334L329 295L239 162Q213 123 205 100T208 64T251 45Q254 34 255 22T257 -3Q232 -1 202 -1T144 0Q125 0 106 0T69 -1T37 -3ZM381 328L346 369L438 514Q479 578 475 601T426 631Q423 642 422 655T421 679Q438 678 456 678T492 677T526 676Q541 676 560 676T597 677T627
679Q627 667 627 655T623 631Q605 626 590 617T555 585T505 516L381 328Z" />
<glyph unicode="Y" horiz-adv-x="631" d="M374 264V168Q374 116 379 92T402 59T454 45Q458 35 459 23T461 -3Q427 -2 390 -1T321 0Q296 0 268 0T215 -1T173 -2Q173 11 174 23T179 45Q217 49 235 56T258 87T264 158V264H374ZM358 225H280L102 572Q86 604 71 617T29
631Q25 643 24 654T23 678Q38 678 57 678T97 677T137 676Q156 676 182 676T234 676T276 678Q276 665 275 655T271 633Q233 629 228 611T244 551Q269 502 298 439T357 309H350Q380 378 407 436T457 539Q482 589 475 607T429 631Q426 643 424 654T422 678Q441 677
469 677T521 676Q544 676 567 676T608 678Q608 666 607 656T603 633Q578 627 555 603T507 529L358 225Z" />
<glyph unicode="Z" horiz-adv-x="624" d="M97 678Q112 678 142 678T209 677T279 676T339 676Q372 676 404 676T469 676T536 678Q541 671 544 661T548 639Q488 532 429 430T310 228T185 28L170 47H333Q392 47 425 56T476 93T505 176Q543 172 566 157Q561 135 557
108T550 52T547 -3Q499 -1 457 -1T373 0T286 0Q219 0 158 0T64 -3Q59 6 57 14T54 35Q101 112 147 188T238 339T327 490T415 644L434 631H280Q238 631 212 621T169 584T141 500Q126 500 107 502T77 511Q87 545 92 591T97 678Z" />
<glyph unicode="[" horiz-adv-x="278" d="M35 742Q61 741 86 741T130 740Q157 740 179 740T230 742Q237 734 239 722T241 697Q190 693 162 686T124 661T114 605V-148Q114 -180 126 -195T164 -215T230 -222Q237 -231 239 -242T241 -269Q218 -267 191 -267T143 -267Q118
-267 91 -267T35 -269V742Z" />
<glyph unicode="\" horiz-adv-x="384" d="M30 709Q36 711 45 712T64 714Q71 714 77 713T88 710L352 0Q343 -3 323 -4T294 -4L30 709Z" />
<glyph unicode="]" horiz-adv-x="278" d="M243 -269Q216 -267 188 -267T135 -267Q114 -267 87 -267T37 -269Q37 -253 39 -242T48 -222Q89 -220 114 -215T151 -195T164 -148V605Q164 643 154 661T117 686T37 697Q37 710 39 722T48 742Q78 741 99 741T148 740Q168
740 192 740T243 742V-269Z" />
<glyph unicode="^" horiz-adv-x="550" d="M276 638Q221 573 168 507T72 381Q59 391 52 403T41 431L246 687Q258 694 273 696T304 696Q331 655 367 603T440 498T508 404Q498 396 481 393T448 392L276 638Z" />
<glyph unicode="_" horiz-adv-x="550" d="M30 -145Q30 -127 32 -114T42 -89H520Q520 -100 517 -117T508 -144Q453 -143 414 -143T340 -143T263 -143Q226 -143 192 -143T119 -144T30 -145Z" />
<glyph unicode="`" horiz-adv-x="300" d="M189 535Q156 586 126 626T61 701Q83 712 111 714T168 713Q180 671 197 627T238 539Q228 534 216 534T189 535Z" />
<glyph unicode="a" horiz-adv-x="512" d="M349 -9Q337 -4 330 9T323 50Q323 60 324 73T329 99H332Q328 80 317 61T288 27Q270 12 243 3T179 -7Q115 -7 81 21T46 101Q46 140 64 167T112 213T177 243T246 260T309 271Q309 309 308 331T302 366T288 390Q276 404 261
411T228 418Q196 418 178 399T152 353T142 303Q128 303 110 305T81 311Q83 337 83 368T76 423Q118 444 166 455T255 467Q298 467 327 456T372 427Q397 403 406 364T415 256V153Q415 124 419 107T437 83T476 74Q477 62 476 48T469 22Q441 21 408 13T349 -9ZM213
56Q235 56 257 70T294 114T309 192V227Q283 223 256 217T207 200T171 171T157 123Q157 88 174 72T213 56Z" />
<glyph unicode="b" horiz-adv-x="563" d="M175 89Q194 68 216 55T272 41Q293 41 316 49T362 78T397 136T411 233Q411 292 394 328T353 381T304 399Q276 399 250 381T206 323T188 214V58L175 89ZM268 -9Q222 -9 182 0T112 24T60 60Q72 74 77 100T83 182V569Q83
593 78 608T57 632T8 640Q8 652 10 663T17 683Q38 683 68 688T124 701T164 717Q174 713 181 703T188 673V426Q188 405 186 392T182 365L176 281L156 319Q170 353 181 371T199 398Q208 413 227 429T274 456T334 467Q393 467 435 444T501 373T524 248Q524 176 493
118T404 26T268 -9Z" />
<glyph unicode="c" horiz-adv-x="453" d="M421 72Q394 32 353 12T255 -9Q199 -9 150 17T70 96T38 227Q38 287 63 342T136 432T253 467Q302 467 341 456T409 423Q405 394 403 366T401 306Q391 301 375 299T346 297Q341 355 315 385T247 416Q201 416 174 371T146
242Q146 194 162 151T209 80T287 53Q319 53 347 67T396 106Q405 101 411 92T421 72Z" />
<glyph unicode="d" horiz-adv-x="577" d="M295 467Q322 467 343 463T388 450V369Q368 390 346 403T291 417Q270 417 247 409T201 381T166 323T152 225Q152 166 169 130T210 77T258 59Q287 59 313 77T357 135T375 244L407 139Q393 105 382 87T364 60Q354 45 335
30T288 3T228 -9Q170 -9 128 14T62 85T38 210Q38 282 70 340T160 432T295 467ZM480 145Q480 120 484 104T501 81T541 74Q542 62 541 48T534 22Q506 21 471 13T410 -9Q398 -4 391 6T383 49Q383 69 387 85T398 136L480 145ZM480 574V128H375V574H480ZM456 717Q466
713 473 703T480 673V538H375V569Q375 593 370 608T349 632T300 640Q300 652 302 663T309 683Q330 683 359 688T416 701T456 717Z" />
<glyph unicode="e" horiz-adv-x="485" d="M259 -9Q184 -9 136 23T63 109T38 228Q38 294 64 348T138 434T253 467Q320 467 361 439T422 364T446 258Q442 235 429 220Q409 220 375 220T298 220T211 218T127 214V269H333Q333 335 311 375T246 415Q222 415 200 400T164
350T150 251Q150 201 163 156T207 82T295 53Q328 53 360 67T418 107Q426 103 433 92T442 71Q407 28 362 10T259 -9Z" />
<glyph unicode="f" horiz-adv-x="357" d="M324 448Q324 436 322 422T314 397Q285 397 260 394T211 383V448H324ZM114 486Q114 562 144 613T224 689T329 714Q369 714 392 707T433 688Q431 658 430 627T429 568Q415 563 397 561T362 559Q362 602 345 629T289 656Q264
656 249 641T226 595T219 518V208H114V486ZM131 448V384Q105 392 79 395T35 398Q35 412 38 424T49 448H131ZM219 155Q219 112 228 89T258 57T311 45Q315 36 316 24T317 -3Q301 -2 279 -2T233 -1T183 0Q145 0 104 0T40 -3Q40 13 41 25T45 45Q72 47 87 55T108 82T114
136V227H219V155Z" />
<glyph unicode="g" horiz-adv-x="522" d="M217 -249Q153 -249 114 -234T56 -189T38 -117Q38 -79 59 -51T118 -8L173 -14Q150 -33 142 -51T133 -95Q133 -143 158 -167T243 -192Q308 -192 345 -162T382 -90Q382 -67 371 -54T326 -34T229 -27Q185 -27 154 -23T103
-8T74 20T65 65Q65 101 85 132T135 187L181 161Q163 146 155 133T146 108Q146 90 157 82T201 71T294 68Q359 68 399 57T458 22T477 -46Q477 -82 458 -118T405 -184T322 -231T217 -249ZM244 139Q192 139 148 157T79 211T53 301Q53 349 74 386T137 445T240 467Q293
467 329 451T390 409T424 355T435 304Q435 259 414 221T350 161T244 139ZM256 189Q288 189 308 215T328 293Q328 346 304 383T234 420Q196 420 178 388T160 314Q160 254 185 222T256 189ZM486 392Q470 396 449 400T407 407T370 411L292 458H478Q483 444 484 427T486
392Z" />
<glyph unicode="h" horiz-adv-x="613" d="M515 132Q515 81 529 63T572 45Q575 35 576 24T578 -3Q556 -1 526 -1T464 0Q444 0 420 0T375 -1T338 -3Q338 12 339 24T344 45Q378 45 394 64T410 134V273Q410 342 386 367T322 392Q296 392 271 375T230 322T213 227V132Q213
82 227 64T279 45Q282 35 283 24T285 -3Q270 -2 249 -2T205 -1T160 0Q140 0 116 0T71 -1T34 -3Q34 12 35 24T39 45Q78 45 93 63T108 132V316L213 420Q213 408 212 393T205 361Q209 368 213 376T224 393Q242 416 279 439T367 462Q407 462 440 447T494 396T515 299V132ZM108
569Q108 593 103 608T82 632T33 640Q33 652 35 663T42 683Q63 683 93 688T149 701T189 717Q199 713 206 703T213 673V538H108V569ZM108 574H213V420L108 298V574Z" />
<glyph unicode="i" horiz-adv-x="316" d="M36 -3Q36 9 37 22T42 45Q82 46 96 64T110 132V319Q110 343 106 358T85 382T35 390Q35 402 37 413T45 433Q65 433 95 438T152 451T192 467Q202 463 209 453T216 423V132Q216 82 229 64T276 45Q279 35 280 21T281 -3Q265
-2 245 -2T203 -1T160 0Q138 0 116 0T73 -1T36 -3ZM154 570Q125 570 107 587T88 631Q88 661 108 679T155 697Q186 697 204 679T222 632Q222 607 203 589T154 570Z" />
<glyph unicode="j" horiz-adv-x="291" d="M39 -249Q30 -244 23 -235T13 -214Q51 -172 72 -137T101 -65T109 22V319Q109 343 105 358T84 382T35 390Q35 402 37 413T44 433Q65 433 94 438T151 451T191 467Q201 463 208 453T215 423V41Q215 -15 200 -61T158 -143T101
-205T39 -249ZM153 570Q124 570 106 587T87 631Q87 661 107 679T154 697Q185 697 203 679T221 632Q221 607 202 589T153 570Z" />
<glyph unicode="k" horiz-adv-x="563" d="M34 -3Q34 9 35 22T39 45Q79 46 93 64T108 132V569Q108 593 103 608T82 632T33 640Q33 652 35 663T42 683Q63 683 93 688T149 701T189 717Q199 713 206 703T213 673V132Q213 83 226 65T270 45Q273 35 274 21T275 -3Q250
-1 219 -1T156 0Q135 0 113 0T70 -1T34 -3ZM400 -9Q378 25 342 72T264 166T186 250L183 230L286 323Q319 352 332 370T345 397Q345 405 338 409T317 413Q313 425 312 436T310 460Q330 459 350 459T389 458T424 458Q443 458 467 458T518 460Q518 448 517 436T510
413Q490 412 471 406T432 388T387 352L284 258L280 295Q318 257 356 214T446 108Q464 85 478 73T507 56T544 48Q544 33 543 21T538 0Q513 0 490 -1T445 -3T400 -9Z" />
<glyph unicode="l" horiz-adv-x="311" d="M34 -3Q34 9 35 22T39 45Q79 46 93 64T108 132V571Q108 594 103 609T82 632T33 640Q33 652 35 663T42 683Q63 683 93 688T149 701T189 717Q199 713 206 703T213 673V132Q213 82 226 64T273 45Q276 35 277 21T279 -3Q262
-2 242 -2T200 -1T157 0Q136 0 113 0T70 -1T34 -3Z" />
<glyph unicode="m" horiz-adv-x="909" d="M36 -3Q36 12 37 24T42 45Q82 47 96 64T110 132V314Q110 341 106 357T85 381T36 390Q36 402 38 412T45 433Q66 434 94 439T148 452T188 467Q197 464 204 454T212 423Q212 407 210 386T201 323L192 322Q207 363 214 377T226
397Q243 420 280 443T368 467Q411 467 446 448T499 384Q505 370 505 348H501Q512 377 526 394Q543 416 579 439T665 462Q706 462 739 446T791 394T811 297V140Q811 102 817 82T835 55T869 45Q872 35 873 24T874 -3Q852 -1 822 -1T761 0Q740 0 718 0T674 -1T635
-3Q635 13 636 24T640 45Q666 47 680 55T700 83T706 138V274Q706 343 683 367T621 392Q595 392 570 376T529 323T513 227V133Q513 82 528 65T580 45Q583 36 584 24T586 -3Q561 -1 527 -1T462 0Q430 0 397 0T337 -3Q337 12 338 24T342 45Q368 47 382 55T403 83T409
140V280Q409 347 385 372T322 397Q297 397 272 380T231 326T215 231V133Q215 83 229 65T282 45Q285 35 286 24T287 -3Q271 -2 249 -2T203 -1T161 0Q143 0 120 0T74 -1T36 -3Z" />
<glyph unicode="n" horiz-adv-x="616" d="M110 212V316Q110 342 106 357T85 381T36 390Q36 402 38 413T45 433Q83 435 126 445T192 467Q202 463 209 453T216 420L110 212ZM518 132Q518 81 531 63T575 45Q578 35 579 24T580 -3Q558 -1 528 -1T467 0Q446 0 423 0T378
-1T341 -3Q341 12 342 24T347 45Q380 45 396 64T412 134V273Q412 342 388 367T324 392Q299 392 274 375T233 322T216 227V132Q216 82 230 64T281 45Q285 35 286 24T287 -3Q273 -2 252 -2T208 -1T163 0Q142 0 119 0T73 -1T36 -3Q36 12 37 24T42 45Q81 45 95 63T110
132V316L216 420Q216 408 215 393T208 361Q212 368 216 376T227 393Q245 416 282 439T370 462Q409 462 443 447T497 396T518 299V132Z" />
<glyph unicode="o" horiz-adv-x="544" d="M271 -9Q200 -9 148 20T67 103T38 228Q38 298 68 352T152 436T272 467Q347 467 399 437T478 354T505 230Q505 161 476 107T395 22T271 -9ZM281 44Q337 44 364 91T391 215Q391 277 374 322T327 391T262 415Q207 415 180
369T153 251Q153 187 168 140T213 69T281 44Z" />
<glyph unicode="p" horiz-adv-x="590" d="M36 -245Q36 -229 37 -217T42 -197Q69 -195 83 -187T104 -160T110 -106V316Q110 342 106 357T85 381T36 390Q36 402 38 413T45 433Q83 435 126 445T192 467Q202 463 209 453T216 420Q216 400 210 380T193 329L216 309V-87Q216
-130 225 -153T254 -185T308 -197Q311 -206 312 -218T314 -245Q298 -244 276 -244T229 -243T179 -242Q141 -242 100 -242T36 -245ZM296 -9Q269 -9 249 -5T203 8V89Q222 68 244 55T300 41Q320 41 343 49T389 77T425 135T439 233Q439 282 426 319T388 378T332 399Q304
399 277 381T233 323T216 214L184 319Q198 353 208 371T227 398Q236 413 255 429T302 456T362 467Q421 467 463 445T528 375T552 256Q552 180 520 120T431 26T296 -9Z" />
<glyph unicode="q" horiz-adv-x="562" d="M290 467Q361 467 414 449T500 399L374 382Q364 395 341 406T294 417Q232 417 192 369T152 226Q152 166 169 130T212 79T267 64Q290 64 315 80T357 133T374 234L394 131Q388 112 378 92T358 59Q338 34 301 17T224 -1Q174
-1 132 23T64 94T38 212Q38 282 70 340T158 432T290 467ZM290 -197Q324 -195 342 -187T367 -159T374 -103V14Q374 40 378 66T392 129L374 134V399H500Q494 387 490 372T483 335T480 281V-103Q480 -139 485 -159T506 -186T548 -197Q551 -207 552 -218T553 -245Q532
-243 493 -243T420 -242Q396 -242 371 -242T324 -243T285 -245Q285 -230 286 -218T290 -197Z" />
<glyph unicode="r" horiz-adv-x="436" d="M216 155Q216 112 225 89T254 57T308 45Q311 36 312 24T314 -3Q298 -2 276 -2T229 -1T179 0Q141 0 100 0T36 -3Q36 13 37 25T42 45Q69 47 83 55T104 82T110 136V227H216V155ZM216 293V212H110V323L216 420Q216 389 210
362T198 306L216 293ZM194 300Q204 327 210 346T224 378Q246 413 276 436T347 459Q385 459 416 435Q414 418 412 396T410 351T409 309Q398 305 380 302T344 299Q342 344 330 359T297 375Q281 375 262 356T229 306T216 238L194 300ZM110 212V316Q110 342 106 357T85
381T36 390Q36 402 38 413T45 433Q83 435 126 445T192 467Q202 463 209 453T216 420L110 212Z" />
<glyph unicode="s" horiz-adv-x="438" d="M365 433Q364 408 364 381T368 328Q357 322 342 319T310 315Q308 342 295 366T258 405T203 420Q174 420 157 406T140 369Q140 353 147 341T179 314T256 278Q311 258 342 238T386 193T400 132Q400 90 376 58T308 9T209
-9Q148 -9 112 0T39 27Q42 44 42 67T43 112T41 151Q50 158 67 161T100 164Q108 103 137 73T216 43Q253 43 274 59T296 103Q296 120 288 133T257 158T191 188Q139 209 107 228T59 273T44 341Q44 373 60 397T101 436T157 459T216 467Q264 467 299 459T365 433Z" />
<glyph unicode="t" horiz-adv-x="358" d="M213 -9Q151 -9 121 23T90 128V386Q75 391 59 394T18 399Q18 413 20 424T27 448H90V577Q114 582 137 594T177 620Q188 616 192 607T196 565V448H324Q324 436 322 423T315 398Q279 398 250 394T196 385V148Q196 113 202
92T221 60T252 50Q272 50 287 55T317 72Q330 56 332 34Q315 16 281 4T213 -9Z" />
<glyph unicode="u" horiz-adv-x="578" d="M227 -4Q158 -4 120 35T81 175V316Q81 354 71 371T16 390Q16 402 17 412T24 433Q61 435 100 445T163 467Q173 463 180 453T187 420V198Q187 131 204 97T264 63Q311 63 343 104T375 231V321Q375 359 363 376T301 395Q301
407 302 417T309 438Q353 440 393 448T457 467Q467 463 474 453T481 420V133L389 96Q384 82 375 69T354 45Q329 21 299 9T227 -4ZM411 -9Q399 -4 392 6T384 49Q384 61 386 81T394 134L481 145Q481 120 485 104T502 81T542 74Q542 62 541 48T535 22Q507 21 472 13T411
-9Z" />
<glyph unicode="v" horiz-adv-x="537" d="M243 -9Q233 13 217 51T181 135T141 224T106 301T83 350Q70 376 61 388T44 406T21 413Q17 426 16 436T14 461Q36 460 65 459T127 458Q150 458 174 458T219 459T257 461Q257 449 255 437T250 414Q202 410 194 398T204 346Q212
329 224 300T251 235T281 161T308 91H292Q317 156 337 206T377 303Q401 363 391 386T344 413Q339 424 336 436T333 461Q353 460 378 459T427 458Q452 458 478 459T522 461Q522 447 520 435T513 413Q497 409 485 399T462 369T435 311L299 1Q288 -4 273 -7T243 -9Z"
/>
<glyph unicode="w" horiz-adv-x="778" d="M211 -9Q195 38 179 85T145 179T111 269T78 353Q67 381 55 393T21 412Q17 422 16 435T14 460Q37 459 61 459T120 458Q154 458 183 459T239 461Q239 449 238 435T233 412Q206 409 196 403T185 384T193 350Q214 295 236
230T277 104L258 103L397 458Q406 460 419 461T443 462Q477 384 515 289T590 101L570 100L632 292Q646 337 645 361T630 397T593 412Q588 424 586 436T583 461Q603 460 626 459T673 458Q701 458 723 459T763 461Q763 448 762 436T755 412Q739 408 729 398T709 364T683
295L582 0Q575 -3 566 -5T546 -8T526 -9Q502 51 477 111T427 230T381 343L415 363L266 0Q261 -3 253 -5T234 -8T211 -9Z" />
<glyph unicode="x" horiz-adv-x="534" d="M258 204L208 131Q177 85 181 66T212 45Q215 37 216 24T218 -2Q192 0 161 0T114 0Q101 0 80 0T29 -2Q29 11 30 23T36 45Q54 46 69 53T102 80T147 137L219 239L258 204ZM295 109Q283 130 269 151T238 195L220 214Q198 248
176 279T136 334Q111 368 96 384T70 407T43 414Q39 424 37 436T35 460Q59 459 88 459T149 458Q180 458 212 458T272 460Q272 449 270 436T266 414Q233 413 229 399T254 342Q263 329 275 312T303 273L320 258Q344 225 369 191T413 129Q435 97 449 79T474 54T500
46Q504 35 505 24T506 -2Q476 0 453 0T401 0Q386 0 370 0T336 0T301 0T270 -2Q270 13 270 24T274 45Q306 47 312 60T295 109ZM279 259L333 342Q358 381 357 397T324 414Q320 424 319 436T317 460Q338 459 358 459T408 458Q438 458 457 458T493 460Q493 448 491
436T486 414Q471 413 460 408T435 389T402 347L315 223L279 259Z" />
<glyph unicode="y" horiz-adv-x="547" d="M383 298Q408 359 396 381T342 412Q338 423 336 435T334 460Q357 459 381 459T433 458Q461 458 486 458T533 460Q533 449 532 437T526 412Q508 408 496 399T473 369T447 313L300 -37Q272 -105 249 -147T206 -211T166 -241T123
-249Q92 -249 73 -240T42 -221Q38 -205 39 -182T44 -143Q61 -146 79 -148T117 -151Q146 -151 171 -138T216 -94Q228 -75 255 -16T314 124L383 298ZM262 -27Q237 27 210 87T158 202T114 298Q93 344 78 367T50 399T21 412Q18 422 16 434T14 460Q43 459 74 459T133
458Q162 458 201 458T272 460Q272 446 271 434T265 412Q213 403 206 382T225 307Q239 278 256 239T289 161T318 89L262 -27Z" />
<glyph unicode="z" horiz-adv-x="504" d="M66 -2Q59 6 54 18T49 43Q71 73 100 113T161 199T223 287T278 367T317 425L340 409H223Q189 409 169 401T138 371T118 305Q103 304 87 306T57 314Q61 347 63 385T65 461Q86 460 117 460T184 459T253 458Q286 458 320 458T383
459T433 461Q440 453 443 440T446 415Q420 377 385 327T311 222T237 119T174 35L162 50H299Q335 50 354 58T382 90T395 161Q409 162 423 161T455 155Q455 137 456 112T458 62T463 18Q453 -2 428 -2Q404 -1 378 -1T319 -1T246 0Q180 0 137 0T66 -2Z" />
<glyph unicode="{" horiz-adv-x="342" d="M297 -273Q243 -258 209 -236T157 -186T132 -127T125 -64Q125 -26 129 11T133 82Q133 131 115 169T35 226Q35 235 35 244T40 262Q98 282 116 317T135 396Q136 432 130 471T124 550Q124 579 131 607T155 660T204 706T288
743Q294 736 296 727T298 709Q247 693 230 661T213 587Q213 542 224 492T236 396Q237 362 227 332T188 280T107 246Q160 234 187 211T226 156T237 90Q237 41 227 -10T217 -108Q217 -151 234 -185T304 -236Q305 -247 305 -256T297 -273Z" />
<glyph unicode="|" horiz-adv-x="176" d="M60 -242V701Q71 708 85 710T116 713Q116 655 116 578T116 413T115 234Q115 145 115 61T116 -98T116 -231Q108 -236 91 -239T60 -242Z" />
<glyph unicode="}" horiz-adv-x="342" d="M45 -273Q39 -265 38 -256T37 -236Q90 -219 107 -185T125 -108Q125 -61 115 -10T105 90Q105 125 116 156T155 210T235 246Q182 258 154 280T116 332T106 396Q107 442 118 492T129 587Q129 628 112 660T43 709Q43 718 46
727T54 743Q106 727 138 706T187 660T211 607T218 550Q218 511 212 472T206 396Q207 352 225 317T302 262Q306 253 306 244T307 226Q246 207 228 169T208 82Q208 48 212 11T217 -64Q217 -96 210 -127T185 -185T133 -235T45 -273Z" />
<glyph unicode="~" horiz-adv-x="550" d="M71 190Q60 196 54 202T45 219Q84 279 118 300T185 322Q211 322 235 313T284 292T331 271T380 262Q403 262 424 273T471 310Q482 309 490 305T505 292Q480 254 456 232T411 202T371 193Q346 193 323 203T276 225T230 248T181
258Q156 258 129 243T71 190Z" />
<glyph unicode="&#xa0;" horiz-adv-x="200" />
<glyph unicode="&#xa1;" horiz-adv-x="411" d="M142 -217Q148 -158 155 -83T167 71T176 224Q188 228 201 229T231 231Q236 138 242 62T255 -83T273 -221Q257 -224 236 -229T194 -242T161 -255Q149 -251 144 -243T142 -217ZM138 402Q138 434 157 450T204 467Q234
467 251 450T268 407Q268 380 249 362T200 343Q171 343 155 362T138 402Z" />
<glyph unicode="&#xa2;" horiz-adv-x="453" d="M421 72Q394 32 353 12T255 -9Q199 -9 150 17T70 96T38 227Q38 287 63 342T136 432T253 467Q302 467 341 456T409 423Q405 394 403 366T401 306Q391 301 375 299T346 297Q341 355 315 385T247 416Q201 416 174 371T146
242Q146 194 162 151T209 80T287 53Q319 53 347 67T396 106Q405 101 411 92T421 72ZM286 -141Q273 -141 256 -138T230 -130V611Q246 611 261 609T286 599L284 434V19L286 -141Z" />
<glyph unicode="&#xa3;" horiz-adv-x="563" d="M481 120Q495 119 506 113T526 96Q500 72 475 43T437 -9Q417 -9 401 -6T370 3Q346 14 328 25T288 46T229 55Q190 55 156 40T88 -8Q76 -2 67 7T52 27Q109 79 139 126T169 238Q169 276 159 304T136 360T113 419T103
496Q103 546 126 589T193 658T303 685Q337 685 365 682T417 670T463 650Q460 619 460 587T463 516Q447 508 431 507T398 506Q393 574 367 603T290 633Q255 633 231 605T206 532Q206 496 216 471T240 422T264 374T275 312Q275 283 268 254T245 195T207 136T156 76L151
80Q183 105 208 119T257 140T303 147Q337 147 362 136T406 113T443 101Q452 101 461 105T481 120ZM237 290Q196 290 164 290T106 289T60 288Q60 305 62 316T72 340H389Q389 324 387 313T378 289Q345 290 312 290T237 290Z" />
<glyph unicode="&#xa4;" horiz-adv-x="535" d="M475 77Q469 69 459 63T432 55L359 126L393 157L475 77ZM268 76Q214 76 173 101T108 169T85 258Q85 311 111 350T178 410T268 432Q317 432 357 410T421 348T446 258Q446 211 429 177T385 120T327 87T268 76ZM367
385L424 443Q438 440 447 435T465 420L399 354L367 385ZM60 418Q68 426 78 432T103 439L161 382L129 349L60 418ZM259 388Q208 388 176 354T144 265Q144 230 161 198T207 144T273 122Q324 122 355 157T387 250Q387 284 371 315T325 367T259 388ZM175 121L111 56Q94
57 85 61T67 75L139 151L175 121Z" />
<glyph unicode="&#xa5;" horiz-adv-x="631" d="M374 264V168Q374 116 379 92T402 59T454 45Q458 35 459 23T461 -3Q427 -2 390 -1T321 0Q296 0 268 0T215 -1T173 -2Q173 11 174 23T179 45Q217 49 235 56T258 87T264 158V264H374ZM358 225H280L102 572Q86 604 71
617T29 631Q25 643 24 654T23 678Q38 678 57 678T97 677T137 676Q156 676 182 676T234 676T276 678Q276 665 275 655T271 633Q233 629 228 611T244 551Q269 502 298 439T357 309H350Q380 378 407 436T457 539Q482 589 475 607T429 631Q426 643 424 654T422 678Q441
677 469 677T521 676Q544 676 567 676T608 678Q608 666 607 656T603 633Q578 627 555 603T507 529L358 225ZM273 328H109Q109 342 112 355T119 380H252L273 328ZM277 201H102Q102 214 104 228T113 253H277V201ZM361 253H536Q536 238 533 226T524 201H361V253ZM394
380H538Q538 363 535 352T527 328H373L394 380Z" />
<glyph unicode="&#xa6;" horiz-adv-x="176" d="M60 -242V163Q73 170 86 172T116 175Q115 124 115 73T114 -28Q114 -78 114 -129T116 -230Q108 -235 90 -238T60 -242ZM60 325V701Q72 708 86 710T116 713Q115 666 115 620T114 525Q114 479 114 432T116 337Q107 332
90 329T60 325Z" />
<glyph unicode="&#xa7;" horiz-adv-x="541" d="M268 120Q226 141 201 159T161 195T142 230T136 268Q136 295 147 317T183 355T247 374L193 413Q162 404 137 388T94 349T66 299T56 238Q56 189 71 152T121 83T214 21Q274 -9 302 -30T340 -70T350 -116Q350 -151 328
-171T266 -191Q242 -191 221 -181T186 -140T165 -53Q152 -53 137 -55T110 -60Q113 -92 113 -126T111 -195Q133 -212 166 -227T260 -242Q319 -242 355 -220T410 -162T428 -84Q428 -41 415 -7T366 58T268 120ZM321 62Q357 71 386 87T436 128T469 182T480 247Q480
300 463 336T406 402T299 462Q245 487 219 506T185 544T177 586Q177 616 199 639T261 663Q291 663 312 640T346 546Q362 546 375 548T402 555Q399 584 399 616T401 675Q380 690 347 702T263 714Q214 714 177 692T120 636T99 560Q99 524 110 489T153 423T247 361Q295
338 325 319T371 282T392 247T398 210Q398 188 387 165T347 126T266 105L321 62Z" />
<glyph unicode="&#xa8;" horiz-adv-x="300" d="M510 528Q477 528 461 545T444 590Q444 616 461 631T506 646Q534 646 552 631T570 590Q570 567 557 548T510 528ZM304 528Q276 528 259 544T241 583Q241 607 255 626T302 646Q335 646 350 629T365 585Q365 561 348
545T304 528Z" />
<glyph unicode="&#xa9;" horiz-adv-x="804" d="M402 572Q473 572 535 546T644 474T717 365T744 230Q744 159 718 97T644 -12T535 -85T402 -112Q330 -112 268 -86T159 -14T86 95T60 230Q60 302 86 364T158 473T267 546T402 572ZM412 453Q458 453 489 443T555 411Q551
384 550 357T548 302Q540 297 526 296T501 294Q499 322 489 347T457 388T395 404Q360 404 339 383T309 324T300 241Q300 195 312 154T351 87T423 61Q451 61 481 71T538 110Q545 105 549 98T557 81Q531 45 492 25T394 5Q345 5 300 30T227 104T198 228Q198 296 225
346T300 425T412 453ZM402 525Q340 525 286 503T192 440T130 346T107 230Q107 147 146 80T252 -25T402 -64Q464 -64 517 -42T611 20T674 114T697 230Q697 292 675 345T612 440T518 503T402 525Z" />
<glyph unicode="&#xaa;" horiz-adv-x="436" d="M281 359Q270 362 263 370T256 396Q256 407 257 415T261 432Q257 421 250 409T230 386Q217 375 198 368T152 360Q47 360 47 445Q47 488 74 513T148 553T250 576Q250 615 247 629T234 655Q218 676 190 676Q171 676
160 664T142 632T134 590Q119 590 103 591T76 598Q78 618 77 640T71 680Q101 697 137 707T213 717Q252 717 275 709T315 684Q333 665 340 640T347 561V485Q347 453 354 441T392 428Q393 417 392 406T386 384Q362 383 334 377T281 359ZM183 418Q205 418 227 441T250
516V537Q223 533 200 526T161 505T146 463Q146 439 157 429T183 418Z" />
<glyph unicode="&#xab;" horiz-adv-x="509" d="M214 417Q228 416 238 412T256 400Q239 378 220 354T183 306T153 265Q175 225 199 188T249 116Q246 105 239 95T221 79Q177 124 139 161T60 236Q60 247 62 257T68 277Q109 313 144 347T214 417ZM374 412Q386 411
396 407T415 395Q392 362 371 329T330 264Q349 228 370 190T412 118Q408 108 400 99T380 84Q341 130 312 164T245 235Q245 248 247 258T252 276Q287 313 315 345T374 412Z" />
<glyph unicode="&#xac;" horiz-adv-x="550" d="M498 351L488 296Q377 296 273 296T52 294Q52 306 55 324T62 351H498ZM443 339L498 351V119Q486 111 473 108T443 104V339Z" />
<glyph unicode="&#xad;" horiz-adv-x="419" d="M359 296Q359 279 356 261T346 226Q318 226 281 226T203 225T126 224T60 221Q60 239 64 260T76 296H359Z" />
<glyph unicode="&#xae;" horiz-adv-x="507" d="M254 392Q200 392 156 417T86 486T60 585Q60 640 86 683T155 753T254 779Q309 779 352 753T421 684T447 585Q447 530 421 486T352 417T254 392ZM254 431Q299 431 333 451T387 507T407 585Q407 629 387 664T333 719T254
739Q210 739 175 719T120 664T99 585Q99 542 119 507T175 452T254 431ZM298 484Q290 503 279 522T254 557H231V485Q210 481 190 485V682Q208 687 227 689T258 691Q297 691 314 677T332 632Q332 606 317 584T263 561L284 568Q301 552 315 532T340 489Q322 481 298
484ZM250 583Q269 583 279 592T290 623Q290 646 280 655T254 664Q248 664 243 663T231 660V585Q236 584 241 584T250 583Z" />
<glyph unicode="&#xaf;" horiz-adv-x="300" d="M222 582Q222 589 224 605T231 631H589Q589 621 587 609T580 586Q559 586 506 586T379 585T222 582Z" />
<glyph unicode="&#xb0;" horiz-adv-x="392" d="M194 700Q261 700 296 665T332 576Q332 522 295 485T194 448Q131 448 96 484T60 575Q60 611 77 639T124 683T194 700ZM188 659Q166 659 151 640T136 594Q136 548 158 520T208 491Q228 491 242 509T256 565Q256 609
238 634T188 659Z" />
<glyph unicode="&#xb1;" horiz-adv-x="550" d="M54 41Q54 53 56 70T63 95H496Q496 78 495 66T486 42Q463 42 440 42T393 43T343 43T285 43Q222 43 170 43T54 41ZM90 276Q90 288 93 305T100 330H460Q460 314 459 302T451 277Q418 278 395 278T346 277T278 277Q246
277 201 277T90 276ZM247 128Q247 158 247 180T248 221T249 261T249 307Q249 332 249 354T249 404T248 478Q260 485 273 486T303 488V138Q299 135 289 133T267 129T247 128Z" />
<glyph unicode="&#xb2;" horiz-adv-x="373" d="M49 408Q44 417 42 426T39 444Q69 473 96 497T142 537Q179 571 195 598T212 661Q212 688 198 704T164 721Q141 721 131 700T113 623Q101 623 86 624T59 630Q62 654 62 683T58 736Q90 753 119 760T188 767Q215 767
242 759T286 730T303 676Q303 637 288 612T241 559Q222 543 200 524T154 484H226Q252 484 266 496T281 537Q293 537 304 536T324 533Q324 507 325 481T331 428Q327 420 320 414T297 408Q277 408 242 409T168 410Q131 410 100 409T49 408Z" />
<glyph unicode="&#xb3;" horiz-adv-x="375" d="M138 288Q94 288 69 300T35 319Q39 330 45 338T58 352Q66 346 85 340T133 333Q157 333 181 345T222 380T238 438Q238 474 217 499T154 525Q147 525 142 525T132 522Q126 527 121 534T113 552Q152 601 177 632T222
690H163Q132 690 120 679T93 633Q83 633 72 636T53 643Q58 674 59 704T61 759Q78 758 110 758T187 758Q231 758 260 758T302 759Q307 750 308 742T310 722Q286 695 256 658T194 577Q229 580 260 566T310 521T330 447Q330 405 308 369T242 310T138 288Z" />
<glyph unicode="&#xb4;" horiz-adv-x="300" d="M106 531Q95 530 83 532T61 539Q85 588 100 629T125 709Q147 716 167 719T204 721Q214 720 223 718T238 714Q204 675 170 626T106 531Z" />
<glyph unicode="&#xb5;" horiz-adv-x="603" d="M184 107V-40Q184 -84 188 -115T199 -171Q171 -188 154 -203T114 -243Q106 -240 100 -233T91 -218Q94 -203 96 -186T99 -145T101 -80V183L184 107ZM430 -9Q420 -4 412 7T403 44Q403 57 404 70T409 101T418 145H500Q500
120 504 104T522 80T567 71Q567 59 566 47T560 23Q541 22 517 18T469 7T430 -9ZM395 321Q395 359 382 376T320 395Q320 407 321 417T328 438Q373 440 413 448T476 467Q487 463 493 453T500 420V133L409 96Q398 68 374 45Q348 20 318 8T250 -4Q179 -4 140 34T101
175V316Q101 354 91 371T35 390Q35 402 37 412T43 433Q81 435 120 445T182 467Q193 463 199 453T206 420V197Q206 147 214 117T241 75T290 62Q315 62 339 79T379 134T395 231V321Z" />
<glyph unicode="&#xb6;" horiz-adv-x="554" d="M406 -249V647L421 628Q391 633 366 634T311 636Q249 636 213 623T160 580T143 495Q143 447 162 416T213 371T279 356H309L310 317Q296 313 285 312T261 311Q191 311 141 328T63 384T36 491Q36 545 62 587T145 654T295
679Q341 679 376 678T447 676Q465 676 488 676T534 678Q534 666 533 655T527 631Q498 630 484 621T465 592T460 541V-238Q447 -245 434 -247T406 -249ZM293 -249V652L348 656V-238Q334 -245 321 -247T293 -249Z" />
<glyph unicode="&#xb7;" horiz-adv-x="250" d="M124 197Q94 197 77 214T60 257Q60 284 79 302T128 321Q157 321 173 302T190 262Q190 230 171 214T124 197Z" />
<glyph unicode="&#xb8;" horiz-adv-x="300" d="M87 -242Q83 -234 81 -225T79 -207Q110 -207 134 -193T158 -154Q158 -130 140 -116T94 -102Q87 -96 82 -86T76 -63L129 16H182L135 -49Q175 -56 198 -80T222 -141Q222 -174 201 -196T149 -230T87 -242Z" />
<glyph unicode="&#xb9;" horiz-adv-x="315" d="M53 407Q53 420 54 431T58 453Q88 454 100 468T112 515V651Q112 683 100 698T58 714Q55 725 54 737T53 761Q64 760 84 760T125 759T159 758Q172 758 191 758T229 759T262 761Q262 749 261 737T257 714Q227 713 215
698T203 651V515Q203 482 215 468T257 453Q262 433 262 407Q247 408 229 408T192 409T159 410Q144 410 126 410T88 409T53 407Z" />
<glyph unicode="&#xba;" horiz-adv-x="423" d="M139 555Q139 508 148 474T175 420T220 401Q252 401 269 435T287 524Q287 596 263 635T204 674Q171 674 155 641T139 555ZM38 534Q38 591 61 631T124 694T213 717Q298 717 341 668T385 540Q385 457 338 407T210 357Q128
357 83 405T38 534Z" />
<glyph unicode="&#xbb;" horiz-adv-x="516" d="M139 86Q128 92 120 102T105 120Q125 151 144 182T182 247Q166 278 141 319T94 396Q102 403 115 407T140 413Q160 391 180 370T220 328T264 286Q268 276 269 267T270 246Q235 206 203 167T139 86ZM300 82Q290 87
283 96T271 116Q296 148 319 180T363 247Q350 269 333 295T296 350T258 402Q267 409 279 413T302 417Q326 394 349 373T397 330T448 287Q453 278 454 268T456 247Q416 207 377 165T300 82Z" />
<glyph unicode="&#xbc;" horiz-adv-x="818" d="M217 730Q231 726 236 718T241 688V402Q241 368 246 352T268 331T315 323Q318 313 319 302T321 279Q300 280 277 280T231 280T185 281Q154 281 118 281T52 279Q52 290 53 301T56 323Q88 325 106 330T133 352T141
402V585Q141 613 135 626T108 645T40 650Q40 662 41 673T46 696Q98 699 139 707T217 730ZM208 -8Q193 -4 180 3T161 18L673 714Q686 712 699 705T720 688L208 -8ZM547 -3Q547 9 548 24T552 46Q587 48 602 59T617 110V375L647 376L496 169L487 193H752Q765 193 772
191T785 181Q778 169 774 153T767 118Q682 118 623 117T522 115T450 110Q430 133 430 166Q465 209 502 255T576 350T647 449Q657 450 667 450T688 448T708 443V110Q708 81 713 68T729 51T758 46Q760 38 761 24T763 -3Q751 -2 731 -2T691 -1T655 0Q639 0 618 0T578
-1T547 -3Z" />
<glyph unicode="&#xbd;" horiz-adv-x="945" d="M217 730Q231 726 236 718T241 688V402Q241 368 246 352T268 331T315 323Q318 313 319 302T321 279Q300 280 277 280T231 280T185 281Q154 281 118 281T52 279Q52 290 53 301T56 323Q88 325 106 330T133 352T141
402V585Q141 613 135 626T108 645T40 650Q40 662 41 673T46 696Q98 699 139 707T217 730ZM208 -8Q193 -4 180 3T161 18L673 714Q686 712 699 705T720 688L208 -8ZM593 -2Q578 15 578 47Q612 88 635 115T679 164T723 213Q751 243 764 269T778 325Q778 359 763 376T718
394Q698 394 685 384T664 352T651 290Q634 289 619 291T590 298Q594 326 594 356T591 419Q624 435 660 442T737 449Q788 449 821 438T871 405T888 346Q888 305 866 272T797 197Q769 172 750 154T713 118T674 73L675 96H777Q805 96 819 100T841 118T852 158Q865
159 881 158T908 151Q906 108 907 77T915 22Q910 10 899 4T873 -2Q868 -2 852 -2T809 -1T751 0Q717 0 683 0T593 -2Z" />
<glyph unicode="&#xbe;" horiz-adv-x="822" d="M148 274Q100 274 72 284T29 306Q30 317 34 327T46 346Q59 337 80 331T130 324Q178 324 208 345T239 405Q239 438 216 456T157 475Q143 475 131 471Q125 479 120 490T115 512Q149 550 182 587T237 655L263 637H155Q124
637 111 628T84 585Q72 585 60 587T38 597Q44 627 45 660T47 727Q68 726 106 725T183 724Q234 724 268 725T319 727Q326 719 329 707T332 683Q301 648 264 604T194 522L177 539Q221 544 260 534T322 496T346 423Q346 356 293 315T148 274ZM212 -8Q197 -4 184 3T165
18L677 714Q690 712 703 705T724 688L212 -8ZM551 -3Q551 9 552 24T556 46Q591 48 606 59T621 110V375L651 376L500 169L491 193H756Q769 193 776 191T789 181Q782 169 778 153T771 118Q686 118 627 117T526 115T454 110Q434 133 434 166Q469 209 506 255T580 350T651
449Q661 450 671 450T692 448T712 443V110Q712 81 717 68T733 51T762 46Q764 38 765 24T767 -3Q755 -2 735 -2T695 -1T659 0Q643 0 622 0T582 -1T551 -3Z" />
<glyph unicode="&#xbf;" horiz-adv-x="537" d="M257 -256Q182 -256 137 -223T92 -129Q92 -90 106 -59T143 -2T187 50T224 107T239 180Q239 194 236 214T228 251Q238 256 249 258T272 260Q290 249 305 215T320 137Q320 98 308 70T277 19T240 -23T209 -66T196 -119Q196
-160 219 -185T272 -210Q295 -210 311 -197T338 -156T355 -80Q372 -80 389 -83T419 -92Q416 -127 416 -154T419 -213Q392 -229 353 -242T257 -256ZM260 468Q295 468 314 449T334 398Q334 367 312 346T255 325Q222 325 203 347T184 392Q184 429 206 448T260 468Z"
/>
<glyph unicode="&#xc0;" horiz-adv-x="706" d="M363 682L598 145Q616 106 627 85T650 56T677 45Q681 32 682 22T683 -3Q672 -2 650 -2T603 -1T563 0Q551 0 534 0T498 -1T464 -2T440 -3Q440 11 441 23T447 45Q487 51 494 65T482 123L354 423Q338 459 327 487T303
554H313Q301 515 291 485T269 424L163 148Q143 95 151 72T199 45Q203 35 204 23T206 -3Q195 -2 178 -2T143 -1T108 0Q83 0 60 -1T23 -3Q23 9 24 21T30 45Q48 48 60 58T83 90T110 152L318 678Q329 680 339 681T363 682ZM442 260L453 212Q386 212 311 211T171 206L187
260H442ZM329 732Q299 771 273 801T219 859Q238 869 265 872T317 874Q330 843 345 808T380 739Q369 735 357 734T329 732Z" />
<glyph unicode="&#xc1;" horiz-adv-x="706" d="M363 682L598 145Q616 106 627 85T650 56T677 45Q681 32 682 22T683 -3Q672 -2 650 -2T603 -1T563 0Q551 0 534 0T498 -1T464 -2T440 -3Q440 11 441 23T447 45Q487 51 494 65T482 123L354 423Q338 459 327 487T303
554H313Q301 515 291 485T269 424L163 148Q143 95 151 72T199 45Q203 35 204 23T206 -3Q195 -2 178 -2T143 -1T108 0Q83 0 60 -1T23 -3Q23 9 24 21T30 45Q48 48 60 58T83 90T110 152L318 678Q329 680 339 681T363 682ZM442 260L453 212Q386 212 311 211T171 206L187
260H442ZM351 732Q335 732 324 733T301 739Q318 773 333 807T358 871Q371 874 385 876T413 879Q441 879 463 871Q435 838 408 805T351 732Z" />
<glyph unicode="&#xc2;" horiz-adv-x="706" d="M363 682L598 145Q616 106 627 85T650 56T677 45Q681 32 682 22T683 -3Q672 -2 650 -2T603 -1T563 0Q551 0 534 0T498 -1T464 -2T440 -3Q440 11 441 23T447 45Q487 51 494 65T482 123L354 423Q338 459 327 487T303
554H313Q301 515 291 485T269 424L163 148Q143 95 151 72T199 45Q203 35 204 23T206 -3Q195 -2 178 -2T143 -1T108 0Q83 0 60 -1T23 -3Q23 9 24 21T30 45Q48 48 60 58T83 90T110 152L318 678Q329 680 339 681T363 682ZM442 260L453 212Q386 212 311 211T171 206L187
260H442ZM205 728Q194 733 189 744T181 765Q216 787 254 816T323 875Q333 878 345 879T366 880Q391 852 424 821T498 758Q492 748 481 741T455 730Q428 747 396 765T334 797Q320 791 295 778T245 752T205 728Z" />
<glyph unicode="&#xc3;" horiz-adv-x="706" d="M363 682L598 145Q616 106 627 85T650 56T677 45Q681 32 682 22T683 -3Q672 -2 650 -2T603 -1T563 0Q551 0 534 0T498 -1T464 -2T440 -3Q440 11 441 23T447 45Q487 51 494 65T482 123L354 423Q338 459 327 487T303
554H313Q301 515 291 485T269 424L163 148Q143 95 151 72T199 45Q203 35 204 23T206 -3Q195 -2 178 -2T143 -1T108 0Q83 0 60 -1T23 -3Q23 9 24 21T30 45Q48 48 60 58T83 90T110 152L318 678Q329 680 339 681T363 682ZM442 260L453 212Q386 212 311 211T171 206L187
260H442ZM397 746Q377 746 360 752T327 765T295 777T261 783Q241 783 224 775T189 749Q180 756 176 765T172 787Q201 825 231 839T288 853Q316 853 338 844T380 827T421 818Q437 818 451 825T478 846Q486 844 495 841T510 829Q488 786 459 766T397 746Z" />
<glyph unicode="&#xc4;" horiz-adv-x="706" d="M363 682L598 145Q616 106 627 85T650 56T677 45Q681 32 682 22T683 -3Q672 -2 650 -2T603 -1T563 0Q551 0 534 0T498 -1T464 -2T440 -3Q440 11 441 23T447 45Q487 51 494 65T482 123L354 423Q338 459 327 487T303
554H313Q301 515 291 485T269 424L163 148Q143 95 151 72T199 45Q203 35 204 23T206 -3Q195 -2 178 -2T143 -1T108 0Q83 0 60 -1T23 -3Q23 9 24 21T30 45Q48 48 60 58T83 90T110 152L318 678Q329 680 339 681T363 682ZM442 260L453 212Q386 212 311 211T171 206L187
260H442ZM445 730Q412 730 396 747T379 792Q379 818 396 833T441 848Q469 848 487 833T505 792Q505 769 492 750T445 730ZM239 730Q211 730 194 746T176 785Q176 809 190 828T237 848Q270 848 285 831T300 787Q300 763 283 747T239 730Z" />
<glyph unicode="&#xc5;" horiz-adv-x="706" d="M363 682L598 145Q616 106 627 85T650 56T677 45Q681 32 682 22T683 -3Q672 -2 650 -2T603 -1T563 0Q551 0 534 0T498 -1T464 -2T440 -3Q440 11 441 23T447 45Q487 51 494 65T482 123L354 423Q338 459 327 487T303
554H313Q301 515 291 485T269 424L163 148Q143 95 151 72T199 45Q203 35 204 23T206 -3Q195 -2 178 -2T143 -1T108 0Q83 0 60 -1T23 -3Q23 9 24 21T30 45Q48 48 60 58T83 90T110 152L318 678Q329 680 339 681T363 682ZM442 260L453 212Q386 212 311 211T171 206L187
260H442ZM336 721Q298 721 269 741T240 798Q240 834 270 856T344 879Q382 879 411 861T441 804Q441 769 411 745T336 721ZM345 755Q360 755 372 766T384 796Q384 813 373 831T337 849Q320 849 310 837T299 802Q299 782 311 769T345 755Z" />
<glyph unicode="&#xc6;" horiz-adv-x="925" d="M288 343H616Q654 343 675 351T704 378T712 422Q728 426 740 428T767 430Q767 419 767 400T766 360T765 318Q765 299 765 277T766 234T767 203Q753 203 740 203T715 208Q713 236 706 255T676 285T609 296Q519 296
454 296T342 293T263 289L288 343ZM461 540Q461 563 461 582T464 623T472 676H571V146Q571 104 579 83T604 56T642 50L641 0Q605 0 570 0T503 0T441 -1T389 -2Q389 11 390 23T396 45Q423 49 436 56T455 85T461 146V540ZM535 676Q634 676 710 676T832 678Q835 642
840 596T853 518Q848 514 839 511T819 506T800 505Q797 537 783 565T736 612T640 631H531L535 676ZM485 676Q474 647 467 629T450 593T424 546Q396 498 364 442T300 330T243 229T202 157Q181 116 177 93T185 59T221 44Q226 34 227 23T229 -3Q206 -1 177 -1T122
0Q106 0 87 0T50 -1T23 -3Q23 9 24 22T30 45Q47 47 62 55T94 85T137 152L367 550Q390 590 381 607T326 630Q322 639 321 652T319 678Q345 678 376 678T436 677T485 676ZM563 50H667Q725 50 755 64T803 106T835 177Q852 173 865 167T888 152Q877 118 870 77T857
-2Q827 -2 790 -2T712 -1T633 0T563 0V50Z" />
<glyph unicode="&#xc7;" horiz-adv-x="650" d="M357 -9Q262 -9 190 35T77 159T35 343Q35 429 63 493T138 600T246 664T371 685Q432 685 485 672T592 633Q585 598 583 559T581 478Q568 473 553 471T521 468Q519 536 501 573T452 624T378 638Q319 638 277 616T208
556T169 470T156 370Q156 282 184 211T268 99T402 57Q448 57 496 72T585 113Q592 108 597 98T605 79Q549 35 492 13T357 -9ZM298 -242Q294 -234 292 -225T290 -207Q321 -207 345 -193T369 -154Q369 -130 351 -116T305 -102Q298 -96 293 -86T287 -63L340 16H393L346
-49Q386 -56 409 -80T433 -141Q433 -174 412 -196T360 -230T298 -242Z" />
<glyph unicode="&#xc8;" horiz-adv-x="608" d="M52 679Q68 678 92 678T144 677T196 676T236 676V146Q236 108 243 87T270 58T325 50L319 0Q291 0 254 0T177 0T104 -1T52 -3Q52 12 53 24T57 45Q84 47 99 55T120 85T126 146V540Q126 576 120 594T99 621T57 631Q54
640 53 653T52 679ZM518 177Q536 173 548 167T571 152Q560 118 553 77T540 -2Q519 -1 485 -1T408 -1T319 0L325 50H333Q399 50 433 64T486 107T518 177ZM450 451Q449 426 449 398T448 341Q448 312 448 281T450 224Q435 224 423 225T398 230Q394 280 372 298T290
316H220V364H290Q350 364 372 380T396 443Q410 448 423 449T450 451ZM515 679Q517 657 520 627T527 569T536 518Q527 511 514 508T483 505Q480 537 466 565T419 612T323 631H212L235 676Q313 676 369 676T461 678T515 679ZM281 732Q251 771 225 801T171 859Q190
869 217 872T269 874Q282 843 297 808T332 739Q321 735 309 734T281 732Z" />
<glyph unicode="&#xc9;" horiz-adv-x="608" d="M52 679Q68 678 92 678T144 677T196 676T236 676V146Q236 108 243 87T270 58T325 50L319 0Q291 0 254 0T177 0T104 -1T52 -3Q52 12 53 24T57 45Q84 47 99 55T120 85T126 146V540Q126 576 120 594T99 621T57 631Q54
640 53 653T52 679ZM518 177Q536 173 548 167T571 152Q560 118 553 77T540 -2Q519 -1 485 -1T408 -1T319 0L325 50H333Q399 50 433 64T486 107T518 177ZM450 451Q449 426 449 398T448 341Q448 312 448 281T450 224Q435 224 423 225T398 230Q394 280 372 298T290
316H220V364H290Q350 364 372 380T396 443Q410 448 423 449T450 451ZM515 679Q517 657 520 627T527 569T536 518Q527 511 514 508T483 505Q480 537 466 565T419 612T323 631H212L235 676Q313 676 369 676T461 678T515 679ZM303 732Q287 732 276 733T253 739Q270
773 285 807T310 871Q323 874 337 876T365 879Q393 879 415 871Q387 838 360 805T303 732Z" />
<glyph unicode="&#xca;" horiz-adv-x="608" d="M52 679Q68 678 92 678T144 677T196 676T236 676V146Q236 108 243 87T270 58T325 50L319 0Q291 0 254 0T177 0T104 -1T52 -3Q52 12 53 24T57 45Q84 47 99 55T120 85T126 146V540Q126 576 120 594T99 621T57 631Q54
640 53 653T52 679ZM518 177Q536 173 548 167T571 152Q560 118 553 77T540 -2Q519 -1 485 -1T408 -1T319 0L325 50H333Q399 50 433 64T486 107T518 177ZM450 451Q449 426 449 398T448 341Q448 312 448 281T450 224Q435 224 423 225T398 230Q394 280 372 298T290
316H220V364H290Q350 364 372 380T396 443Q410 448 423 449T450 451ZM515 679Q517 657 520 627T527 569T536 518Q527 511 514 508T483 505Q480 537 466 565T419 612T323 631H212L235 676Q313 676 369 676T461 678T515 679ZM157 728Q146 733 141 744T133 765Q168
787 206 816T275 875Q285 878 297 879T318 880Q343 852 376 821T450 758Q444 748 433 741T407 730Q380 747 348 765T286 797Q272 791 247 778T197 752T157 728Z" />
<glyph unicode="&#xcb;" horiz-adv-x="608" d="M52 679Q68 678 92 678T144 677T196 676T236 676V146Q236 108 243 87T270 58T325 50L319 0Q291 0 254 0T177 0T104 -1T52 -3Q52 12 53 24T57 45Q84 47 99 55T120 85T126 146V540Q126 576 120 594T99 621T57 631Q54
640 53 653T52 679ZM518 177Q536 173 548 167T571 152Q560 118 553 77T540 -2Q519 -1 485 -1T408 -1T319 0L325 50H333Q399 50 433 64T486 107T518 177ZM450 451Q449 426 449 398T448 341Q448 312 448 281T450 224Q435 224 423 225T398 230Q394 280 372 298T290
316H220V364H290Q350 364 372 380T396 443Q410 448 423 449T450 451ZM515 679Q517 657 520 627T527 569T536 518Q527 511 514 508T483 505Q480 537 466 565T419 612T323 631H212L235 676Q313 676 369 676T461 678T515 679ZM396 730Q363 730 347 747T330 792Q330
818 347 833T392 848Q420 848 438 833T456 792Q456 769 443 750T396 730ZM190 730Q162 730 145 746T127 785Q127 809 141 828T188 848Q221 848 236 831T251 787Q251 763 234 747T190 730Z" />
<glyph unicode="&#xcc;" horiz-adv-x="362" d="M126 540Q126 576 120 594T100 621T58 631Q54 640 53 652T52 679Q71 678 92 678T137 677T182 676Q204 676 226 676T269 677T310 679Q310 665 309 653T305 631Q279 629 264 621T242 595T236 540V136Q236 101 242 82T263
55T305 45Q308 37 309 25T310 -3Q282 -1 249 -1T184 0Q151 0 115 0T52 -3Q52 12 53 24T58 45Q85 47 99 55T120 82T126 136V540ZM170 732Q140 771 114 801T60 859Q79 869 106 872T158 874Q171 843 186 808T221 739Q210 735 198 734T170 732Z" />
<glyph unicode="&#xcd;" horiz-adv-x="362" d="M126 540Q126 576 120 594T100 621T58 631Q54 640 53 652T52 679Q71 678 92 678T137 677T182 676Q204 676 226 676T269 677T310 679Q310 665 309 653T305 631Q279 629 264 621T242 595T236 540V136Q236 101 242 82T263
55T305 45Q308 37 309 25T310 -3Q282 -1 249 -1T184 0Q151 0 115 0T52 -3Q52 12 53 24T58 45Q85 47 99 55T120 82T126 136V540ZM192 732Q176 732 165 733T142 739Q159 773 174 807T199 871Q212 874 226 876T254 879Q282 879 304 871Q276 838 249 805T192 732Z"
/>
<glyph unicode="&#xce;" horiz-adv-x="362" d="M126 540Q126 576 120 594T100 621T58 631Q54 640 53 652T52 679Q71 678 92 678T137 677T182 676Q204 676 226 676T269 677T310 679Q310 665 309 653T305 631Q279 629 264 621T242 595T236 540V136Q236 101 242 82T263
55T305 45Q308 37 309 25T310 -3Q282 -1 249 -1T184 0Q151 0 115 0T52 -3Q52 12 53 24T58 45Q85 47 99 55T120 82T126 136V540ZM332 710Q320 715 312 724T300 746Q330 773 360 805T419 868Q433 871 443 873T462 875Q486 842 514 808T575 736Q568 727 555 721T528
712Q505 733 479 753T427 789Q400 771 377 751T332 710Z" />
<glyph unicode="&#xcf;" horiz-adv-x="362" d="M126 540Q126 576 120 594T100 621T58 631Q54 640 53 652T52 679Q71 678 92 678T137 677T182 676Q204 676 226 676T269 677T310 679Q310 665 309 653T305 631Q279 629 264 621T242 595T236 540V136Q236 101 242 82T263
55T305 45Q308 37 309 25T310 -3Q282 -1 249 -1T184 0Q151 0 115 0T52 -3Q52 12 53 24T58 45Q85 47 99 55T120 82T126 136V540ZM355 733Q327 733 310 748T292 785Q292 808 306 826T353 844Q386 844 401 828T416 787Q416 764 399 749T355 733ZM521 734Q489 734 473
750T456 792Q456 817 473 830T518 844Q546 844 563 829T581 792Q581 770 568 752T521 734Z" />
<glyph unicode="&#xd0;" horiz-adv-x="731" d="M52 -3Q52 12 53 24T57 45Q84 47 99 55T120 85T127 146V540Q127 576 121 594T100 621T58 631Q55 640 54 653T53 679Q70 678 96 678T150 677T204 676Q231 676 260 677T320 678Q373 678 427 671T529 644T615 588T674
495T696 355Q696 274 676 216T623 119T549 56T466 20T385 4T319 0Q291 0 254 0T177 0T104 -1T52 -3ZM325 50Q378 50 423 63T504 108T558 197T578 340Q578 420 556 477T494 568T407 618T306 634Q285 634 261 631T228 621L237 650V146Q237 108 244 87T270 58T325
50ZM297 310Q297 323 300 340T307 367H434H481H617Q617 350 615 337T607 311Q583 312 564 312T524 312T479 312H433Q411 312 392 312T350 311T297 310Z" />
<glyph unicode="&#xd1;" horiz-adv-x="737" d="M582 -6L120 600Q107 617 94 622T55 631Q52 642 51 655T50 679Q60 678 74 678T104 677T133 676Q153 676 173 677T207 679L589 170L582 -6ZM50 -3Q50 12 51 23T55 45Q83 46 98 59T119 104T126 192V611L181 610V192Q181
136 187 104T208 59T251 45Q255 35 256 24T257 -3Q242 -2 224 -2T187 -1T154 0Q140 0 120 0T81 -1T50 -3ZM582 -6L578 107V488Q578 544 572 574T551 617T507 631Q504 648 503 658T501 679Q516 678 533 678T569 677T601 676Q623 676 650 677T698 679Q698 667 697
655T693 631Q670 630 657 618T639 575T633 488V0Q623 -3 610 -4T582 -6ZM429 746Q409 746 392 752T359 765T327 777T293 783Q273 783 256 775T221 749Q212 756 208 765T204 787Q233 825 263 839T320 853Q348 853 370 844T412 827T453 818Q469 818 483 825T510 846Q518
844 527 841T542 829Q520 786 491 766T429 746Z" />
<glyph unicode="&#xd2;" horiz-adv-x="736" d="M367 -9Q267 -9 193 36T77 161T35 340Q35 418 60 481T131 589T236 660T367 685Q465 685 540 642T658 522T701 342Q701 267 677 203T608 92T502 18T367 -9ZM386 45Q448 45 491 80T558 178T582 317Q582 405 552 477T469
591T348 633Q292 633 248 600T179 507T154 367Q154 304 169 246T213 143T286 71T386 45ZM357 732Q327 771 301 801T247 859Q266 869 293 872T345 874Q358 843 373 808T408 739Q397 735 385 734T357 732Z" />
<glyph unicode="&#xd3;" horiz-adv-x="736" d="M367 -9Q267 -9 193 36T77 161T35 340Q35 418 60 481T131 589T236 660T367 685Q465 685 540 642T658 522T701 342Q701 267 677 203T608 92T502 18T367 -9ZM386 45Q448 45 491 80T558 178T582 317Q582 405 552 477T469
591T348 633Q292 633 248 600T179 507T154 367Q154 304 169 246T213 143T286 71T386 45ZM379 732Q363 732 352 733T329 739Q346 773 361 807T386 871Q399 874 413 876T441 879Q469 879 491 871Q463 838 436 805T379 732Z" />
<glyph unicode="&#xd4;" horiz-adv-x="736" d="M367 -9Q267 -9 193 36T77 161T35 340Q35 418 60 481T131 589T236 660T367 685Q465 685 540 642T658 522T701 342Q701 267 677 203T608 92T502 18T367 -9ZM386 45Q448 45 491 80T558 178T582 317Q582 405 552 477T469
591T348 633Q292 633 248 600T179 507T154 367Q154 304 169 246T213 143T286 71T386 45ZM233 728Q222 733 217 744T209 765Q244 787 282 816T351 875Q361 878 373 879T394 880Q419 852 452 821T526 758Q520 748 509 741T483 730Q456 747 424 765T362 797Q348 791
323 778T273 752T233 728Z" />
<glyph unicode="&#xd5;" horiz-adv-x="736" d="M367 -9Q267 -9 193 36T77 161T35 340Q35 418 60 481T131 589T236 660T367 685Q465 685 540 642T658 522T701 342Q701 267 677 203T608 92T502 18T367 -9ZM386 45Q448 45 491 80T558 178T582 317Q582 405 552 477T469
591T348 633Q292 633 248 600T179 507T154 367Q154 304 169 246T213 143T286 71T386 45ZM424 746Q404 746 387 752T354 765T322 777T288 783Q268 783 251 775T216 749Q207 756 203 765T199 787Q228 825 258 839T315 853Q343 853 365 844T407 827T448 818Q464 818
478 825T505 846Q513 844 522 841T537 829Q515 786 486 766T424 746Z" />
<glyph unicode="&#xd6;" horiz-adv-x="736" d="M367 -9Q267 -9 193 36T77 161T35 340Q35 418 60 481T131 589T236 660T367 685Q465 685 540 642T658 522T701 342Q701 267 677 203T608 92T502 18T367 -9ZM386 45Q448 45 491 80T558 178T582 317Q582 405 552 477T469
591T348 633Q292 633 248 600T179 507T154 367Q154 304 169 246T213 143T286 71T386 45ZM473 730Q440 730 424 747T407 792Q407 818 424 833T469 848Q497 848 515 833T533 792Q533 769 520 750T473 730ZM267 730Q239 730 222 746T204 785Q204 809 218 828T265 848Q298
848 313 831T328 787Q328 763 311 747T267 730Z" />
<glyph unicode="&#xd7;" horiz-adv-x="550" d="M452 21Q405 74 354 130T250 243T145 355T41 464Q51 475 65 482T96 490L509 48Q500 36 485 29T452 21ZM100 21Q82 21 66 26T40 42L452 497Q469 494 483 488T506 471Q467 430 415 374T305 254T195 131T100 21Z" />
<glyph unicode="&#xd8;" horiz-adv-x="736" d="M367 -9Q267 -9 193 36T77 161T35 340Q35 418 60 481T131 589T236 660T367 685Q465 685 540 642T658 522T701 342Q701 267 677 203T608 92T502 18T367 -9ZM386 45Q448 45 491 80T558 178T582 317Q582 405 552 477T469
591T348 633Q292 633 248 600T179 507T154 367Q154 304 169 246T213 143T286 71T386 45ZM539 610L607 701Q625 701 640 698T667 684L585 577L539 610ZM181 64L108 -29Q91 -29 76 -23T54 -7L134 93L181 64ZM173 136L519 589L554 543L208 92L173 136Z" />
<glyph unicode="&#xd9;" horiz-adv-x="678" d="M574 270Q574 184 563 133T517 47Q488 19 446 5T352 -9Q258 -9 204 18T127 99T104 232V539Q104 577 100 595T82 620T44 631Q41 642 40 654T39 679Q59 678 92 677T158 676Q173 676 191 676T227 676T261 677T288 679Q288
667 287 655T283 631Q254 628 240 621T220 596T215 539V247Q215 190 229 145T279 74T376 48Q400 48 429 57T478 87Q493 103 501 124T514 178T519 265V502Q519 551 514 577T495 616T451 631Q448 646 447 657T445 679Q458 678 474 678T509 677T542 676Q566 676 593
677T639 679Q639 670 638 659T634 631Q610 628 597 617T579 579T574 504V270ZM356 732Q326 771 300 801T246 859Q265 869 292 872T344 874Q357 843 372 808T407 739Q396 735 384 734T356 732Z" />
<glyph unicode="&#xda;" horiz-adv-x="678" d="M574 270Q574 184 563 133T517 47Q488 19 446 5T352 -9Q258 -9 204 18T127 99T104 232V539Q104 577 100 595T82 620T44 631Q41 642 40 654T39 679Q59 678 92 677T158 676Q173 676 191 676T227 676T261 677T288 679Q288
667 287 655T283 631Q254 628 240 621T220 596T215 539V247Q215 190 229 145T279 74T376 48Q400 48 429 57T478 87Q493 103 501 124T514 178T519 265V502Q519 551 514 577T495 616T451 631Q448 646 447 657T445 679Q458 678 474 678T509 677T542 676Q566 676 593
677T639 679Q639 670 638 659T634 631Q610 628 597 617T579 579T574 504V270ZM378 732Q362 732 351 733T328 739Q345 773 360 807T385 871Q398 874 412 876T440 879Q468 879 490 871Q462 838 435 805T378 732Z" />
<glyph unicode="&#xdb;" horiz-adv-x="678" d="M574 270Q574 184 563 133T517 47Q488 19 446 5T352 -9Q258 -9 204 18T127 99T104 232V539Q104 577 100 595T82 620T44 631Q41 642 40 654T39 679Q59 678 92 677T158 676Q173 676 191 676T227 676T261 677T288 679Q288
667 287 655T283 631Q254 628 240 621T220 596T215 539V247Q215 190 229 145T279 74T376 48Q400 48 429 57T478 87Q493 103 501 124T514 178T519 265V502Q519 551 514 577T495 616T451 631Q448 646 447 657T445 679Q458 678 474 678T509 677T542 676Q566 676 593
677T639 679Q639 670 638 659T634 631Q610 628 597 617T579 579T574 504V270ZM232 728Q221 733 216 744T208 765Q243 787 281 816T350 875Q360 878 372 879T393 880Q418 852 451 821T525 758Q519 748 508 741T482 730Q455 747 423 765T361 797Q347 791 322 778T272
752T232 728Z" />
<glyph unicode="&#xdc;" horiz-adv-x="678" d="M574 270Q574 184 563 133T517 47Q488 19 446 5T352 -9Q258 -9 204 18T127 99T104 232V539Q104 577 100 595T82 620T44 631Q41 642 40 654T39 679Q59 678 92 677T158 676Q173 676 191 676T227 676T261 677T288 679Q288
667 287 655T283 631Q254 628 240 621T220 596T215 539V247Q215 190 229 145T279 74T376 48Q400 48 429 57T478 87Q493 103 501 124T514 178T519 265V502Q519 551 514 577T495 616T451 631Q448 646 447 657T445 679Q458 678 474 678T509 677T542 676Q566 676 593
677T639 679Q639 670 638 659T634 631Q610 628 597 617T579 579T574 504V270ZM471 730Q438 730 422 747T405 792Q405 818 422 833T467 848Q495 848 513 833T531 792Q531 769 518 750T471 730ZM265 730Q237 730 220 746T202 785Q202 809 216 828T263 848Q296 848
311 831T326 787Q326 763 309 747T265 730Z" />
<glyph unicode="&#xdd;" horiz-adv-x="631" d="M374 264V168Q374 116 379 92T402 59T454 45Q458 35 459 23T461 -3Q427 -2 390 -1T321 0Q296 0 268 0T215 -1T173 -2Q173 11 174 23T179 45Q217 49 235 56T258 87T264 158V264H374ZM358 225H280L102 572Q86 604 71
617T29 631Q25 643 24 654T23 678Q38 678 57 678T97 677T137 676Q156 676 182 676T234 676T276 678Q276 665 275 655T271 633Q233 629 228 611T244 551Q269 502 298 439T357 309H350Q380 378 407 436T457 539Q482 589 475 607T429 631Q426 643 424 654T422 678Q441
677 469 677T521 676Q544 676 567 676T608 678Q608 666 607 656T603 633Q578 627 555 603T507 529L358 225ZM359 732Q343 732 332 733T309 739Q326 773 341 807T366 871Q379 874 393 876T421 879Q449 879 471 871Q443 838 416 805T359 732Z" />
<glyph unicode="&#xde;" horiz-adv-x="602" d="M52 -3Q52 12 53 24T58 45Q85 47 99 55T120 82T126 136V540Q126 576 120 594T100 621T58 631Q54 640 53 652T52 679Q71 678 92 678T137 677T182 676Q204 676 226 676T269 677T310 679Q310 665 309 653T305 631Q279
629 264 621T242 595T236 540V155Q236 112 245 89T275 57T329 45Q332 36 333 24T334 -3Q318 -2 295 -2T246 -1T194 0Q159 0 120 0T52 -3ZM339 151Q318 151 301 153T269 160Q267 171 267 181T271 199Q283 197 295 196T321 195Q355 195 386 207T437 249T457 335Q457
405 419 450T297 496Q282 496 268 495T229 487L189 539Q208 539 235 539T293 540T354 541Q429 541 476 516T545 449T567 355Q567 305 541 258T465 181T339 151Z" />
<glyph unicode="&#xdf;" horiz-adv-x="624" d="M114 386Q102 391 78 394T35 398Q35 410 38 423T48 448H114V486Q114 546 134 588T186 659T258 701T338 715Q393 715 428 696T482 647T500 581Q500 545 489 521T460 481T425 451T397 423T385 389Q385 365 399 348T436
318T485 291T534 257T571 211T585 142Q585 110 572 83T535 36T482 5T421 -7Q375 -7 346 1T289 29Q291 45 291 64T292 104T290 142Q299 148 315 151T345 154Q351 91 368 63T428 35Q453 35 471 56T490 113Q490 146 470 166T419 201T359 235T309 279T289 347Q289 381
302 403T336 440T376 470T409 503T423 551Q423 579 408 603T367 643T307 658Q278 658 259 646T230 604T220 519V-2Q204 -1 184 -1T138 0Q109 0 84 0T40 -3Q40 12 41 24T46 45Q73 47 87 55T108 82T114 135V386Z" />
<glyph unicode="&#xe0;" horiz-adv-x="512" d="M349 -9Q337 -4 330 9T323 50Q323 60 324 73T329 99H332Q328 80 317 61T288 27Q270 12 243 3T179 -7Q115 -7 81 21T46 101Q46 140 64 167T112 213T177 243T246 260T309 271Q309 309 308 331T302 366T288 390Q276
404 261 411T228 418Q196 418 178 399T152 353T142 303Q128 303 110 305T81 311Q83 337 83 368T76 423Q118 444 166 455T255 467Q298 467 327 456T372 427Q397 403 406 364T415 256V153Q415 124 419 107T437 83T476 74Q477 62 476 48T469 22Q441 21 408 13T349
-9ZM213 56Q235 56 257 70T294 114T309 192V227Q283 223 256 217T207 200T171 171T157 123Q157 88 174 72T213 56ZM234 535Q201 586 171 626T106 701Q128 712 156 714T213 713Q225 671 242 627T283 539Q273 534 261 534T234 535Z" />
<glyph unicode="&#xe1;" horiz-adv-x="512" d="M349 -9Q337 -4 330 9T323 50Q323 60 324 73T329 99H332Q328 80 317 61T288 27Q270 12 243 3T179 -7Q115 -7 81 21T46 101Q46 140 64 167T112 213T177 243T246 260T309 271Q309 309 308 331T302 366T288 390Q276
404 261 411T228 418Q196 418 178 399T152 353T142 303Q128 303 110 305T81 311Q83 337 83 368T76 423Q118 444 166 455T255 467Q298 467 327 456T372 427Q397 403 406 364T415 256V153Q415 124 419 107T437 83T476 74Q477 62 476 48T469 22Q441 21 408 13T349
-9ZM213 56Q235 56 257 70T294 114T309 192V227Q283 223 256 217T207 200T171 171T157 123Q157 88 174 72T213 56ZM255 531Q244 530 232 532T210 539Q234 588 249 629T274 709Q296 716 316 719T353 721Q363 720 372 718T387 714Q353 675 319 626T255 531Z" />
<glyph unicode="&#xe2;" horiz-adv-x="512" d="M349 -9Q337 -4 330 9T323 50Q323 60 324 73T329 99H332Q328 80 317 61T288 27Q270 12 243 3T179 -7Q115 -7 81 21T46 101Q46 140 64 167T112 213T177 243T246 260T309 271Q309 309 308 331T302 366T288 390Q276
404 261 411T228 418Q196 418 178 399T152 353T142 303Q128 303 110 305T81 311Q83 337 83 368T76 423Q118 444 166 455T255 467Q298 467 327 456T372 427Q397 403 406 364T415 256V153Q415 124 419 107T437 83T476 74Q477 62 476 48T469 22Q441 21 408 13T349
-9ZM213 56Q235 56 257 70T294 114T309 192V227Q283 223 256 217T207 200T171 171T157 123Q157 88 174 72T213 56ZM99 517Q89 523 85 536T80 558Q119 587 162 626T239 705Q248 708 259 709T279 711Q307 674 344 631T427 545Q422 537 412 531T388 522Q357 544 319
571T249 615Q237 609 217 597T175 569T132 540T99 517Z" />
<glyph unicode="&#xe3;" horiz-adv-x="512" d="M349 -9Q337 -4 330 9T323 50Q323 60 324 73T329 99H332Q328 80 317 61T288 27Q270 12 243 3T179 -7Q115 -7 81 21T46 101Q46 140 64 167T112 213T177 243T246 260T309 271Q309 309 308 331T302 366T288 390Q276
404 261 411T228 418Q196 418 178 399T152 353T142 303Q128 303 110 305T81 311Q83 337 83 368T76 423Q118 444 166 455T255 467Q298 467 327 456T372 427Q397 403 406 364T415 256V153Q415 124 419 107T437 83T476 74Q477 62 476 48T469 22Q441 21 408 13T349
-9ZM213 56Q235 56 257 70T294 114T309 192V227Q283 223 256 217T207 200T171 171T157 123Q157 88 174 72T213 56ZM305 551Q288 551 271 557T237 573T203 588T166 595Q147 595 128 586T87 554Q71 567 71 591Q104 634 133 648T188 663Q213 663 235 653T279 632T323
621Q338 621 353 628T384 654Q391 653 401 650T417 639Q389 590 362 571T305 551Z" />
<glyph unicode="&#xe4;" horiz-adv-x="512" d="M349 -9Q337 -4 330 9T323 50Q323 60 324 73T329 99H332Q328 80 317 61T288 27Q270 12 243 3T179 -7Q115 -7 81 21T46 101Q46 140 64 167T112 213T177 243T246 260T309 271Q309 309 308 331T302 366T288 390Q276
404 261 411T228 418Q196 418 178 399T152 353T142 303Q128 303 110 305T81 311Q83 337 83 368T76 423Q118 444 166 455T255 467Q298 467 327 456T372 427Q397 403 406 364T415 256V153Q415 124 419 107T437 83T476 74Q477 62 476 48T469 22Q441 21 408 13T349
-9ZM213 56Q235 56 257 70T294 114T309 192V227Q283 223 256 217T207 200T171 171T157 123Q157 88 174 72T213 56ZM349 528Q316 528 300 545T283 590Q283 616 300 631T345 646Q373 646 391 631T409 590Q409 567 396 548T349 528ZM143 528Q115 528 98 544T80 583Q80
607 94 626T141 646Q174 646 189 629T204 585Q204 561 187 545T143 528Z" />
<glyph unicode="&#xe5;" horiz-adv-x="512" d="M349 -9Q337 -4 330 9T323 50Q323 60 324 73T329 99H332Q328 80 317 61T288 27Q270 12 243 3T179 -7Q115 -7 81 21T46 101Q46 140 64 167T112 213T177 243T246 260T309 271Q309 309 308 331T302 366T288 390Q276
404 261 411T228 418Q196 418 178 399T152 353T142 303Q128 303 110 305T81 311Q83 337 83 368T76 423Q118 444 166 455T255 467Q298 467 327 456T372 427Q397 403 406 364T415 256V153Q415 124 419 107T437 83T476 74Q477 62 476 48T469 22Q441 21 408 13T349
-9ZM213 56Q235 56 257 70T294 114T309 192V227Q283 223 256 217T207 200T171 171T157 123Q157 88 174 72T213 56ZM240 524Q200 524 169 548T138 615Q138 656 170 683T248 711Q288 711 319 690T351 622Q351 581 320 553T240 524ZM250 565Q266 565 278 578T290 612Q290
633 278 653T241 674Q223 674 212 660T201 619Q201 596 213 581T250 565Z" />
<glyph unicode="&#xe6;" horiz-adv-x="709" d="M405 228Q405 198 411 168T431 111T467 69T522 53Q569 53 598 71T643 110Q651 105 659 94T669 73Q636 31 593 13T495 -6Q444 -6 407 14T345 68T310 140T298 216V318Q298 368 275 392T219 417Q191 417 175 401T150
358T138 303Q126 303 106 305T77 312Q79 337 78 369T72 424Q114 444 155 455T249 467Q292 467 324 448T378 384H350Q368 415 393 433T446 459T501 467Q544 467 575 450T626 404T657 343T669 279Q667 268 662 257T649 238Q579 237 513 234T385 225L388 274Q428 278
471 281T563 285Q563 314 556 344T530 396T479 417Q441 417 423 381T405 285V228ZM308 221Q228 215 189 193T149 120Q149 94 158 80T182 60T211 54Q236 54 255 70T287 123T298 216L332 133Q332 94 313 63T258 13T170 -6Q111 -6 79 21T46 102Q46 149 71 180T137
229T222 256T306 270L308 221Z" />
<glyph unicode="&#xe7;" horiz-adv-x="453" d="M421 72Q394 32 353 12T255 -9Q199 -9 150 17T70 96T38 227Q38 287 63 342T136 432T253 467Q302 467 341 456T409 423Q405 394 403 366T401 306Q391 301 375 299T346 297Q341 355 315 385T247 416Q201 416 174 371T146
242Q146 194 162 151T209 80T287 53Q319 53 347 67T396 106Q405 101 411 92T421 72ZM203 -242Q199 -234 197 -225T195 -207Q226 -207 250 -193T274 -154Q274 -130 256 -116T210 -102Q203 -96 198 -86T192 -63L245 16H298L251 -49Q291 -56 314 -80T338 -141Q338
-174 317 -196T265 -230T203 -242Z" />
<glyph unicode="&#xe8;" horiz-adv-x="485" d="M259 -9Q184 -9 136 23T63 109T38 228Q38 294 64 348T138 434T253 467Q320 467 361 439T422 364T446 258Q442 235 429 220Q409 220 375 220T298 220T211 218T127 214V269H333Q333 335 311 375T246 415Q222 415 200
400T164 350T150 251Q150 201 163 156T207 82T295 53Q328 53 360 67T418 107Q426 103 433 92T442 71Q407 28 362 10T259 -9ZM240 535Q207 586 177 626T112 701Q134 712 162 714T219 713Q231 671 248 627T289 539Q279 534 267 534T240 535Z" />
<glyph unicode="&#xe9;" horiz-adv-x="485" d="M259 -9Q184 -9 136 23T63 109T38 228Q38 294 64 348T138 434T253 467Q320 467 361 439T422 364T446 258Q442 235 429 220Q409 220 375 220T298 220T211 218T127 214V269H333Q333 335 311 375T246 415Q222 415 200
400T164 350T150 251Q150 201 163 156T207 82T295 53Q328 53 360 67T418 107Q426 103 433 92T442 71Q407 28 362 10T259 -9ZM261 531Q250 530 238 532T216 539Q240 588 255 629T280 709Q302 716 322 719T359 721Q369 720 378 718T393 714Q359 675 325 626T261 531Z"
/>
<glyph unicode="&#xea;" horiz-adv-x="485" d="M259 -9Q184 -9 136 23T63 109T38 228Q38 294 64 348T138 434T253 467Q320 467 361 439T422 364T446 258Q442 235 429 220Q409 220 375 220T298 220T211 218T127 214V269H333Q333 335 311 375T246 415Q222 415 200
400T164 350T150 251Q150 201 163 156T207 82T295 53Q328 53 360 67T418 107Q426 103 433 92T442 71Q407 28 362 10T259 -9ZM104 517Q94 523 90 536T85 558Q124 587 167 626T244 705Q253 708 264 709T284 711Q312 674 349 631T432 545Q427 537 417 531T393 522Q362
544 324 571T254 615Q242 609 222 597T180 569T137 540T104 517Z" />
<glyph unicode="&#xeb;" horiz-adv-x="485" d="M259 -9Q184 -9 136 23T63 109T38 228Q38 294 64 348T138 434T253 467Q320 467 361 439T422 364T446 258Q442 235 429 220Q409 220 375 220T298 220T211 218T127 214V269H333Q333 335 311 375T246 415Q222 415 200
400T164 350T150 251Q150 201 163 156T207 82T295 53Q328 53 360 67T418 107Q426 103 433 92T442 71Q407 28 362 10T259 -9ZM354 528Q321 528 305 545T288 590Q288 616 305 631T350 646Q378 646 396 631T414 590Q414 567 401 548T354 528ZM148 528Q120 528 103
544T85 583Q85 607 99 626T146 646Q179 646 194 629T209 585Q209 561 192 545T148 528Z" />
<glyph unicode="&#xec;" horiz-adv-x="316" d="M36 -3Q36 9 37 22T42 45Q82 46 96 64T110 132V319Q110 343 106 358T85 382T35 390Q35 402 37 413T45 433Q65 433 95 438T152 451T192 467Q202 463 209 453T216 423V132Q216 82 229 64T276 45Q279 35 280 21T281
-3Q265 -2 245 -2T203 -1T160 0Q138 0 116 0T73 -1T36 -3ZM402 535Q369 586 339 626T274 701Q296 712 324 714T381 713Q393 671 410 627T451 539Q441 534 429 534T402 535Z" />
<glyph unicode="&#xed;" horiz-adv-x="316" d="M36 -3Q36 9 37 22T42 45Q82 46 96 64T110 132V319Q110 343 106 358T85 382T35 390Q35 402 37 413T45 433Q65 433 95 438T152 451T192 467Q202 463 209 453T216 423V132Q216 82 229 64T276 45Q279 35 280 21T281
-3Q265 -2 245 -2T203 -1T160 0Q138 0 116 0T73 -1T36 -3ZM167 531Q156 530 144 532T122 539Q146 588 161 629T186 709Q208 716 228 719T265 721Q275 720 284 718T299 714Q265 675 231 626T167 531Z" />
<glyph unicode="&#xee;" horiz-adv-x="316" d="M36 -3Q36 9 37 22T42 45Q82 46 96 64T110 132V319Q110 343 106 358T85 382T35 390Q35 402 37 413T45 433Q65 433 95 438T152 451T192 467Q202 463 209 453T216 423V132Q216 82 229 64T276 45Q279 35 280 21T281
-3Q265 -2 245 -2T203 -1T160 0Q138 0 116 0T73 -1T36 -3ZM306 518Q280 531 274 557Q305 590 335 628T393 705Q407 708 417 709T436 711Q461 671 489 629T549 543Q542 536 529 530T503 522Q479 548 453 574T401 620Q375 596 351 570T306 518Z" />
<glyph unicode="&#xef;" horiz-adv-x="316" d="M36 -3Q36 9 37 22T42 45Q82 46 96 64T110 132V319Q110 343 106 358T85 382T35 390Q35 402 37 413T45 433Q65 433 95 438T152 451T192 467Q202 463 209 453T216 423V132Q216 82 229 64T276 45Q279 35 280 21T281
-3Q265 -2 245 -2T203 -1T160 0Q138 0 116 0T73 -1T36 -3ZM330 528Q302 528 285 544T267 583Q267 607 281 626T328 646Q361 646 376 629T391 585Q391 561 374 545T330 528ZM497 529Q465 529 448 546T431 590Q431 616 448 631T494 646Q521 646 539 631T557 590Q557
567 544 548T497 529Z" />
<glyph unicode="&#xf0;" horiz-adv-x="536" d="M263 -8Q158 -8 98 52T38 223Q38 298 66 352T146 436T267 466Q297 466 319 460T361 440L381 373Q363 391 330 402T268 414Q209 414 179 365T149 233Q149 142 183 93T272 44Q330 44 358 99T386 257Q386 359 358 438T273
573T127 661Q127 672 129 683T135 704Q164 704 192 708T246 717Q322 672 378 605T466 455T498 272Q498 140 438 66T263 -8ZM191 483Q185 495 180 512T175 538L463 678Q470 664 474 651T477 623Q436 604 403 589T338 558T271 524T191 483Z" />
<glyph unicode="&#xf1;" horiz-adv-x="616" d="M110 212V316Q110 342 106 357T85 381T36 390Q36 402 38 413T45 433Q83 435 126 445T192 467Q202 463 209 453T216 420L110 212ZM518 132Q518 81 531 63T575 45Q578 35 579 24T580 -3Q558 -1 528 -1T467 0Q446 0
423 0T378 -1T341 -3Q341 12 342 24T347 45Q380 45 396 64T412 134V273Q412 342 388 367T324 392Q299 392 274 375T233 322T216 227V132Q216 82 230 64T281 45Q285 35 286 24T287 -3Q273 -2 252 -2T208 -1T163 0Q142 0 119 0T73 -1T36 -3Q36 12 37 24T42 45Q81
45 95 63T110 132V316L216 420Q216 408 215 393T208 361Q212 368 216 376T227 393Q245 416 282 439T370 462Q409 462 443 447T497 396T518 299V132ZM370 551Q353 551 336 557T302 573T268 588T231 595Q212 595 193 586T152 554Q136 567 136 591Q169 634 198 648T253
663Q278 663 300 653T344 632T388 621Q403 621 418 628T449 654Q456 653 466 650T482 639Q454 590 427 571T370 551Z" />
<glyph unicode="&#xf2;" horiz-adv-x="544" d="M271 -9Q200 -9 148 20T67 103T38 228Q38 298 68 352T152 436T272 467Q347 467 399 437T478 354T505 230Q505 161 476 107T395 22T271 -9ZM281 44Q337 44 364 91T391 215Q391 277 374 322T327 391T262 415Q207 415
180 369T153 251Q153 187 168 140T213 69T281 44ZM259 535Q226 586 196 626T131 701Q153 712 181 714T238 713Q250 671 267 627T308 539Q298 534 286 534T259 535Z" />
<glyph unicode="&#xf3;" horiz-adv-x="544" d="M271 -9Q200 -9 148 20T67 103T38 228Q38 298 68 352T152 436T272 467Q347 467 399 437T478 354T505 230Q505 161 476 107T395 22T271 -9ZM281 44Q337 44 364 91T391 215Q391 277 374 322T327 391T262 415Q207 415
180 369T153 251Q153 187 168 140T213 69T281 44ZM280 531Q269 530 257 532T235 539Q259 588 274 629T299 709Q321 716 341 719T378 721Q388 720 397 718T412 714Q378 675 344 626T280 531Z" />
<glyph unicode="&#xf4;" horiz-adv-x="544" d="M271 -9Q200 -9 148 20T67 103T38 228Q38 298 68 352T152 436T272 467Q347 467 399 437T478 354T505 230Q505 161 476 107T395 22T271 -9ZM281 44Q337 44 364 91T391 215Q391 277 374 322T327 391T262 415Q207 415
180 369T153 251Q153 187 168 140T213 69T281 44ZM123 517Q113 523 109 536T104 558Q143 587 186 626T263 705Q272 708 283 709T303 711Q331 674 368 631T451 545Q446 537 436 531T412 522Q381 544 343 571T273 615Q261 609 241 597T199 569T156 540T123 517Z"
/>
<glyph unicode="&#xf5;" horiz-adv-x="544" d="M271 -9Q200 -9 148 20T67 103T38 228Q38 298 68 352T152 436T272 467Q347 467 399 437T478 354T505 230Q505 161 476 107T395 22T271 -9ZM281 44Q337 44 364 91T391 215Q391 277 374 322T327 391T262 415Q207 415
180 369T153 251Q153 187 168 140T213 69T281 44ZM329 551Q312 551 295 557T261 573T227 588T190 595Q171 595 152 586T111 554Q95 567 95 591Q128 634 157 648T212 663Q237 663 259 653T303 632T347 621Q362 621 377 628T408 654Q415 653 425 650T441 639Q413
590 386 571T329 551Z" />
<glyph unicode="&#xf6;" horiz-adv-x="544" d="M271 -9Q200 -9 148 20T67 103T38 228Q38 298 68 352T152 436T272 467Q347 467 399 437T478 354T505 230Q505 161 476 107T395 22T271 -9ZM281 44Q337 44 364 91T391 215Q391 277 374 322T327 391T262 415Q207 415
180 369T153 251Q153 187 168 140T213 69T281 44ZM373 528Q340 528 324 545T307 590Q307 616 324 631T369 646Q397 646 415 631T433 590Q433 567 420 548T373 528ZM167 528Q139 528 122 544T104 583Q104 607 118 626T165 646Q198 646 213 629T228 585Q228 561 211
545T167 528Z" />
<glyph unicode="&#xf7;" horiz-adv-x="550" d="M46 234Q46 247 49 264T56 291H504Q504 274 503 261T494 235Q455 236 429 236T381 237T338 237T285 237Q223 237 167 236T46 234ZM276 51Q252 51 236 66T220 104Q220 127 232 143T274 159Q304 159 317 145T330 104Q330
80 314 66T276 51ZM279 367Q249 367 235 383T220 427Q220 452 237 464T276 476Q298 476 314 464T331 429Q331 403 319 385T279 367Z" />
<glyph unicode="&#xf8;" horiz-adv-x="544" d="M271 -9Q200 -9 148 20T67 103T38 228Q38 298 68 352T152 436T272 467Q347 467 399 437T478 354T505 230Q505 161 476 107T395 22T271 -9ZM281 44Q337 44 364 91T391 215Q391 277 374 322T327 391T262 415Q207 415
180 369T153 251Q153 187 168 140T213 69T281 44ZM393 411L463 489Q480 489 496 486T522 473L445 387L393 411ZM149 56L74 -32Q56 -32 41 -28T18 -16L105 82L149 56ZM131 108L371 388L407 351L168 74L131 108Z" />
<glyph unicode="&#xf9;" horiz-adv-x="578" d="M227 -4Q158 -4 120 35T81 175V316Q81 354 71 371T16 390Q16 402 17 412T24 433Q61 435 100 445T163 467Q173 463 180 453T187 420V198Q187 131 204 97T264 63Q311 63 343 104T375 231V321Q375 359 363 376T301 395Q301
407 302 417T309 438Q353 440 393 448T457 467Q467 463 474 453T481 420V133L389 96Q384 82 375 69T354 45Q329 21 299 9T227 -4ZM411 -9Q399 -4 392 6T384 49Q384 61 386 81T394 134L481 145Q481 120 485 104T502 81T542 74Q542 62 541 48T535 22Q507 21 472 13T411
-9ZM264 535Q231 586 201 626T136 701Q158 712 186 714T243 713Q255 671 272 627T313 539Q303 534 291 534T264 535Z" />
<glyph unicode="&#xfa;" horiz-adv-x="578" d="M227 -4Q158 -4 120 35T81 175V316Q81 354 71 371T16 390Q16 402 17 412T24 433Q61 435 100 445T163 467Q173 463 180 453T187 420V198Q187 131 204 97T264 63Q311 63 343 104T375 231V321Q375 359 363 376T301 395Q301
407 302 417T309 438Q353 440 393 448T457 467Q467 463 474 453T481 420V133L389 96Q384 82 375 69T354 45Q329 21 299 9T227 -4ZM411 -9Q399 -4 392 6T384 49Q384 61 386 81T394 134L481 145Q481 120 485 104T502 81T542 74Q542 62 541 48T535 22Q507 21 472 13T411
-9ZM285 531Q274 530 262 532T240 539Q264 588 279 629T304 709Q326 716 346 719T383 721Q393 720 402 718T417 714Q383 675 349 626T285 531Z" />
<glyph unicode="&#xfb;" horiz-adv-x="578" d="M227 -4Q158 -4 120 35T81 175V316Q81 354 71 371T16 390Q16 402 17 412T24 433Q61 435 100 445T163 467Q173 463 180 453T187 420V198Q187 131 204 97T264 63Q311 63 343 104T375 231V321Q375 359 363 376T301 395Q301
407 302 417T309 438Q353 440 393 448T457 467Q467 463 474 453T481 420V133L389 96Q384 82 375 69T354 45Q329 21 299 9T227 -4ZM411 -9Q399 -4 392 6T384 49Q384 61 386 81T394 134L481 145Q481 120 485 104T502 81T542 74Q542 62 541 48T535 22Q507 21 472 13T411
-9ZM128 517Q118 523 114 536T109 558Q148 587 191 626T268 705Q277 708 288 709T308 711Q336 674 373 631T456 545Q451 537 441 531T417 522Q386 544 348 571T278 615Q266 609 246 597T204 569T161 540T128 517Z" />
<glyph unicode="&#xfc;" horiz-adv-x="578" d="M227 -4Q158 -4 120 35T81 175V316Q81 354 71 371T16 390Q16 402 17 412T24 433Q61 435 100 445T163 467Q173 463 180 453T187 420V198Q187 131 204 97T264 63Q311 63 343 104T375 231V321Q375 359 363 376T301 395Q301
407 302 417T309 438Q353 440 393 448T457 467Q467 463 474 453T481 420V133L389 96Q384 82 375 69T354 45Q329 21 299 9T227 -4ZM411 -9Q399 -4 392 6T384 49Q384 61 386 81T394 134L481 145Q481 120 485 104T502 81T542 74Q542 62 541 48T535 22Q507 21 472 13T411
-9ZM378 528Q345 528 329 545T312 590Q312 616 329 631T374 646Q402 646 420 631T438 590Q438 567 425 548T378 528ZM172 528Q144 528 127 544T109 583Q109 607 123 626T170 646Q203 646 218 629T233 585Q233 561 216 545T172 528Z" />
<glyph unicode="&#xfd;" horiz-adv-x="547" d="M383 298Q408 359 396 381T342 412Q338 423 336 435T334 460Q357 459 381 459T433 458Q461 458 486 458T533 460Q533 449 532 437T526 412Q508 408 496 399T473 369T447 313L300 -37Q272 -105 249 -147T206 -211T166
-241T123 -249Q92 -249 73 -240T42 -221Q38 -205 39 -182T44 -143Q61 -146 79 -148T117 -151Q146 -151 171 -138T216 -94Q228 -75 255 -16T314 124L383 298ZM262 -27Q237 27 210 87T158 202T114 298Q93 344 78 367T50 399T21 412Q18 422 16 434T14 460Q43 459 74
459T133 458Q162 458 201 458T272 460Q272 446 271 434T265 412Q213 403 206 382T225 307Q239 278 256 239T289 161T318 89L262 -27ZM313 531Q302 530 290 532T268 539Q292 588 307 629T332 709Q354 716 374 719T411 721Q421 720 430 718T445 714Q411 675 377 626T313
531Z" />
<glyph unicode="&#xfe;" horiz-adv-x="588" d="M34 -245Q34 -229 35 -217T39 -197Q66 -195 81 -187T102 -160T108 -106V569Q108 593 103 608T82 632T33 640Q33 652 35 663T42 683Q63 683 93 688T149 701T189 717Q199 713 206 703T213 673V426Q213 405 211 392T207
365L213 306V-87Q213 -130 222 -153T251 -185T305 -197Q309 -206 310 -218T311 -245Q295 -244 273 -244T227 -243T176 -242Q138 -242 97 -242T34 -245ZM293 -9Q267 -9 246 -5T200 8V89Q219 68 241 55T297 41Q318 41 341 49T387 77T422 135T436 233Q436 282 423
319T385 378T329 399Q301 399 275 381T231 323T213 214L181 319Q195 353 206 371T224 398Q233 413 252 429T299 456T359 467Q418 467 460 445T526 375T549 256Q549 180 517 120T428 26T293 -9Z" />
<glyph unicode="&#xff;" horiz-adv-x="547" d="M383 298Q408 359 396 381T342 412Q338 423 336 435T334 460Q357 459 381 459T433 458Q461 458 486 458T533 460Q533 449 532 437T526 412Q508 408 496 399T473 369T447 313L300 -37Q272 -105 249 -147T206 -211T166
-241T123 -249Q92 -249 73 -240T42 -221Q38 -205 39 -182T44 -143Q61 -146 79 -148T117 -151Q146 -151 171 -138T216 -94Q228 -75 255 -16T314 124L383 298ZM262 -27Q237 27 210 87T158 202T114 298Q93 344 78 367T50 399T21 412Q18 422 16 434T14 460Q43 459 74
459T133 458Q162 458 201 458T272 460Q272 446 271 434T265 412Q213 403 206 382T225 307Q239 278 256 239T289 161T318 89L262 -27ZM406 528Q373 528 357 545T340 590Q340 616 357 631T402 646Q430 646 448 631T466 590Q466 567 453 548T406 528ZM200 528Q172
528 155 544T137 583Q137 607 151 626T198 646Q231 646 246 629T261 585Q261 561 244 545T200 528Z" />
<glyph unicode="&#x2013;" horiz-adv-x="571" d="M511 290Q511 274 509 259T499 232Q445 232 398 232T303 232T196 231T60 229Q60 244 63 261T72 290H511Z" />
<glyph unicode="&#x2014;" horiz-adv-x="1024" d="M964 289Q964 272 962 258T952 232Q668 232 449 232T60 228Q60 242 63 261T72 289H964Z" />
<glyph unicode="&#x2018;" horiz-adv-x="254" d="M97 458Q78 465 69 484T60 535Q60 590 80 634T139 719Q152 719 164 716T184 705Q158 670 151 651T143 606Q143 585 155 573T194 557Q194 543 192 524T184 488Q159 485 137 478T97 458Z" />
<glyph unicode="&#x2019;" horiz-adv-x="254" d="M157 718Q176 711 185 692T194 641Q194 586 174 542T115 457Q102 457 90 460T70 471Q96 506 103 525T111 570Q111 591 99 603T60 619Q60 633 62 652T70 688Q95 691 117 698T157 718Z" />
<glyph unicode="&#x201a;" horiz-adv-x="254" d="M157 108Q176 101 185 82T194 31Q194 -24 174 -68T115 -153Q102 -153 90 -150T70 -139Q96 -104 103 -85T111 -40Q111 -19 99 -7T60 9Q60 23 62 42T70 78Q95 81 117 88T157 108Z" />
<glyph unicode="&#x201c;" horiz-adv-x="407" d="M97 458Q80 468 70 486T60 538Q60 584 81 631T138 717Q148 718 161 715T183 706Q164 682 153 655T141 606Q141 587 151 574T188 558Q189 542 187 522T178 488Q132 482 97 458ZM254 461Q236 470 227 488T218 541Q218
587 238 632T293 714Q305 715 317 712T338 703Q321 680 309 654T297 606Q297 587 308 574T347 558Q348 542 346 524T338 490Q314 487 293 480T254 461Z" />
<glyph unicode="&#x201d;" horiz-adv-x="407" d="M310 719Q327 709 337 691T347 639Q347 593 326 546T269 460Q259 459 246 462T224 471Q243 495 254 522T266 571Q266 590 256 603T219 619Q218 635 220 655T229 689Q275 695 310 719ZM153 716Q171 707 180 689T189
636Q189 590 169 545T114 463Q102 462 90 465T69 474Q86 497 98 523T110 571Q110 590 99 603T60 619Q59 635 61 653T69 687Q93 690 114 697T153 716Z" />
<glyph unicode="&#x201e;" horiz-adv-x="407" d="M310 108Q327 98 337 80T347 28Q347 -18 326 -65T269 -151Q259 -152 246 -149T224 -140Q243 -116 254 -89T266 -40Q266 -21 256 -8T219 8Q218 24 220 44T229 78Q275 84 310 108ZM153 105Q171 96 180 78T189 25Q189
-21 169 -66T114 -148Q102 -149 90 -146T69 -137Q86 -114 98 -88T110 -40Q110 -21 99 -8T60 8Q59 24 61 42T69 76Q93 79 114 86T153 105Z" />
<glyph unicode="&#x2022;" horiz-adv-x="354" d="M179 143Q138 143 112 160T73 203T60 260Q60 307 93 338T179 369Q217 369 242 354T281 313T294 259Q294 210 264 177T179 143Z" />
<glyph unicode="&#x2039;" horiz-adv-x="345" d="M210 416Q222 415 233 411T251 399Q236 382 218 357T183 307T157 264Q175 232 200 192T248 119Q246 108 238 97T222 80Q180 125 139 165T60 235Q60 246 62 257T67 277Q107 310 142 345T210 416Z" />
<glyph unicode="&#x203a;" horiz-adv-x="352" d="M136 82Q126 88 119 97T106 116Q132 148 155 180T199 247Q186 268 169 295T132 350T94 402Q103 409 114 413T137 417Q162 394 185 373T233 330T284 287Q289 277 290 268T292 247Q252 207 213 165T136 82Z" />
</font>
</defs>
</svg>
