<?xml version="1.0" standalone="no"?>
<!DOCTYPE svg PUBLIC "-//W3C//DTD SVG 1.1//EN" "http://www.w3.org/Graphics/SVG/1.1/DTD/svg11.dtd">
<svg xmlns="http://www.w3.org/2000/svg">
<defs >
<font id="Vollkorn" horiz-adv-x="549" ><font-face
    font-family="Vollkorn"
    units-per-em="1000"
    panose-1="0 0 0 0 0 0 0 0 0 0"
    ascent="952"
    descent="-441"
    alphabetic="0" />
<glyph unicode=" " horiz-adv-x="180" />
<glyph unicode="!" horiz-adv-x="414" d="M333 714Q347 709 350 698T346 662Q331 610 312 537T274 383T237 225Q225 224 214 225T193 231Q205 325 212 401T225 545T233 681Q256 686 286 695T333 714ZM178 -8Q151 -8 137 10T129 56Q133 76 148 89T185 103Q201 103
212 95T230 73T232 41Q228 19 214 6T178 -8Z" />
<glyph unicode="&quot;" horiz-adv-x="333" d="M207 714Q218 710 222 698T222 669Q211 635 198 589T169 477Q157 477 147 479T128 487Q136 540 142 592T150 693Q163 695 180 701T207 714ZM343 714Q354 710 358 698T358 669Q347 635 334 589T305 477Q293 477 283
479T264 487Q272 540 278 592T286 693Q299 695 316 701T343 714Z" />
<glyph unicode="#" horiz-adv-x="592" d="M373 -8Q354 -5 346 0T329 14L478 714Q493 711 503 707T521 694L373 -8ZM49 212Q49 223 52 236T61 263H539Q539 248 537 238T527 214H430Q311 214 235 214T115 213T49 212ZM165 -8Q149 -6 139 0T122 18L270 714Q284 712
294 708T313 692L165 -8ZM102 441Q102 452 104 465T114 492H581Q581 477 579 467T569 443H503Q413 443 342 443T212 443T102 441Z" />
<glyph unicode="$" horiz-adv-x="460" d="M209 -9Q158 -9 121 0T55 25T2 63Q13 98 21 133T31 202Q43 207 58 207T85 204Q80 116 107 78T211 39Q255 39 287 66T328 136Q336 179 319 209T271 264T204 313T137 366T91 436T85 535Q93 581 120 614T193 666T298 685Q350
685 389 672T454 638Q449 604 446 574T443 509Q418 499 388 504Q387 582 361 610T291 639Q242 639 212 617T173 541Q168 507 181 480T218 431T273 388T334 344T387 294T422 233T425 153Q417 105 386 69T309 12T209 -9ZM183 -93Q170 -92 157 -88T136 -74L219 362L261
334Q242 235 224 133T183 -93ZM268 334L226 362L300 748Q315 748 327 744T348 729Q324 617 305 522T268 334Z" />
<glyph unicode="%" horiz-adv-x="745" d="M154 -9Q142 -3 134 7T123 30L642 685Q671 670 676 644Q616 571 564 507T462 383T365 261T265 134T154 -9ZM542 -9Q470 -9 435 41T416 174Q428 235 470 272T571 309Q640 309 673 260T690 128Q677 67 637 29T542 -9ZM547
33Q572 33 592 58T620 124Q633 189 617 228T561 267Q535 267 515 243T486 177Q474 113 490 73T547 33ZM222 359Q150 359 115 409T96 542Q108 603 150 640T251 677Q320 677 353 628T370 496Q357 435 317 397T222 359ZM227 401Q252 401 272 426T300 492Q313 557 297
596T241 635Q215 635 195 611T166 545Q154 481 170 441T227 401Z" />
<glyph unicode="&amp;" horiz-adv-x="709" d="M356 717Q409 717 441 699T486 652T492 589Q483 543 461 512T407 460T339 421T267 387T200 346T146 290T115 206Q107 161 120 124T166 64T250 41Q301 41 349 56T437 99T504 168T542 257Q556 331 536 358T474 387Q466
404 468 424Q486 427 506 434T544 450T574 468Q615 452 626 413T625 311Q612 241 573 182T478 81T359 15T232 -9Q144 -9 97 21T35 100T30 200Q39 251 62 287T117 350T185 396T258 434T325 473T378 520T407 585Q415 629 398 651T343 673Q306 673 283 650T253 590Q249
568 251 542T266 480T308 394T384 271Q431 201 462 160T513 98T546 71T571 64Q583 64 594 69T617 88Q627 83 633 76T645 58Q633 38 618 23T584 -1T541 -9Q524 -9 508 -5T474 11T433 48T378 114T304 218Q256 289 227 342T185 438T169 517T173 588Q179 620 199 649T258
698T356 717Z" />
<glyph unicode="&apos;" horiz-adv-x="197" d="M207 714Q218 710 222 698T222 669Q211 635 198 589T169 477Q157 477 147 479T128 487Q136 540 142 592T150 693Q163 695 180 701T207 714Z" />
<glyph unicode="(" horiz-adv-x="298" d="M318 741Q329 743 338 740T354 729Q296 667 256 600T189 455T145 280Q117 114 126 -21T182 -264Q176 -269 168 -270T148 -271Q103 -192 77 -104T46 77T57 260Q73 350 103 427T186 581T318 741Z" />
<glyph unicode=")" horiz-adv-x="295" d="M150 741Q220 605 243 480T244 230Q227 132 194 49T108 -111T-24 -271Q-35 -273 -44 -271T-60 -263Q2 -187 44 -113T114 44T159 230Q185 381 175 503T117 730Q124 736 132 739T150 741Z" />
<glyph unicode="*" horiz-adv-x="456" d="M350 664Q336 673 317 676T283 677Q282 638 279 605T271 536Q241 558 212 581T159 624Q146 614 138 600T126 566Q162 553 193 540T256 511Q226 489 195 468T137 431Q147 399 182 381Q206 412 227 436T275 487Q286 452
296 416T314 350Q331 352 347 359T375 377Q353 410 336 438T302 500Q339 499 377 498T447 494Q450 510 448 529T439 561Q401 550 368 543T299 529Q311 567 324 601T350 664Z" />
<glyph unicode="+" horiz-adv-x="550" d="M259 8Q246 4 232 6T208 15L301 502Q314 507 327 507T353 502Q327 378 304 256T259 8ZM45 239Q44 255 47 268T58 291H520Q521 278 519 266T509 242Q461 242 402 242T280 242T157 241T45 239Z" />
<glyph unicode="," horiz-adv-x="190" d="M97 103Q114 93 119 70T117 8Q108 -39 73 -90T-12 -181Q-24 -181 -32 -175T-46 -160Q-19 -134 2 -107T33 -56T34 -14T-5 12Q-5 27 -1 46T10 75Q31 77 56 85T97 103Z" />
<glyph unicode="-" horiz-adv-x="372" d="M46 226Q48 249 52 264T63 294H336Q335 272 332 258T323 229Q274 229 203 229T46 226Z" />
<glyph unicode="." horiz-adv-x="187" d="M313 -10Q281 -10 264 12T254 67Q259 91 277 107T322 124Q341 124 354 114T375 88T378 49Q373 23 357 7T313 -10Z" />
<glyph unicode="/" horiz-adv-x="288" d="M332 717Q360 707 372 687Q334 618 297 549T222 411T149 272T76 132T5 -9Q-10 -5 -19 1T-35 21L332 717Z" />
<glyph unicode="0" horiz-adv-x="620" d="M290 -9Q206 -9 148 27T67 127T59 275Q73 345 114 397T215 477T347 506Q429 506 484 472T563 377T570 232Q557 161 517 107T419 22T290 -9ZM304 38Q363 38 409 81T472 215Q487 289 473 343T422 428T328 458Q261 458 215
414T154 289Q141 215 155 159T207 70T304 38Z" />
<glyph unicode="1" horiz-adv-x="377" d="M36 -3Q36 10 38 21T44 40Q71 43 86 50T109 75T123 127L170 373Q177 407 173 424T153 449T110 460Q109 470 109 480T109 503Q137 502 166 501T227 500Q259 500 289 501T349 503Q348 491 347 481T340 460Q315 456 300 448T277
422T262 373L215 127Q209 93 211 76T229 51T274 40Q276 31 277 20T276 -3Q246 -1 215 -1T155 0Q126 0 94 0T36 -3Z" />
<glyph unicode="2" horiz-adv-x="485" d="M286 506Q244 506 202 496T117 460Q116 428 110 395T94 330Q105 325 119 323T147 321Q157 369 174 399T214 445T265 460Q306 460 325 433T336 359Q329 320 303 282T230 209Q182 173 153 151T103 113T62 81T9 39Q7 26 8
17T16 -3Q67 -1 108 -1T196 0Q246 0 284 -1T340 -3Q361 -3 371 1T389 21Q389 47 392 79T402 144Q394 148 379 150T350 152Q341 112 330 100T297 87Q287 87 265 88T217 90Q195 90 173 90T128 87L137 81Q175 111 194 126T221 148T234 158T243 165T262 179T305 212Q347
244 374 270T416 321T436 377Q446 439 406 472T286 506Z" />
<glyph unicode="3" horiz-adv-x="482" d="M106 460Q105 426 99 392T82 330Q93 325 107 323T136 321Q153 399 185 429T256 460Q293 460 313 436T325 363Q315 305 269 263T145 196Q142 184 145 173T155 156Q241 156 274 117T295 16Q282 -45 233 -84T105 -123Q78
-123 56 -118T20 -106Q14 -109 10 -114T3 -127T-1 -143Q33 -171 109 -171Q181 -171 239 -147T337 -79T391 23Q405 76 392 121T344 193T253 220L263 208Q317 235 349 261T399 314T423 367Q438 428 400 467T273 506Q225 506 183 494T106 460Z" />
<glyph unicode="4" horiz-adv-x="529" d="M243 -171Q229 -162 233 -136L260 13L268 44L298 215Q307 262 313 293T325 348T341 399L348 387Q331 362 304 327T243 252T176 173T110 100T56 44L55 78H295L334 85H421Q441 85 453 70Q446 55 440 37T430 0Q278 0 179
-1T25 -5Q17 6 13 20T10 50Q108 163 204 276T395 506Q408 506 420 504T440 497L322 -153Q279 -156 243 -171Z" />
<glyph unicode="5" horiz-adv-x="464" d="M70 246Q71 227 88 218Q157 216 204 190T271 122T283 30Q276 -13 250 -47T183 -102T90 -123Q68 -123 45 -119T3 -106Q-14 -119 -17 -143Q6 -158 33 -164T92 -171Q161 -171 221 -145T324 -70T378 45Q392 119 362 174T269
264T122 305L131 284L181 447L161 405Q214 409 270 409T385 410Q411 410 421 428Q423 459 427 490T439 546Q429 551 416 553T386 555Q382 535 370 518T318 500Q276 500 235 500T152 503L70 246Z" />
<glyph unicode="6" horiz-adv-x="537" d="M70 283Q90 387 153 465T309 588T508 638Q516 625 512 604Q349 574 267 494T162 289Q149 214 156 157T190 69T260 37Q301 37 332 72T374 165Q388 242 360 289T274 336Q236 336 209 328T152 300L162 344Q200 374 232 384T303
395Q395 395 440 337T466 182Q455 124 424 82T348 15T247 -9Q140 -9 92 69T70 283Z" />
<glyph unicode="7" horiz-adv-x="464" d="M447 503Q453 499 456 491T461 471Q407 393 370 339T309 247T269 184T242 136Q224 100 213 66T196 -10T186 -108Q167 -118 144 -136T109 -170Q96 -168 89 -157T81 -112Q81 -81 89 -49T116 25T169 122T256 253T383 430L398
411H237Q194 411 174 393T137 321Q123 320 109 322T84 330Q110 417 117 503Q160 501 211 501T297 500Q321 500 341 500T386 501T447 503Z" />
<glyph unicode="8" horiz-adv-x="511" d="M325 637Q386 637 422 616T471 562T477 490Q467 438 427 405T339 349L302 375Q339 396 361 420T390 482Q402 540 377 565T315 591Q284 591 260 575T227 523Q218 488 229 462T261 417T305 380Q329 362 356 339T406 284T438
214T436 127Q417 57 361 24T225 -9Q160 -9 115 11T51 71T44 169Q56 225 95 263T216 342L251 315Q195 287 167 253T131 172Q119 105 147 71T233 37Q273 37 301 56T341 121Q353 168 338 204T292 270T222 329Q198 348 173 373T135 434T133 514Q147 570 199 603T325
637Z" />
<glyph unicode="9" horiz-adv-x="534" d="M296 506Q369 506 414 470T474 370T471 217Q449 108 387 23T231 -112T24 -170Q20 -164 19 -155T17 -136Q104 -121 167 -89T273 -11T341 91T379 211Q400 328 372 394T283 460Q240 460 210 426T169 329Q161 283 167 241T199
171T275 144Q301 144 330 152T387 180L377 136Q341 108 309 97T239 85Q169 85 129 117T77 202T78 318Q97 405 153 455T296 506Z" />
<glyph unicode=":" horiz-adv-x="168" d="M308 24Q281 24 267 42T259 88Q263 108 278 121T315 135Q331 135 342 127T360 105T362 73Q358 51 344 38T308 24ZM111 320Q84 320 70 338T62 384Q66 404 81 417T118 431Q134 431 145 423T163 401T165 369Q161 347 147
334T111 320Z" />
<glyph unicode=";" horiz-adv-x="192" d="M97 103Q114 93 119 70T117 8Q108 -39 73 -90T-12 -181Q-24 -181 -32 -175T-46 -160Q-19 -134 2 -107T33 -56T34 -14T-5 12Q-5 27 -1 46T10 75Q31 77 56 85T97 103ZM135 320Q108 320 94 338T86 384Q90 404 105 417T142
431Q158 431 169 423T187 401T189 369Q185 347 171 334T135 320Z" />
<glyph unicode="&lt;" horiz-adv-x="550" d="M423 18Q332 77 241 132T67 234Q66 249 70 262T83 287L479 505Q491 500 498 491T511 465L122 260L441 67Q442 54 437 40T423 18Z" />
<glyph unicode="=" horiz-adv-x="550" d="M45 147Q45 158 48 174T55 197H482Q482 181 480 170T472 148Q433 149 404 149T344 149T271 149Q228 149 194 149T124 149T45 147ZM77 313Q77 324 80 339T88 362H513Q513 347 511 336T503 314Q464 315 435 315T376 315T303
315Q260 315 226 315T157 315T77 313Z" />
<glyph unicode="&gt;" horiz-adv-x="550" d="M62 14Q56 24 56 40T60 71L460 269L456 249L113 476Q124 488 135 495T161 506L494 277Q494 251 477 228Q397 191 332 158T203 91T62 14Z" />
<glyph unicode="?" horiz-adv-x="521" d="M206 671Q223 686 262 700T348 714Q423 714 460 674T485 569Q477 531 457 502T411 449T358 399T311 342T283 269Q280 257 279 236T279 201Q270 196 263 195T246 193Q233 204 226 238T227 315Q235 355 252 384T291 437T334
482T370 525T391 576Q399 617 386 645T333 673Q311 673 292 660T258 619T228 544Q212 544 203 546T184 554Q195 591 199 614T206 671ZM221 -8Q194 -8 180 10T172 56Q176 76 191 89T228 103Q244 103 255 95T273 73T275 41Q271 19 257 6T221 -8Z" />
<glyph unicode="@" horiz-adv-x="809" d="M480 660Q593 660 669 616T778 489T790 291Q779 227 754 173T694 77T615 14T524 -9Q490 -9 475 7T457 48T460 99T475 147H468L537 346L540 458Q556 457 574 459T603 467Q609 465 613 458T616 431T605 371L555 147Q547
109 547 91T552 69T569 64Q609 64 643 92T703 170T739 287Q758 391 730 465T634 579T467 619Q376 619 300 576T171 454T101 271Q78 143 108 47T212 -103T399 -157Q483 -157 554 -128T684 -53Q695 -55 701 -61T710 -78Q654 -133 573 -167T384 -202Q255 -202 169
-144T48 18T37 260Q58 380 120 470T275 610T480 660ZM555 454L538 400Q523 408 504 412T465 416Q404 416 369 369T318 248Q300 163 308 118T347 72Q365 72 396 103T458 194T509 336L528 416L575 409L520 196H494Q476 146 444 99T373 21T291 -9Q266 -9 248 3T220
41T210 107T221 202Q237 279 275 339T369 433T490 467Q507 467 526 463T555 454Z" />
<glyph unicode="A" horiz-adv-x="687" d="M-27 -3Q-27 8 -25 19T-19 40Q0 46 14 57T43 90T82 151Q120 216 158 281T233 412T307 544T381 676Q390 680 401 681T420 682Q446 591 470 500T518 316T564 132Q573 95 581 77T599 52T623 40Q626 29 626 19T626 -3Q610
-1 590 -1T550 0T515 0Q502 0 489 0T461 0T431 -1T401 -3Q401 8 403 19T409 40Q453 45 464 60T464 122Q445 204 425 285T381 447Q372 478 367 502T355 563H362Q345 527 332 501T299 440Q259 366 218 292T132 143Q109 104 104 84T109 54T147 40Q149 30 150 19T150
-3Q134 -1 119 -1T89 0T58 0Q32 0 14 0T-27 -3ZM161 215L183 265H446L449 219Q404 219 354 219T253 218T161 215Z" />
<glyph unicode="B" horiz-adv-x="601" d="M210 133Q203 92 206 73T228 48T283 42Q348 42 394 76T450 165Q468 255 427 293T269 331H232L240 376H281Q362 376 407 410T464 502Q478 570 444 603T342 636Q330 636 316 634T283 627L298 643L210 133ZM238 676Q274 676
310 677T380 679Q450 679 496 663T560 609T568 512Q558 456 511 416T397 366Q492 361 535 313T559 170Q549 119 514 81T423 21T293 0Q255 0 208 0T113 0T25 -3Q26 11 28 21T33 40Q64 45 79 54T103 83T117 143L189 554Q195 588 191 604T171 627T130 636Q128 647
128 657T128 679Q163 677 187 677T238 676Z" />
<glyph unicode="C" horiz-adv-x="635" d="M666 626Q653 592 646 555T633 475Q608 465 579 473Q588 544 576 580T534 630T461 644Q376 644 314 602T214 490T167 333Q159 259 177 195T242 91T368 52Q423 52 473 67T568 110Q576 103 579 93T584 72Q526 30 466 11T341
-9Q238 -9 172 36T77 157T61 328Q73 422 111 489T205 600T325 664T454 685Q517 685 566 671T666 626Z" />
<glyph unicode="D" horiz-adv-x="735" d="M392 679Q446 679 499 670T598 638T675 575T718 473T713 323Q701 257 675 205T609 115T519 51T408 13T279 0H175L183 45H283Q345 45 398 60T493 107T565 190T609 315Q627 408 614 470T565 568T478 620T367 636Q345 636
327 634T290 627L254 676Q289 676 324 677T392 679ZM128 679Q150 678 175 678T224 677T270 676T304 676L211 133Q205 96 207 77T227 52T283 45L279 0Q251 0 219 0T154 0T88 -1T25 -3Q26 9 28 20T33 40Q63 44 79 53T103 83T118 143L190 554Q196 588 191 604T171
627T130 637Q127 648 127 658T128 679Z" />
<glyph unicode="E" horiz-adv-x="583" d="M29 -3Q29 8 30 19T36 40Q66 44 81 53T105 83T119 143L188 540Q195 577 192 596T173 624T129 636Q128 646 128 656T128 679Q157 678 183 678T231 677T272 676T304 676L213 143Q206 101 209 80T230 52T286 45L280 0Q244
0 211 0T148 0T88 -1T29 -3ZM488 -3Q459 -1 428 -1T361 0T280 0L286 45H305Q367 45 401 60T456 103T497 172Q511 170 522 165T542 150Q526 119 512 80T488 -3ZM448 221Q434 223 423 225T402 234Q405 268 397 286T367 311T303 319H234L242 364H307Q369 364 397 380T433
446Q446 448 457 448T481 447Q475 422 470 399T460 336Q455 300 453 273T448 221ZM525 509Q524 552 516 579T478 618T383 631H276L304 676Q350 676 394 676T484 677T582 679Q578 642 576 597T575 516Q556 508 525 509Z" />
<glyph unicode="F" horiz-adv-x="539" d="M212 142Q205 104 206 84T225 55T283 40Q286 30 286 21T286 -3Q249 -1 221 -1T159 0Q122 0 92 0T28 -3Q29 22 36 40Q66 45 81 53T104 80T117 132L187 539Q193 573 191 593T175 623T130 636Q128 646 128 657T128 679Q151
678 176 677T233 676T303 676L212 142ZM576 679Q572 642 570 597T569 516Q550 508 519 509Q518 552 510 579T472 618T377 631H275L303 676Q347 676 390 676T479 677T576 679ZM430 426Q443 428 454 428T478 427Q472 402 467 379T457 316Q452 280 450 253T445 201Q431
203 420 205T399 214Q403 264 383 281T300 299H216L224 342H304Q366 342 394 359T430 426Z" />
<glyph unicode="G" horiz-adv-x="693" d="M463 685Q540 685 595 671T697 626Q684 591 677 556T664 476Q651 471 638 471T610 474Q618 548 603 584T555 632T471 644Q383 644 319 605T216 495T168 333Q162 278 168 226T196 132T258 65T359 40Q389 40 413 43T463
56Q478 62 486 70T500 97T512 151Q523 210 523 237T506 273T452 284Q450 295 450 306T451 327Q484 325 513 325T574 324Q605 324 629 324T691 327Q690 314 688 304T682 284Q661 282 649 274T628 240T610 161Q603 121 602 101T606 66Q558 35 487 13T331 -9Q232 -9
168 34T76 154T61 328Q73 423 112 490T207 601T329 664T463 685Z" />
<glyph unicode="H" horiz-adv-x="756" d="M428 -3Q428 10 430 21T436 40Q463 43 478 50T501 76T515 127L588 549Q594 583 590 600T571 625T528 636Q527 646 527 656T527 679Q555 678 585 677T647 676Q679 676 709 677T769 679Q768 667 767 657T760 636Q735 632
720 624T697 599T682 549L609 127Q603 94 606 76T624 51T668 40Q670 31 671 20T670 -3Q640 -1 609 -1T549 0Q520 0 487 0T428 -3ZM29 -3Q29 10 31 21T37 40Q64 43 79 50T102 76T116 127L189 549Q195 583 191 600T172 625T129 636Q128 646 128 656T128 679Q156 678
186 677T248 676Q280 676 310 677T370 679Q369 667 368 657T361 636Q336 632 321 624T298 599T283 549L210 127Q204 94 207 76T225 51T269 40Q271 31 272 20T271 -3Q241 -1 210 -1T150 0Q121 0 88 0T29 -3ZM231 319L240 368H575L567 325Q537 325 493 325T400 325T307
323T231 319Z" />
<glyph unicode="I" horiz-adv-x="357" d="M189 549Q195 583 191 600T172 625T129 636Q128 646 128 656T128 679Q156 678 186 677T248 676Q280 676 310 677T370 679Q369 667 368 657T361 636Q336 632 321 624T298 599T283 549L210 127Q204 94 207 76T225 51T269
40Q271 31 272 20T271 -3Q241 -1 210 -1T150 0Q121 0 88 0T29 -3Q29 10 31 21T37 40Q64 43 79 50T102 76T116 127L189 549Z" />
<glyph unicode="J" horiz-adv-x="306" d="M108 679Q129 677 161 677T224 676Q252 676 271 676T309 677T351 679Q350 654 343 636Q316 632 301 624T277 597T262 544L188 120Q176 50 161 -3T119 -100T48 -179T-66 -249Q-73 -244 -76 -235T-82 -215Q-40 -186 -8 -152T47
-71T80 39L170 554Q175 583 173 599T156 623T110 636Q107 646 107 656T108 679Z" />
<glyph unicode="K" horiz-adv-x="640" d="M128 679Q156 678 186 677T248 676Q280 676 310 677T370 679Q369 667 368 657T361 636Q336 632 321 624T298 599T283 549L210 127Q204 94 206 76T221 51T259 40Q261 31 262 20T261 -3Q241 -2 223 -2T188 -1T150 0Q121
0 88 0T29 -3Q29 10 31 21T37 40Q64 43 79 50T102 76T116 127L189 549Q195 583 191 600T172 625T129 636Q128 646 128 656T128 679ZM473 679Q503 677 526 677T582 676Q601 676 615 676T645 677T680 679Q680 670 680 658T675 636Q647 632 625 625T579 599T517 547L322
363L323 378Q367 333 404 275T480 133Q496 98 509 86T537 74Q547 74 554 77T571 90Q581 85 588 77T601 58Q575 26 549 9T485 -9Q454 -7 434 12T396 77Q360 171 323 234T239 347L449 546Q484 579 495 597T502 624T477 636Q475 647 474 658T473 679Z" />
<glyph unicode="L" horiz-adv-x="545" d="M25 -3Q26 8 27 19T32 40Q62 43 78 52T102 83T116 143L188 554Q194 586 190 602T171 625T130 636Q128 646 128 657T128 679Q156 677 185 677T246 676Q277 676 311 676T375 678Q375 666 373 655T367 636Q337 633 320 624T295
596T280 541L209 133Q203 96 205 77T226 52T281 45H287Q343 45 376 57T433 97T480 172Q494 170 504 165T524 150Q508 119 495 80T471 -3Q452 -1 421 -1T352 0T279 0Q251 0 219 0T153 0T88 -1T25 -3Z" />
<glyph unicode="M" horiz-adv-x="883" d="M364 -9Q332 126 294 262T213 535H222Q208 474 193 414T163 299T135 198Q118 136 116 105T129 60T177 40Q179 30 179 19T179 -3Q148 -1 122 -1T76 0Q53 0 31 0T-27 -3Q-27 7 -25 18T-19 40Q8 47 24 60T53 104T82 190Q99
249 115 307T147 426T176 546Q184 582 182 600T167 626T126 636Q124 648 124 658T125 679Q140 678 153 677T178 676T202 676Q222 676 238 676T274 679Q319 534 359 389T433 100H416Q501 241 581 386T739 679Q761 677 775 677T804 676Q819 676 838 676T877 679Q877
668 876 658T870 636Q844 633 829 624T807 592T797 530Q791 424 785 332T770 163Q765 114 768 90T784 56T820 40Q822 30 822 19T822 -3Q800 -1 767 -1T700 0Q664 0 635 0T580 -3Q580 8 582 19T588 40Q621 45 638 56T662 92T674 160Q682 247 689 342T701 539H716Q643
403 565 265T405 -4Q395 -8 385 -8T364 -9Z" />
<glyph unicode="N" horiz-adv-x="675" d="M31 40Q56 44 72 56T100 96T119 172L196 610H247L172 182Q163 129 164 100T180 59T226 40Q229 30 229 20T228 -3Q198 -1 169 -1T119 0Q96 0 77 0T24 -3Q25 21 31 40ZM128 679Q143 678 157 677T188 676Q208 676 226 677T257
679Q332 545 406 403T548 124L510 -9Q432 149 353 299T188 603Q178 623 166 628T130 636Q127 646 127 657T128 679ZM532 679Q554 677 579 677T623 676Q646 676 673 676T720 679Q720 670 718 658T712 636Q690 630 677 616T654 572T636 489L551 -4Q543 -7 532 -8T510
-9L516 94L587 499Q596 552 594 579T578 619T533 636Q532 646 532 656T532 679Z" />
<glyph unicode="O" horiz-adv-x="741" d="M347 -9Q247 -9 177 39T77 174T69 375Q81 440 114 496T196 595T306 661T436 685Q533 685 604 641T707 509T714 296Q698 212 648 143T520 32T347 -9ZM365 35Q431 35 481 69T565 161T612 294Q631 396 610 474T539 596T417
641Q357 641 307 606T222 512T173 382Q160 311 166 249T196 138T263 63T365 35Z" />
<glyph unicode="P" horiz-adv-x="566" d="M28 -3Q29 10 31 21T36 40Q66 45 81 53T104 80T117 132L190 554Q195 583 192 599T174 624T130 636Q125 657 128 679Q147 678 173 677T225 676T269 676Q289 676 329 677T406 679Q515 679 562 620T589 455Q578 393 542 347T450
276T328 251Q306 251 290 254T263 263Q262 271 265 284T272 303Q282 300 295 298T323 296Q391 296 434 335T493 452Q510 539 479 587T359 635Q341 635 323 633T283 625L299 650L212 142Q205 104 206 84T225 55T283 40Q286 30 286 21T286 -3Q249 -1 221 -1T159 0Q122
0 92 0T28 -3Z" />
<glyph unicode="Q" horiz-adv-x="741" d="M347 -9Q247 -9 177 39T77 174T69 375Q81 440 114 496T196 595T306 661T436 685Q533 685 604 641T707 509T714 296Q698 212 648 143T520 32T347 -9ZM365 35Q431 35 481 69T565 161T612 294Q631 396 610 474T539 596T417
641Q357 641 307 606T222 512T173 382Q160 311 166 249T196 138T263 63T365 35ZM633 -219Q593 -219 561 -201T498 -134Q468 -85 433 -51T337 -9L422 15Q456 8 488 -8T551 -45T610 -93Q642 -122 658 -129T691 -136Q700 -135 708 -131T721 -120Q731 -124 738 -133T749
-153Q742 -166 725 -181T685 -208T633 -219Z" />
<glyph unicode="R" horiz-adv-x="640" d="M397 679Q460 679 507 658T576 596T587 493Q579 449 554 414T486 355T375 319L298 305Q280 304 264 304T236 306L240 354Q254 352 266 352T289 351Q348 351 389 368T454 415T487 487Q502 563 468 599T371 636Q354 636
332 634T291 626L298 644L209 122Q204 89 206 73T221 50T258 40Q260 30 260 19T260 -3Q235 -1 217 -1T183 0T144 0Q110 0 84 0T29 -3Q29 8 31 19T37 40Q66 43 81 52T103 80T117 132L190 554Q195 583 191 600T172 625T129 636Q127 647 127 657T128 679Q165 677 193
677T256 676Q294 676 334 677T397 679ZM358 344Q380 318 396 294T428 237T465 152Q482 110 498 92T527 74Q537 74 544 77T561 90Q571 85 578 77T591 58Q565 26 539 9T475 -9Q447 -9 429 6T399 49T375 116Q360 165 344 203T310 273T269 336L358 344Z" />
<glyph unicode="S" horiz-adv-x="460" d="M209 -9Q158 -9 121 0T55 25T2 63Q13 98 21 133T31 202Q43 207 58 207T85 204Q80 116 107 78T211 39Q255 39 287 66T328 136Q336 179 319 209T271 264T204 313T137 366T91 436T85 535Q93 581 120 614T193 666T298 685Q350
685 389 672T454 638Q449 604 446 574T443 509Q418 499 388 504Q387 582 361 610T291 639Q242 639 212 617T173 541Q168 507 181 480T218 431T273 388T334 344T387 294T422 233T425 153Q417 105 386 69T309 12T209 -9Z" />
<glyph unicode="T" horiz-adv-x="545" d="M242 637Q187 637 160 608T110 510Q95 510 83 512T63 524Q70 545 77 572T90 627T99 679Q127 678 166 677T253 676T350 676Q402 676 451 676T541 677T609 679Q603 644 600 604T596 521Q585 515 574 514T548 513Q547 582
527 609T445 637H242ZM303 649H397L305 122Q300 94 302 78T321 53T372 40Q374 30 375 20T374 -3Q343 -1 310 -1T246 0Q213 0 178 0T115 -3Q115 11 117 22T122 41Q155 45 172 53T198 80T213 132L303 649Z" />
<glyph unicode="U" horiz-adv-x="635" d="M301 -9Q174 -9 126 61T99 256L150 554Q156 585 154 601T142 625T109 636Q107 645 107 656T108 679Q143 677 166 677T219 676Q251 676 276 676T339 679Q338 667 337 657T330 636Q299 633 283 626T258 600T242 544L193
260Q173 145 210 95T321 44Q395 44 443 96T509 246L556 514Q564 557 562 580T545 615T502 636Q500 647 500 657T501 679Q533 677 556 677T600 676Q624 676 645 676T700 679Q700 667 698 657T691 636Q670 629 656 621T633 600T618 563T605 504L561 255Q545 165 512
107T426 20T301 -9Z" />
<glyph unicode="V" horiz-adv-x="655" d="M102 679Q125 678 143 677T179 676T217 676Q239 676 258 676T298 677T342 679Q342 670 340 658T333 635Q298 631 281 623T262 593T273 523Q299 427 323 328T371 119L358 127Q416 225 468 322T570 522Q589 562 594 583T588
616T540 636Q536 655 539 679Q560 677 580 677T630 676Q655 676 675 676T724 679Q724 657 715 636Q700 629 688 618T660 582T621 510Q557 384 488 258T342 0Q335 -5 324 -6T301 -6Q279 92 256 188T211 371T170 529Q159 572 150 593T131 624T103 637Q101 647 101
657T102 679Z" />
<glyph unicode="W" horiz-adv-x="962" d="M102 679Q128 678 147 677T183 676T213 676Q230 676 249 676T289 677T328 679Q328 668 327 657T321 635Q284 629 268 619T249 588T254 525Q264 466 275 397T298 256T318 121H300Q371 256 438 396T571 678Q588 686 614
683Q637 598 658 503T697 313T729 128H709Q757 221 799 313T880 499Q901 551 905 577T897 616T848 636Q844 656 847 679Q867 677 889 677T937 676Q962 676 987 676T1032 679Q1032 657 1023 636Q1007 629 994 615T964 572T924 486Q872 365 816 244T697 0Q688 -4
677 -5T656 -5Q644 81 626 179T587 374T543 555H563Q499 416 429 275T286 0Q281 -3 274 -4T258 -6T243 -6Q221 150 199 284T156 529Q148 575 142 596T128 624T105 637Q102 647 102 657T102 679Z" />
<glyph unicode="X" horiz-adv-x="617" d="M316 -3Q316 8 318 19T325 41Q357 46 370 55T380 86T359 152Q335 214 308 275T252 398T191 524Q167 573 155 595T132 624T104 637Q102 648 102 658T103 679Q130 678 149 677T185 676T219 676Q239 676 257 676T297 677T343
679Q343 669 341 658T334 635Q283 627 276 606T296 525Q326 463 354 401T409 276T462 149Q481 103 494 82T522 53T555 39Q557 29 557 20T556 -3Q527 -1 508 -1T472 0T436 0Q415 0 393 0T351 0T316 -3ZM-11 -3Q-11 19 -2 40Q16 45 33 54T71 84T126 142Q170 191 211
242T293 346L317 300Q286 257 256 220T194 143Q156 95 160 72T197 40Q199 29 199 19T198 -3Q166 -1 143 -1T93 0Q64 0 41 0T-11 -3ZM370 319L343 360Q372 396 404 438T463 518Q492 561 499 584T497 619T463 636Q459 657 462 679Q486 677 506 677T547 676Q571 676
596 676T647 679Q647 670 645 659T638 636Q619 634 605 625T571 590T519 517Q484 467 447 418T370 319Z" />
<glyph unicode="Y" horiz-adv-x="582" d="M285 224Q261 307 234 386T174 541Q158 581 148 599T128 625T103 637Q101 648 101 657T102 679Q121 678 139 677T176 676T213 676Q233 676 252 676T293 677T339 679Q339 667 337 657T330 635Q281 628 268 613T271 556Q295
495 315 430T354 297L338 305Q377 358 413 413T487 531Q516 582 515 605T468 636Q464 655 467 679Q492 677 513 677T563 676Q587 676 607 676T652 679Q652 657 643 636Q632 632 621 625T594 600T553 543Q492 446 440 371T332 224H285ZM150 -3Q150 11 152 22T157
41Q190 47 207 55T233 81T248 132L274 280H368L340 122Q335 94 337 78T356 54T407 40Q409 30 410 20T409 -3Q378 -1 345 -1T281 0Q248 0 213 0T150 -3Z" />
<glyph unicode="Z" horiz-adv-x="540" d="M-13 -3Q-17 5 -20 15T-22 38Q62 139 142 240T300 444T453 651L463 632H307Q263 632 234 623T182 586T138 503Q105 506 86 522Q95 542 103 568T118 623T129 679Q170 678 205 677T277 676T361 676Q395 676 425 676T488
677T560 679Q573 664 573 638Q495 532 417 429T258 224T94 21L87 45H259Q305 45 336 49T387 67T424 105T459 172Q490 166 509 148Q501 128 493 103T477 51T465 -3Q417 -1 376 -1T294 0T208 0Q161 0 126 0T59 0T-13 -3Z" />
<glyph unicode="[" horiz-adv-x="291" d="M151 742Q174 741 209 741T281 740T342 742Q347 735 348 725T347 704Q293 700 263 693T219 668T198 610L65 -147Q60 -178 67 -195T99 -220T173 -229Q182 -247 173 -269Q159 -268 133 -268T75 -267T17 -267T-27 -269L151 742Z" />
<glyph unicode="\" horiz-adv-x="292" d="M94 709Q119 720 144 715L247 0Q237 -5 224 -7T198 -8Q183 112 166 231T132 470T94 709Z" />
<glyph unicode="]" horiz-adv-x="290" d="M142 -269Q116 -267 78 -267T4 -266T-57 -269Q-58 -259 -56 -248T-47 -229Q4 -227 32 -221T73 -200T92 -157L227 610Q234 649 227 667T194 693T114 704Q114 715 117 725T127 742Q152 741 188 741T261 740T320 742L142 -269Z" />
<glyph unicode="^" horiz-adv-x="499" d="M314 685Q328 694 341 695T365 694Q382 653 404 601T449 497T493 404Q486 399 474 396T451 394L338 651Q297 608 254 560T170 467T95 383Q80 401 80 430L314 685Z" />
<glyph unicode="_" horiz-adv-x="550" d="M-35 -143Q-35 -127 -33 -115T-23 -92H451Q451 -102 448 -118T439 -142Q384 -141 346 -141T273 -141T196 -141Q159 -141 125 -141T53 -142T-35 -143Z" />
<glyph unicode="`" horiz-adv-x="300" d="M251 706Q258 664 268 623T295 536Q288 533 276 533T255 538Q237 578 211 624T158 704Q178 712 203 713T251 706Z" />
<glyph unicode="a" horiz-adv-x="473" d="M408 467Q414 465 418 458T421 431T410 371L360 147Q349 92 349 76T366 60Q378 60 390 67T422 90Q429 83 433 76T440 59Q415 31 386 11T324 -9Q296 -9 282 5T264 40T262 83T271 123Q275 133 281 149T295 181T306 205L342
346L345 458Q361 457 379 459T408 467ZM360 454L343 400Q328 408 309 412T270 416Q209 416 174 369T123 248Q105 163 113 118T152 72Q170 72 201 103T263 194T314 336L333 416L380 409L325 196H299Q281 146 249 99T178 21T96 -9Q71 -9 53 3T25 41T15 107T26 202Q42
279 80 339T174 433T295 467Q312 467 331 463T360 454Z" />
<glyph unicode="b" horiz-adv-x="442" d="M207 710Q223 705 228 690T228 646Q215 574 206 524T190 438T175 375T160 321T142 262L89 79L145 -9Q97 -9 65 3T8 41Q22 62 36 111T61 217L117 534Q126 581 126 601T112 626T66 631Q65 641 66 651T72 669Q103 674 141
685T207 710ZM82 4L99 58Q114 50 133 46T172 42Q234 42 269 89T319 210Q337 295 329 340T290 386Q273 386 242 355T179 264T128 122L109 42L62 49L117 262H143Q162 313 193 360T264 437T346 467Q371 467 389 455T417 417T427 352T416 256Q401 179 362 119T268 25T147
-9Q131 -9 112 -5T82 4Z" />
<glyph unicode="c" horiz-adv-x="364" d="M138 -9Q93 -9 67 12T31 70T21 149T33 237Q44 286 64 328T112 401T178 449T264 467Q291 467 316 461T357 443Q349 418 343 390T334 335Q315 326 286 331Q290 381 278 399T238 418Q202 418 179 393T142 330T121 250Q116
219 114 186T117 124T139 78T187 60Q216 60 244 76T296 118Q304 113 308 106T317 90Q277 38 230 15T138 -9Z" />
<glyph unicode="d" horiz-adv-x="482" d="M330 -9Q295 -9 281 11T266 62T274 120Q277 131 282 147T294 178T304 200L338 406Q334 431 336 460T346 534Q354 583 354 603T341 627T295 631Q294 641 295 651T301 669Q317 671 343 677T396 693T436 710Q452 705 457
690T457 646L375 177Q366 124 363 99T362 67T374 60Q386 60 399 67T431 90Q438 83 442 76T449 59Q424 31 394 11T330 -9ZM360 454L343 400Q328 408 309 412T270 416Q209 416 174 369T123 248Q105 163 113 118T152 72Q170 72 201 103T263 194T314 336L333 416L380
409L325 196H299Q281 146 249 99T178 21T96 -9Q71 -9 53 3T25 41T15 107T26 202Q42 279 80 339T174 433T295 467Q312 467 331 463T360 454Z" />
<glyph unicode="e" horiz-adv-x="365" d="M132 -9Q89 -9 65 12T30 67T20 141T29 221Q46 305 82 359T163 440T254 467Q293 467 316 451T348 409T350 356Q343 323 317 296T256 248T182 217T112 203L115 240Q171 244 215 270T269 343Q275 374 264 395T228 416Q196
416 166 373T120 241Q113 200 114 159T131 90T185 63Q209 63 235 76T286 119Q294 114 299 107T307 90Q276 48 232 20T132 -9Z" />
<glyph unicode="f" horiz-adv-x="294" d="M360 714Q398 714 424 707T464 689Q457 674 452 656T443 620T438 582Q433 579 426 577T412 575T396 574Q395 608 387 628T365 658T330 668Q307 668 290 651T257 586T223 448Q201 335 188 249T167 118Q154 38 133 -29T84
-145T22 -221T-54 -248Q-76 -248 -99 -239T-143 -212Q-144 -196 -142 -181T-136 -152Q-113 -159 -85 -163T-25 -168Q-8 -168 4 -162T27 -135T47 -67T69 59Q82 142 93 236T125 454Q136 521 159 570T214 651T283 698T360 714ZM57 448H137L129 402Q110 404 88 406T46
409Q46 420 49 430T57 448ZM219 448H322Q322 438 321 428T315 409Q286 409 259 407T211 401L219 448Z" />
<glyph unicode="g" horiz-adv-x="444" d="M119 -248Q86 -248 54 -236T-8 -201Q-10 -182 -8 -167T0 -138Q27 -147 54 -154T110 -164T164 -168Q181 -168 193 -163T215 -138T235 -72T257 53Q261 76 271 110T294 178L304 206L340 388L332 457Q351 457 370 459T402
467Q411 463 414 452T412 411L361 118Q347 39 324 -28T270 -144T201 -221T119 -248ZM360 454L343 400Q328 408 309 412T270 416Q209 416 174 369T123 248Q105 163 113 118T152 72Q170 72 201 103T263 194T314 336L333 416L380 409L325 196H299Q281 146 249 99T178
21T96 -9Q71 -9 53 3T25 41T15 107T26 202Q42 279 80 339T174 433T295 467Q312 467 331 463T360 454Z" />
<glyph unicode="h" horiz-adv-x="497" d="M23 0L117 534Q126 581 126 601T112 626T66 631Q65 641 66 651T72 669Q103 674 141 685T207 710Q223 705 228 690T228 646Q215 574 206 524T190 438T175 375T160 321T142 262L160 261L114 0H23ZM353 467Q369 467 387 459T418
431T434 372T423 275L394 153Q384 108 380 89T379 64T390 59Q401 59 417 68T446 90Q454 83 458 76T464 58Q431 24 404 8T349 -9Q310 -9 297 10T287 66T302 152L329 271Q341 322 341 348T333 384T314 394Q296 394 271 375T219 321T170 238T137 130L129 230L167 311Q179
335 199 362T245 413T299 452T353 467Z" />
<glyph unicode="i" horiz-adv-x="247" d="M100 -9Q67 -9 51 9T34 59T45 135L86 279Q101 330 103 353T93 382T46 388Q45 399 46 408T52 426Q68 428 90 435T134 451T167 467Q198 454 204 424T194 331L139 138Q125 89 127 75T144 61Q154 61 167 68T196 90Q204 85
208 77T214 58Q185 27 157 9T100 -9ZM187 577Q163 577 152 593T145 636Q151 664 169 680T210 697Q235 697 247 681T253 636Q248 610 230 594T187 577Z" />
<glyph unicode="j" horiz-adv-x="233" d="M-104 -249Q-118 -237 -119 -216Q-47 -165 -8 -100T48 51L97 314Q103 345 102 360T87 382T42 388Q41 398 42 407T48 426Q64 428 87 434T133 450T167 467Q184 459 192 447T201 406T189 319L143 74Q131 12 112 -37T62 -125T-9
-194T-104 -249ZM182 577Q158 577 147 593T140 636Q146 664 164 680T205 697Q230 697 242 681T248 636Q243 610 225 594T182 577Z" />
<glyph unicode="k" horiz-adv-x="463" d="M23 0L117 534Q125 581 125 601T112 626T66 631Q65 641 66 651T72 669Q103 674 141 685T207 710Q223 705 228 689T228 646Q214 564 204 511T186 422T172 362T157 309H158Q179 354 206 389T268 446T341 467Q392 467 415
435T430 360Q421 317 384 285T289 228T158 186L135 199L142 218Q223 236 273 265T332 342Q337 365 330 383T301 401Q278 401 249 377T194 311T151 213Q149 200 146 179T141 153L114 0H23ZM312 -9Q275 -9 257 16T216 83Q207 101 195 120T170 159T142 197L220 227Q236
212 247 198T272 163T307 107Q325 78 336 70T359 62Q373 62 384 68T411 91Q418 85 423 77T430 59Q407 34 378 13T312 -9Z" />
<glyph unicode="l" horiz-adv-x="250" d="M104 -9Q69 -9 52 11T36 72Q36 87 37 103T43 148T57 224T81 347T118 534Q127 580 127 600T113 626T67 631Q67 642 68 652T73 669Q89 671 115 677T168 693T208 710Q224 705 229 689T229 646Q209 533 189 428T148 224Q134
153 131 118T133 72T148 61Q158 61 170 67T199 90Q207 83 211 76T217 60Q193 32 163 12T104 -9Z" />
<glyph unicode="m" horiz-adv-x="770" d="M616 -9Q584 -9 571 7T560 59T574 152L600 266Q616 335 613 364T587 394Q564 394 529 365T460 277T409 130L384 0H294L340 225Q355 295 357 331T354 380T333 394Q309 394 275 363T209 274T160 130L135 0H44L99 291Q108
338 108 358T93 383T47 388Q46 397 47 407T53 426Q69 428 95 434T147 450T187 467Q203 462 208 446T208 402Q200 359 192 331T172 278H173L188 311Q198 333 217 359T262 410T316 450T372 466Q394 466 413 455T442 418T445 352Q442 335 437 316T423 278H424L439
311Q449 334 469 360T517 411T573 451T631 467Q681 467 699 414T694 270L664 153Q653 111 650 91T650 66T663 60Q677 60 689 67T720 90Q728 83 732 76T737 58Q706 23 677 7T616 -9Z" />
<glyph unicode="n" horiz-adv-x="518" d="M42 0L97 291Q106 338 106 358T92 383T46 388Q46 399 47 409T52 426Q68 428 94 434T147 450T188 467Q204 462 209 446T209 402Q201 359 192 331T172 278L158 130L133 0H42ZM374 467Q390 467 408 459T439 431T455 372T444
275L415 153Q405 108 401 89T400 64T411 59Q422 59 438 68T467 90Q475 83 479 76T485 58Q452 24 425 8T370 -9Q331 -9 318 10T308 66T323 152L350 271Q362 322 362 348T354 384T335 394Q317 394 292 375T240 321T191 238T158 130L150 230L188 311Q200 335 220 362T266
413T320 452T374 467Z" />
<glyph unicode="o" horiz-adv-x="455" d="M180 -9Q120 -9 82 22T31 108T31 230Q45 301 80 354T166 437T276 467Q335 467 372 438T424 357T426 238Q414 167 379 111T292 23T180 -9ZM193 39Q223 39 249 64T296 131T327 228Q343 311 325 365T261 419Q218 419 182
370T130 240Q119 182 123 137T145 65T193 39Z" />
<glyph unicode="p" horiz-adv-x="467" d="M3 -245L97 289Q106 336 106 356T92 381T46 386Q46 397 47 407T52 424Q68 426 94 432T147 448T187 465Q203 460 208 445T208 401Q205 381 201 362T190 324T176 286L164 256L123 26Q128 -1 128 -29T117 -114L94 -245H3ZM108
5L125 59Q140 51 159 47T198 43Q260 43 295 90T345 211Q363 296 355 341T316 387Q299 387 268 356T205 265T154 123L135 43L88 50L143 263H169Q188 314 219 361T290 438T372 468Q397 468 415 456T443 418T453 353T442 257Q427 180 388 120T294 26T173 -8Q157 -8
138 -4T108 5Z" />
<glyph unicode="q" horiz-adv-x="458" d="M340 388L297 467Q345 467 377 455T434 417Q421 396 406 347T381 241L296 -242H205L257 53Q261 76 271 110T294 178L303 203L340 388ZM360 454L343 400Q328 408 309 412T270 416Q209 416 174 369T123 248Q105 163 113
118T152 72Q170 72 201 103T263 194T314 336L333 416L380 409L325 196H299Q281 146 249 99T178 21T96 -9Q71 -9 53 3T25 41T15 107T26 202Q42 279 80 339T174 433T295 467Q312 467 331 463T360 454Z" />
<glyph unicode="r" horiz-adv-x="375" d="M188 467Q204 462 208 447T208 403Q204 378 193 345T164 271H166L183 308Q206 355 227 391T273 447T326 467Q355 467 377 449Q368 421 362 391T353 333Q344 329 332 327T304 325Q306 360 303 371T293 383Q283 383 265
364T221 297Q205 266 183 210T148 89L131 0H39L95 291Q104 338 104 358T92 383T46 388Q46 399 47 409T53 426Q69 428 95 434T148 450T188 467Z" />
<glyph unicode="s" horiz-adv-x="368" d="M222 467Q259 467 294 458T351 435Q334 384 332 327Q322 322 310 320T283 318Q283 377 266 398T215 420Q186 420 171 409T151 380Q146 359 157 340T188 303T230 264T272 221T300 167T302 99Q295 63 274 39T222 3T150 -9Q104
-9 68 3T11 30Q20 62 23 89T28 139Q51 150 76 148Q74 99 91 68T156 37Q186 37 202 48T223 78Q228 103 213 125T172 171T122 222T83 284T78 362Q85 396 103 419T152 454T222 467Z" />
<glyph unicode="t" horiz-adv-x="322" d="M152 -9Q110 -9 88 12T62 79T75 196L135 458Q146 504 153 539T161 596Q181 599 203 605T240 620Q248 616 251 606T251 572T236 497L167 203Q155 148 155 115T164 68T190 53Q207 53 227 66T264 98Q272 94 278 85T285 66Q272
49 251 32T204 3T152 -9ZM131 402Q112 404 90 406T48 409Q48 420 51 430T59 448H139L131 402ZM207 401L215 448H338Q338 438 337 428T331 409Q287 409 257 407T207 401Z" />
<glyph unicode="u" horiz-adv-x="508" d="M128 -9Q94 -9 78 12T58 67T60 143T76 225Q91 285 97 318T101 366T85 384T47 388Q46 397 47 407T52 426Q67 428 93 434T146 450T185 467Q196 460 201 452T206 420T194 350T163 218Q151 168 149 134T154 82T180 65Q199
65 232 94T298 184T348 337L371 458H462L413 210Q399 140 394 108T392 68T407 60Q425 60 456 91Q463 85 467 77T475 59Q451 31 421 11T363 -9Q333 -9 317 5T298 45T300 103Q302 115 306 127T316 151H314Q302 126 283 99T238 47T185 7T128 -9Z" />
<glyph unicode="v" horiz-adv-x="466" d="M381 468Q409 458 424 434T439 365Q439 326 418 276T342 156T192 -9Q179 -10 167 -8T144 0Q138 93 125 179T96 326Q87 362 75 376T24 388Q24 392 25 405T29 426Q46 428 65 435T101 450T129 467Q148 461 157 450T172 418T185
356Q195 306 203 253T216 151T224 66H215Q283 145 316 208T349 309Q349 348 335 365T288 387Q280 404 282 424Q300 429 319 437T356 453T381 468Z" />
<glyph unicode="w" horiz-adv-x="694" d="M129 467Q148 461 157 450T172 418T185 356Q195 306 203 253T216 151T224 66H212Q266 127 294 181T326 296T309 435Q345 445 364 467Q380 463 388 455T403 424T419 357Q430 308 439 254T456 152T466 67H454Q520 147 548
208T577 307Q577 346 562 364T513 387Q509 395 508 404T507 424Q525 429 544 436T581 452T606 467Q634 457 650 433T666 363Q666 325 648 276T580 158T435 -9Q422 -10 410 -8T387 0Q383 53 378 101T366 190T351 265L376 281Q365 238 352 204T318 138T267 70T192
-9Q179 -10 167 -8T144 0Q138 93 125 179T96 326Q87 362 75 376T24 388Q24 392 25 405T29 426Q46 428 65 435T101 450T129 467Z" />
<glyph unicode="x" horiz-adv-x="464" d="M167 467Q182 464 189 454T204 414Q212 383 220 353T236 294L246 259Q261 210 275 169T302 99Q313 74 322 67T342 60Q353 60 365 67T397 91Q404 84 408 76T415 59Q391 31 361 11T301 -9Q269 -9 253 2T226 40Q214 68 203
99T181 162L170 196Q159 231 150 265T133 330Q125 365 107 377T51 388Q50 399 51 408T56 426Q73 428 95 435T137 450T167 467ZM392 467Q411 467 424 463T448 449Q438 427 431 394T421 333Q404 323 379 325Q378 369 372 380T354 392Q340 392 323 373T288 322T255
256T231 188L201 229Q210 256 229 296T273 375T329 440T392 467ZM-4 120Q4 125 16 127T40 129Q42 94 47 85T63 76Q80 76 104 104T151 176T188 270L218 229Q209 202 190 162T146 83T90 18T27 -9Q9 -9 -1 -6T-22 5Q-17 20 -13 39T-7 80T-4 120Z" />
<glyph unicode="y" horiz-adv-x="453" d="M125 467Q141 462 150 454T165 427T178 372Q195 281 205 201T217 35L144 -100Q141 -13 134 67T116 213T92 326Q82 362 71 376T20 388Q19 399 20 408T25 426Q42 428 61 435T97 450T125 467ZM377 468Q405 458 418 437T431
389Q431 358 420 320T385 237T327 137T247 17Q187 -70 146 -122T76 -202T22 -239T-28 -248Q-50 -248 -73 -239T-117 -212Q-118 -196 -116 -181T-110 -152Q-87 -159 -60 -163T-9 -168Q11 -168 31 -160T78 -127T139 -57T226 64Q264 121 289 172T327 264T340 333Q340
354 329 368T284 387Q276 404 278 424Q296 429 315 437T352 453T377 468Z" />
<glyph unicode="z" horiz-adv-x="398" d="M5 -9Q0 -1 -3 9T-5 31Q101 126 182 217T309 381L311 374Q292 378 270 379T221 381Q183 381 161 376T125 358T96 322Q84 322 75 327T59 339Q74 366 85 397T101 458Q132 460 165 461T234 462Q269 462 304 461T369 458Q381
442 383 422Q349 363 302 298T198 171T82 53L88 70Q117 82 140 84T185 84T231 81Q265 81 279 92T309 135Q320 136 332 133T352 123Q342 98 334 68T323 9Q316 0 298 -4T238 -9Q186 -9 148 -5T74 0Q58 0 41 -2T5 -9Z" />
<glyph unicode="{" horiz-adv-x="336" d="M384 742Q387 735 387 726T386 708Q334 698 308 673T271 612T260 535T256 451T241 370T199 303T111 259Q157 245 178 220T205 161T204 89T188 10T169 -68T160 -140T174 -199T224 -238Q224 -247 222 -256T214 -271Q160
-251 133 -222T97 -158T91 -83T102 -3T118 76T125 147T109 205T55 244Q55 253 57 261T66 276Q108 291 130 315T161 371T172 439T177 512T187 584T216 650T277 705T384 742Z" />
<glyph unicode="|" horiz-adv-x="141" d="M-45 -246L139 711Q162 724 191 717Q139 467 94 230T5 -238Q-7 -245 -19 -246T-45 -246Z" />
<glyph unicode="}" horiz-adv-x="342" d="M125 741Q183 722 213 695T254 636T263 570T253 500T237 432T229 369T244 316T296 278Q298 271 297 263T294 246Q251 234 227 209T191 148T174 73T163 -10T148 -93T118 -169T60 -231T-38 -271Q-41 -262 -42 -254T-41 -238Q1
-230 24 -208T59 -153T73 -81T79 1T87 83T110 159T157 220T242 259Q188 274 167 301T145 364T156 438T180 517T194 593T180 659T113 708Q115 718 117 727T125 741Z" />
<glyph unicode="~" horiz-adv-x="550" d="M68 195Q58 200 53 205T46 221Q84 276 118 296T184 317Q210 317 234 309T283 289T331 269T380 260Q403 260 425 270T473 305Q483 304 490 302T504 292Q479 256 456 236T411 207T371 198Q346 198 323 207T276 229T230 250T180
260Q155 260 128 246T68 195Z" />
<glyph unicode="&#xa0;" horiz-adv-x="180" />
<glyph unicode="&#xa1;" horiz-adv-x="414" d="M81 -255Q67 -250 64 -239T68 -203Q83 -151 102 -78T140 76T177 234Q189 235 200 234T221 228Q209 134 202 58T189 -86T181 -222Q158 -227 128 -236T81 -255ZM236 467Q263 467 277 449T285 403Q281 383 266 370T229
356Q213 356 202 364T184 386T182 418Q186 440 200 453T236 467Z" />
<glyph unicode="&#xa2;" horiz-adv-x="364" d="M138 -9Q93 -9 67 12T31 70T21 149T33 237Q44 286 64 328T112 401T178 449T264 467Q291 467 316 461T357 443Q349 418 343 390T334 335Q315 326 286 331Q290 381 278 399T238 418Q202 418 179 393T142 330T121 250Q116
219 114 186T117 124T139 78T187 60Q216 60 244 76T296 118Q304 113 308 106T317 90Q277 38 230 15T138 -9ZM159 -136Q146 -135 133 -131T112 -117L254 615Q269 615 281 611T302 596Q278 491 259 401T223 227T192 54T159 -136Z" />
<glyph unicode="&#xa3;" horiz-adv-x="491" d="M328 -9Q302 -9 285 0T251 20T212 41T153 50Q122 50 87 37T13 -9Q2 -2 -5 7T-18 29Q47 80 87 129T141 248Q147 282 142 309T129 364T116 425T119 504Q127 550 155 591T229 659T337 685Q383 685 417 675T481 642Q474
612 470 581T464 511Q449 508 436 510T411 516Q416 584 395 611T321 638Q280 638 248 610T208 535Q201 496 206 467T221 414T235 362T235 298Q231 271 221 244T194 190T153 134T97 74L90 81Q112 97 132 106T173 120T216 125Q253 125 279 112T326 87T363 74Q391
74 408 101Q419 99 428 91T440 74Q429 49 412 31T373 2T328 -9ZM366 335Q366 320 363 307T352 283Q320 283 287 283T220 283T155 283T94 282T39 280Q37 315 52 335H366Z" />
<glyph unicode="&#xa4;" horiz-adv-x="466" d="M255 431Q312 431 351 408T407 343T415 247Q402 170 348 123T218 75Q160 75 121 100T65 171T59 277Q71 346 125 388T255 431ZM245 390Q196 390 160 359T115 276Q102 206 133 161T228 116Q276 116 312 151T359 239Q371
306 340 348T245 390ZM415 73Q408 66 395 62T370 57L313 122L345 150L415 73ZM364 386L423 438Q435 435 446 429T462 415L394 358L364 386ZM56 419Q64 426 77 430T103 436L149 383L117 355L56 419ZM116 118L52 58Q42 59 30 64T10 79L86 145L116 118Z" />
<glyph unicode="&#xa5;" horiz-adv-x="582" d="M285 224Q261 307 234 386T174 541Q158 581 148 599T128 625T103 637Q101 648 101 657T102 679Q121 678 139 677T176 676T213 676Q233 676 252 676T293 677T339 679Q339 667 337 657T330 635Q281 628 268 613T271
556Q295 495 315 430T354 297L338 305Q377 358 413 413T487 531Q516 582 515 605T468 636Q464 655 467 679Q492 677 513 677T563 676Q587 676 607 676T652 679Q652 657 643 636Q632 632 621 625T594 600T553 543Q492 446 440 371T332 224H285ZM150 -3Q150 11 152
22T157 41Q190 47 207 55T233 81T248 132L274 280H368L340 122Q335 94 337 78T356 54T407 40Q409 30 410 20T409 -3Q378 -1 345 -1T281 0Q248 0 213 0T150 -3ZM90 193Q89 208 91 222T100 248H532Q531 234 528 221T516 196Q452 196 379 196T232 196T90 193ZM105
314Q104 330 107 344T118 369H304L328 317Q273 317 237 317T172 316T105 314ZM359 317L396 369H546Q547 355 544 342T534 317H359Z" />
<glyph unicode="&#xa6;" horiz-adv-x="143" d="M-45 -246L33 161Q59 174 85 165Q63 63 44 -37T5 -238Q-7 -245 -19 -246T-45 -246ZM67 335L139 711Q162 724 191 717Q171 620 153 526T119 339Q94 325 67 335Z" />
<glyph unicode="&#xa7;" horiz-adv-x="512" d="M327 715Q369 715 405 703T469 668Q464 634 461 604T458 539Q447 535 432 534T403 534Q402 590 392 619T361 658T312 669Q281 669 260 652T233 606Q225 568 242 539T291 485T358 435T424 378T468 305T471 205Q462
162 433 127T355 68T242 32L217 68Q254 74 287 92T343 136T373 195Q382 242 367 276T322 337T258 389T194 442T149 508T144 597Q151 631 174 657T237 699T327 715ZM42 263Q51 306 80 341T158 400T271 436L296 400Q260 394 227 376T170 332T140 273Q131 226 146
192T191 131T255 79T319 26T364 -40T369 -129Q363 -163 339 -189T277 -231T186 -247Q144 -247 108 -235T44 -200Q49 -166 52 -136T55 -71Q66 -66 81 -65T110 -66Q111 -122 121 -151T152 -190T201 -201Q233 -201 253 -184T280 -138Q288 -100 271 -71T222 -17T155
33T89 90T45 163T42 263Z" />
<glyph unicode="&#xa8;" horiz-adv-x="300" d="M547 533Q521 533 509 550T502 593Q507 619 522 629T558 640Q581 640 594 627T603 584Q594 533 547 533ZM391 532Q365 532 354 551T348 596Q353 616 366 628T401 640Q430 640 441 623T447 581Q443 560 428 546T391 532Z" />
<glyph unicode="&#xa9;" horiz-adv-x="737" d="M330 -111Q226 -111 155 -64T55 67T47 260Q66 354 116 424T241 532T410 571Q489 571 549 544T646 467T695 349T691 200Q672 103 622 34T497 -73T330 -111ZM335 -67Q460 -67 541 5T647 200Q666 292 645 366T563 484T404
528Q282 528 200 457T91 260Q71 165 93 91T177 -25T335 -67ZM306 12Q261 12 235 31T199 84T189 157T201 238Q212 283 232 321T280 389T346 434T432 450Q459 450 484 445T525 428Q517 405 511 379T502 328Q483 320 454 325Q458 370 446 387T406 405Q370 405 347
382T310 324T289 250Q284 221 282 191T285 134T307 92T355 75Q384 75 412 89T464 129Q472 124 476 118T485 103Q445 55 398 34T306 12Z" />
<glyph unicode="&#xaa;" horiz-adv-x="453" d="M403 717Q412 712 414 700T407 647L368 476Q361 440 362 432T373 423Q379 423 389 428T409 443Q416 439 421 429T428 410Q409 389 386 375T345 361Q319 361 307 373T293 403T295 441T307 476H301L355 627L356 710Q367
709 380 711T403 717ZM366 707L355 664Q344 669 330 672T299 675Q256 675 231 642T194 554Q181 491 185 462T209 433Q222 433 243 453T287 514T328 619L344 678L381 672L315 497Q303 468 281 437T230 383T168 361Q150 361 137 370T116 398T109 446T117 518Q129
576 158 621T228 691T318 717Q331 717 345 714T366 707Z" />
<glyph unicode="&#xab;" horiz-adv-x="431" d="M218 418Q229 417 238 412T252 399Q235 382 212 356T167 305T133 261Q140 242 152 214T178 160T201 117Q199 106 193 97T178 83Q145 129 112 169T49 240Q49 252 52 262T62 279Q106 316 143 348T218 418ZM378 412Q389
411 398 406T412 393Q395 375 375 351T335 303T303 261Q310 242 320 217T341 166T361 122Q359 111 353 102T338 88Q307 132 278 169T219 240Q219 252 222 262T232 279Q276 316 308 345T378 412Z" />
<glyph unicode="&#xac;" horiz-adv-x="550" d="M408 108L453 325L482 298Q377 298 277 298T66 297Q66 308 69 324T76 348H510L464 116Q439 103 408 108Z" />
<glyph unicode="&#xad;" horiz-adv-x="372" d="M46 226Q48 249 52 264T63 294H336Q335 272 332 258T323 229Q274 229 203 229T46 226Z" />
<glyph unicode="&#xae;" horiz-adv-x="503" d="M321 398Q269 398 226 422T158 489T133 585Q133 638 158 680T225 748T321 773Q374 773 416 748T483 681T508 585Q508 532 483 490T416 423T321 398ZM351 484Q345 506 336 526T312 565L342 574Q359 556 371 535T390
489Q373 481 351 484ZM321 434Q365 434 399 454T452 508T472 585Q472 628 452 662T398 717T321 737Q278 737 244 717T189 663T169 585Q169 543 189 509T243 454T321 434ZM244 485L275 682Q294 687 312 689T343 691Q381 691 395 677T405 633Q401 609 384 586T326
563L324 559L287 560L291 586Q298 585 304 585T316 584Q336 584 349 593T366 624Q371 648 360 657T334 666Q328 666 322 665T310 662L282 485Q262 481 244 485Z" />
<glyph unicode="&#xaf;" horiz-adv-x="300" d="M301 585Q301 591 303 606T310 631H658Q658 621 656 610T649 588Q548 588 460 588T301 585Z" />
<glyph unicode="&#xb0;" horiz-adv-x="385" d="M273 700Q337 700 369 664T391 569Q382 517 344 486T250 454Q186 454 154 492T132 595Q140 642 179 671T273 700ZM267 662Q243 662 225 644T202 597Q194 551 209 523T256 494Q279 494 297 514T321 568Q329 610 314
636T267 662Z" />
<glyph unicode="&#xb1;" horiz-adv-x="550" d="M228 128Q240 191 250 243T271 351T294 479Q306 484 319 484T344 483L278 131Q257 119 228 128ZM20 41Q20 58 23 70T30 90H464Q466 77 464 65T454 42Q433 42 411 42T363 43T311 43T252 43Q189 43 137 43T20 41ZM102
274Q102 291 105 303T112 323H470Q473 296 461 275Q429 276 406 276T356 275T288 275Q257 275 212 275T102 274Z" />
<glyph unicode="&#xb2;" horiz-adv-x="346" d="M280 762Q334 762 361 741T379 673Q373 639 350 616T273 554Q251 538 228 520T175 477L163 488H264Q285 488 295 490T312 501T323 528Q334 528 345 527T363 523Q358 495 355 472T352 429Q348 420 340 415T320 409Q292
409 259 409T194 410Q163 410 132 410T81 409Q76 417 76 427T77 450Q106 475 137 500T200 550Q232 575 250 593T276 627T288 661Q294 690 285 706T250 723Q226 723 210 704T176 630Q163 630 151 631T130 637Q136 655 141 682T147 728Q173 743 205 752T280 762Z"
/>
<glyph unicode="&#xb3;" horiz-adv-x="330" d="M150 291Q110 291 85 302T48 329Q49 335 53 342T64 354Q72 344 91 339T130 333Q174 333 208 359T252 435Q259 470 247 489T213 516T164 526Q162 534 163 544T169 561Q200 563 223 574T262 606T284 660Q291 695 280
709T244 723Q213 723 196 702T162 629Q150 629 138 631T117 641Q122 661 126 685T132 735Q159 749 190 755T252 761Q322 761 351 733T369 651Q357 593 318 572T230 550L227 555Q289 555 321 523T341 431Q328 370 278 331T150 291Z" />
<glyph unicode="&#xb4;" horiz-adv-x="300" d="M222 714Q251 722 277 720T323 705Q286 671 246 626T168 531Q147 532 133 545Q154 579 171 609T201 666T222 714Z" />
<glyph unicode="&#xb5;" horiz-adv-x="508" d="M-1 -244Q-8 -239 -12 -230T-18 -213Q-14 -199 -9 -183T3 -143T17 -81L92 283Q100 321 102 342T99 373T82 385T47 388Q46 397 47 407T52 426Q67 428 93 434T146 450T185 467Q197 460 202 451T206 419T194 349T163
218Q145 142 149 104T177 65Q198 65 231 94T298 184T348 337L371 458H462L413 210Q399 140 394 108T392 68T404 60Q418 60 429 67T456 91Q463 85 467 77T475 59Q452 33 422 12T360 -9Q335 -9 321 5T304 45T307 103Q309 111 312 123T323 151H321Q312 126 295 99T257
47T213 7T168 -9Q143 -9 131 10T116 56T117 108L121 107L92 -44Q84 -87 82 -118T82 -173Q55 -189 39 -203T-1 -244Z" />
<glyph unicode="&#xb6;" horiz-adv-x="555" d="M379 678Q425 678 459 677T528 676Q546 676 562 676T600 679Q599 668 597 657T591 636Q561 633 547 626T526 602T514 555Q496 462 481 383T454 230T429 84T403 -70T375 -246Q362 -248 350 -248T325 -244L481 648L491
632Q460 634 432 635T357 636Q277 636 238 609T187 516Q177 460 191 424T235 372T302 355H333L325 320Q315 317 300 317T275 316Q174 316 126 366T95 511Q104 559 136 597T228 656T379 678ZM371 650L423 651Q393 496 367 350T315 58T265 -248Q252 -249 239 -248T216
-241L371 650Z" />
<glyph unicode="&#xb7;" horiz-adv-x="196" d="M105 219Q78 219 64 237T56 283Q60 303 75 316T112 330Q128 330 139 322T157 300T159 268Q155 246 141 233T105 219Z" />
<glyph unicode="&#xb8;" horiz-adv-x="300" d="M-2 -242Q-4 -235 -4 -227T-3 -210Q34 -210 57 -198T86 -160Q91 -131 76 -116T32 -101Q16 -87 22 -63L87 16H142L84 -55Q121 -62 137 -87T145 -158Q136 -201 96 -222T-2 -242Z" />
<glyph unicode="&#xb9;" horiz-adv-x="262" d="M76 408Q76 418 78 428T85 445Q104 447 115 452T132 472T144 511L172 657Q180 695 173 708T139 722Q137 731 137 740T140 760Q151 759 168 759T204 758T232 758Q246 758 263 758T297 758T324 760Q324 750 322 741T315
722Q297 721 286 716T269 697T257 657L229 512Q224 486 225 472T234 452T261 445Q263 436 263 427T260 408Q247 409 229 409T194 409T168 410Q156 410 139 410T105 409T76 408Z" />
<glyph unicode="&#xba;" horiz-adv-x="413" d="M302 717Q368 717 397 669T413 541Q398 456 347 407T228 358Q163 358 134 404T118 526Q135 615 185 666T302 717ZM294 675Q264 675 241 642T205 540Q197 496 198 465T209 417T235 400Q264 400 288 434T325 536Q336
595 328 635T294 675Z" />
<glyph unicode="&#xbb;" horiz-adv-x="441" d="M287 416Q313 380 339 347T396 281Q401 271 401 261T398 242Q357 208 312 168T224 90Q209 105 209 128Q236 154 269 187T324 248Q317 269 304 298T277 356T250 407Q258 413 267 415T287 416ZM120 411Q146 374 168
345T219 281Q224 271 224 261T221 242Q180 208 140 172T58 95Q43 110 43 133Q70 160 97 190T147 248Q136 280 119 322T83 402Q91 408 100 410T120 411Z" />
<glyph unicode="&#xbc;" horiz-adv-x="846" d="M307 730Q321 726 323 718T323 690L266 398Q260 365 263 349T281 328T326 320Q327 311 326 301T323 279Q303 280 281 280T237 280T193 281Q162 281 127 281T63 279Q65 290 68 300T75 320Q106 322 125 327T157 349T175
398L212 589Q218 617 215 630T191 649T123 654Q125 665 128 675T136 696Q186 700 228 708T307 730ZM149 -7Q136 -2 127 6T113 21L757 713Q768 710 777 702T793 685L149 -7ZM537 -3Q539 8 542 23T549 42Q584 44 601 56T628 111L679 375H706L517 171L512 191H772Q784
191 791 189T802 181Q793 168 786 154T772 119Q685 119 626 118T526 116T456 111Q442 129 447 160Q489 202 536 249T631 347T723 449Q733 450 741 450T758 448T774 443L710 111Q704 80 706 66T718 48T746 42Q748 36 747 22T743 -3Q732 -2 714 -2T676 -1T641 0Q625
0 605 0T566 -1T537 -3Z" />
<glyph unicode="&#xbd;" horiz-adv-x="928" d="M307 730Q321 726 323 718T323 690L266 398Q260 365 263 349T281 328T326 320Q327 311 326 301T323 279Q303 280 281 280T237 280T193 281Q162 281 127 281T63 279Q65 290 68 300T75 320Q106 322 125 327T157 349T175
398L212 589Q218 617 215 630T191 649T123 654Q125 665 128 675T136 696Q186 700 228 708T307 730ZM149 -7Q136 -2 127 6T113 21L757 713Q768 710 777 702T793 685L149 -7ZM534 -2Q528 5 527 15T528 38Q574 83 604 112T660 165T717 217Q749 246 766 271T788 326Q796
361 783 379T737 397Q703 397 685 374T646 294Q631 294 619 295T595 301Q604 329 609 358T616 418Q654 435 689 442T763 449Q814 449 844 438T886 404T891 346Q884 307 856 275T775 198Q740 170 717 151T672 112T621 64L628 87H737Q764 87 779 91T805 110T824 153Q836
154 849 153T873 146Q862 101 858 73T855 20Q848 9 837 4T815 -2Q811 -2 796 -2T755 -1T695 0Q660 0 626 0T534 -2Z" />
<glyph unicode="&#xbe;" horiz-adv-x="912" d="M294 730Q371 730 407 701T434 621Q425 573 383 548T270 522L267 527Q346 527 384 495T412 404Q400 342 344 309T196 275Q155 275 120 284T60 312Q67 332 71 354T76 398Q87 401 101 401T128 396Q128 353 140 335T196
316Q243 316 273 340T312 408Q320 448 289 469T191 493Q188 515 199 534Q257 534 292 559T337 629Q342 658 328 673T281 689Q244 689 224 669T186 601Q173 603 160 607T137 619Q142 639 146 660T150 705Q182 719 218 724T294 730ZM215 -7Q202 -2 193 6T179 21L823
713Q834 710 843 702T859 685L215 -7ZM603 -3Q605 8 608 23T615 42Q650 44 667 56T694 111L745 375H772L583 171L578 191H838Q850 191 857 189T868 181Q859 168 852 154T838 119Q751 119 692 118T592 116T522 111Q508 129 513 160Q555 202 602 249T697 347T789
449Q799 450 807 450T824 448T840 443L776 111Q770 80 772 66T784 48T812 42Q814 36 813 22T809 -3Q798 -2 780 -2T742 -1T707 0Q691 0 671 0T632 -1T603 -3Z" />
<glyph unicode="&#xbf;" horiz-adv-x="521" d="M315 -213Q298 -228 259 -242T173 -256Q98 -256 61 -216T36 -111Q44 -73 64 -44T110 9T163 59T210 116T238 189Q241 201 242 222T242 257Q251 262 258 263T275 265Q288 254 295 220T294 143Q286 103 269 74T230 21T187
-24T151 -67T130 -118Q122 -159 135 -187T188 -215Q210 -215 229 -202T263 -161T293 -86Q309 -86 318 -88T337 -96Q326 -133 322 -156T315 -213ZM300 466Q327 466 341 448T349 402Q345 382 330 369T293 355Q277 355 266 363T248 385T246 417Q250 439 264 452T300
466Z" />
<glyph unicode="&#xc0;" horiz-adv-x="687" d="M-27 -3Q-27 8 -25 19T-19 40Q0 46 14 57T43 90T82 151Q120 216 158 281T233 412T307 544T381 676Q390 680 401 681T420 682Q446 591 470 500T518 316T564 132Q573 95 581 77T599 52T623 40Q626 29 626 19T626 -3Q610
-1 590 -1T550 0T515 0Q502 0 489 0T461 0T431 -1T401 -3Q401 8 403 19T409 40Q453 45 464 60T464 122Q445 204 425 285T381 447Q372 478 367 502T355 563H362Q345 527 332 501T299 440Q259 366 218 292T132 143Q109 104 104 84T109 54T147 40Q149 30 150 19T150
-3Q134 -1 119 -1T89 0T58 0Q32 0 14 0T-27 -3ZM161 215L183 265H446L449 219Q404 219 354 219T253 218T161 215ZM449 740Q441 736 428 736T405 740Q393 760 377 782T343 826T307 867Q327 874 352 875T400 870Q408 839 420 806T449 740Z" />
<glyph unicode="&#xc1;" horiz-adv-x="687" d="M-27 -3Q-27 8 -25 19T-19 40Q0 46 14 57T43 90T82 151Q120 216 158 281T233 412T307 544T381 676Q390 680 401 681T420 682Q446 591 470 500T518 316T564 132Q573 95 581 77T599 52T623 40Q626 29 626 19T626 -3Q610
-1 590 -1T550 0T515 0Q502 0 489 0T461 0T431 -1T401 -3Q401 8 403 19T409 40Q453 45 464 60T464 122Q445 204 425 285T381 447Q372 478 367 502T355 563H362Q345 527 332 501T299 440Q259 366 218 292T132 143Q109 104 104 84T109 54T147 40Q149 30 150 19T150
-3Q134 -1 119 -1T89 0T58 0Q32 0 14 0T-27 -3ZM161 215L183 265H446L449 219Q404 219 354 219T253 218T161 215ZM398 729Q388 730 379 734T361 745Q382 770 398 794T427 839T446 875Q457 877 467 878T487 879Q505 879 521 876T550 866Q513 836 474 800T398 729Z"
/>
<glyph unicode="&#xc2;" horiz-adv-x="687" d="M-27 -3Q-27 8 -25 19T-19 40Q0 46 14 57T43 90T82 151Q120 216 158 281T233 412T307 544T381 676Q390 680 401 681T420 682Q446 591 470 500T518 316T564 132Q573 95 581 77T599 52T623 40Q626 29 626 19T626 -3Q610
-1 590 -1T550 0T515 0Q502 0 489 0T461 0T431 -1T401 -3Q401 8 403 19T409 40Q453 45 464 60T464 122Q445 204 425 285T381 447Q372 478 367 502T355 563H362Q345 527 332 501T299 440Q259 366 218 292T132 143Q109 104 104 84T109 54T147 40Q149 30 150 19T150
-3Q134 -1 119 -1T89 0T58 0Q32 0 14 0T-27 -3ZM161 215L183 265H446L449 219Q404 219 354 219T253 218T161 215ZM290 730Q284 738 281 749T279 771Q306 787 332 804T382 840T430 877Q441 879 450 878T468 872Q492 843 519 815T574 757Q571 748 563 742T545 733Q517
752 487 768T424 797Q401 788 378 777T334 754T290 730Z" />
<glyph unicode="&#xc3;" horiz-adv-x="687" d="M-27 -3Q-27 8 -25 19T-19 40Q0 46 14 57T43 90T82 151Q120 216 158 281T233 412T307 544T381 676Q390 680 401 681T420 682Q446 591 470 500T518 316T564 132Q573 95 581 77T599 52T623 40Q626 29 626 19T626 -3Q610
-1 590 -1T550 0T515 0Q502 0 489 0T461 0T431 -1T401 -3Q401 8 403 19T409 40Q453 45 464 60T464 122Q445 204 425 285T381 447Q372 478 367 502T355 563H362Q345 527 332 501T299 440Q259 366 218 292T132 143Q109 104 104 84T109 54T147 40Q149 30 150 19T150
-3Q134 -1 119 -1T89 0T58 0Q32 0 14 0T-27 -3ZM161 215L183 265H446L449 219Q404 219 354 219T253 218T161 215ZM475 748Q456 748 440 753T409 765T379 777T347 783Q326 783 307 774T269 751Q263 758 261 767T260 789Q295 824 325 835T380 847Q407 847 427 839T465
822T504 813Q521 813 536 820T566 841Q572 838 579 833T591 819Q561 780 532 764T475 748Z" />
<glyph unicode="&#xc4;" horiz-adv-x="687" d="M-27 -3Q-27 8 -25 19T-19 40Q0 46 14 57T43 90T82 151Q120 216 158 281T233 412T307 544T381 676Q390 680 401 681T420 682Q446 591 470 500T518 316T564 132Q573 95 581 77T599 52T623 40Q626 29 626 19T626 -3Q610
-1 590 -1T550 0T515 0Q502 0 489 0T461 0T431 -1T401 -3Q401 8 403 19T409 40Q453 45 464 60T464 122Q445 204 425 285T381 447Q372 478 367 502T355 563H362Q345 527 332 501T299 440Q259 366 218 292T132 143Q109 104 104 84T109 54T147 40Q149 30 150 19T150
-3Q134 -1 119 -1T89 0T58 0Q32 0 14 0T-27 -3ZM161 215L183 265H446L449 219Q404 219 354 219T253 218T161 215ZM318 732Q293 732 282 750T275 796Q279 817 293 828T330 840Q356 840 368 824T374 781Q361 732 318 732ZM513 733Q488 733 477 749T469 793Q477 840
527 840Q551 840 563 825T570 784Q561 733 513 733Z" />
<glyph unicode="&#xc5;" horiz-adv-x="687" d="M-27 -3Q-27 8 -25 19T-19 40Q0 46 14 57T43 90T82 151Q120 216 158 281T233 412T307 544T381 676Q390 680 401 681T420 682Q446 591 470 500T518 316T564 132Q573 95 581 77T599 52T623 40Q626 29 626 19T626 -3Q610
-1 590 -1T550 0T515 0Q502 0 489 0T461 0T431 -1T401 -3Q401 8 403 19T409 40Q453 45 464 60T464 122Q445 204 425 285T381 447Q372 478 367 502T355 563H362Q345 527 332 501T299 440Q259 366 218 292T132 143Q109 104 104 84T109 54T147 40Q149 30 150 19T150
-3Q134 -1 119 -1T89 0T58 0Q32 0 14 0T-27 -3ZM161 215L183 265H446L449 219Q404 219 354 219T253 218T161 215ZM420 722Q367 722 343 746T325 805Q330 837 357 855T430 874Q470 874 491 862T520 830T524 789Q519 758 493 740T420 722ZM422 756Q439 756 451 764T468
791Q473 810 463 826T428 842Q407 842 394 830T378 800Q374 781 386 769T422 756Z" />
<glyph unicode="&#xc6;" horiz-adv-x="856" d="M267 341H484L475 298Q434 298 392 298T311 296T236 293L267 341ZM703 424Q716 426 727 426T751 425Q745 400 740 377T730 314Q725 278 723 251T718 199Q704 201 693 203T672 212Q675 246 667 264T637 290T573 298H519L527
341H577Q639 341 667 358T703 424ZM855 679Q851 642 849 597T848 516Q829 508 798 509Q797 552 789 579T751 618T656 631H564L592 676Q631 676 672 676T758 677T855 679ZM770 172Q784 170 795 165T815 150Q799 119 785 80T761 -3Q732 -1 702 -1T638 0T568 0L574
45H578Q640 45 674 60T729 103T770 172ZM515 676H592L501 143Q494 101 497 80T518 52T574 45L568 0Q532 0 499 0T436 0T376 -1T316 -3Q316 8 317 19T323 40Q354 44 369 53T393 83T407 143L472 514Q483 575 495 616T515 676ZM395 538Q427 582 419 607T363 636Q361
647 361 657T362 679Q403 678 434 677T489 676T530 676Q513 645 492 612T441 535T372 435T276 301T145 122Q118 85 118 67T147 40Q149 30 150 19T150 -3Q134 -1 119 -1T89 0T58 0Q32 0 14 0T-27 -3Q-27 8 -25 19T-19 40Q0 46 15 54T49 82T96 137Q149 206 200 274T300
409T395 538Z" />
<glyph unicode="&#xc7;" horiz-adv-x="635" d="M666 626Q653 592 646 555T633 475Q608 465 579 473Q588 544 576 580T534 630T461 644Q376 644 314 602T214 490T167 333Q159 259 177 195T242 91T368 52Q423 52 473 67T568 110Q576 103 579 93T584 72Q526 30 466
11T341 -9Q238 -9 172 36T77 157T61 328Q73 422 111 489T205 600T325 664T454 685Q517 685 566 671T666 626ZM234 -242Q232 -235 232 -227T233 -210Q270 -210 293 -198T322 -160Q327 -131 312 -116T268 -101Q252 -87 258 -63L323 16H378L320 -55Q357 -62 373 -87T381
-158Q372 -201 332 -222T234 -242Z" />
<glyph unicode="&#xc8;" horiz-adv-x="583" d="M29 -3Q29 8 30 19T36 40Q66 44 81 53T105 83T119 143L188 540Q195 577 192 596T173 624T129 636Q128 646 128 656T128 679Q157 678 183 678T231 677T272 676T304 676L213 143Q206 101 209 80T230 52T286 45L280
0Q244 0 211 0T148 0T88 -1T29 -3ZM488 -3Q459 -1 428 -1T361 0T280 0L286 45H305Q367 45 401 60T456 103T497 172Q511 170 522 165T542 150Q526 119 512 80T488 -3ZM448 221Q434 223 423 225T402 234Q405 268 397 286T367 311T303 319H234L242 364H307Q369 364
397 380T433 446Q446 448 457 448T481 447Q475 422 470 399T460 336Q455 300 453 273T448 221ZM525 509Q524 552 516 579T478 618T383 631H276L304 676Q350 676 394 676T484 677T582 679Q578 642 576 597T575 516Q556 508 525 509ZM414 740Q406 736 393 736T370
740Q358 760 342 782T308 826T272 867Q292 874 317 875T365 870Q373 839 385 806T414 740Z" />
<glyph unicode="&#xc9;" horiz-adv-x="583" d="M29 -3Q29 8 30 19T36 40Q66 44 81 53T105 83T119 143L188 540Q195 577 192 596T173 624T129 636Q128 646 128 656T128 679Q157 678 183 678T231 677T272 676T304 676L213 143Q206 101 209 80T230 52T286 45L280
0Q244 0 211 0T148 0T88 -1T29 -3ZM488 -3Q459 -1 428 -1T361 0T280 0L286 45H305Q367 45 401 60T456 103T497 172Q511 170 522 165T542 150Q526 119 512 80T488 -3ZM448 221Q434 223 423 225T402 234Q405 268 397 286T367 311T303 319H234L242 364H307Q369 364
397 380T433 446Q446 448 457 448T481 447Q475 422 470 399T460 336Q455 300 453 273T448 221ZM525 509Q524 552 516 579T478 618T383 631H276L304 676Q350 676 394 676T484 677T582 679Q578 642 576 597T575 516Q556 508 525 509ZM363 729Q353 730 344 734T326
745Q347 770 363 794T392 839T411 875Q422 877 432 878T452 879Q470 879 486 876T515 866Q478 836 439 800T363 729Z" />
<glyph unicode="&#xca;" horiz-adv-x="583" d="M29 -3Q29 8 30 19T36 40Q66 44 81 53T105 83T119 143L188 540Q195 577 192 596T173 624T129 636Q128 646 128 656T128 679Q157 678 183 678T231 677T272 676T304 676L213 143Q206 101 209 80T230 52T286 45L280
0Q244 0 211 0T148 0T88 -1T29 -3ZM488 -3Q459 -1 428 -1T361 0T280 0L286 45H305Q367 45 401 60T456 103T497 172Q511 170 522 165T542 150Q526 119 512 80T488 -3ZM448 221Q434 223 423 225T402 234Q405 268 397 286T367 311T303 319H234L242 364H307Q369 364
397 380T433 446Q446 448 457 448T481 447Q475 422 470 399T460 336Q455 300 453 273T448 221ZM525 509Q524 552 516 579T478 618T383 631H276L304 676Q350 676 394 676T484 677T582 679Q578 642 576 597T575 516Q556 508 525 509ZM255 730Q249 738 246 749T244
771Q271 787 297 804T347 840T395 877Q406 879 415 878T433 872Q457 843 484 815T539 757Q536 748 528 742T510 733Q482 752 452 768T389 797Q366 788 343 777T299 754T255 730Z" />
<glyph unicode="&#xcb;" horiz-adv-x="583" d="M29 -3Q29 8 30 19T36 40Q66 44 81 53T105 83T119 143L188 540Q195 577 192 596T173 624T129 636Q128 646 128 656T128 679Q157 678 183 678T231 677T272 676T304 676L213 143Q206 101 209 80T230 52T286 45L280
0Q244 0 211 0T148 0T88 -1T29 -3ZM488 -3Q459 -1 428 -1T361 0T280 0L286 45H305Q367 45 401 60T456 103T497 172Q511 170 522 165T542 150Q526 119 512 80T488 -3ZM448 221Q434 223 423 225T402 234Q405 268 397 286T367 311T303 319H234L242 364H307Q369 364
397 380T433 446Q446 448 457 448T481 447Q475 422 470 399T460 336Q455 300 453 273T448 221ZM525 509Q524 552 516 579T478 618T383 631H276L304 676Q350 676 394 676T484 677T582 679Q578 642 576 597T575 516Q556 508 525 509ZM283 732Q258 732 247 750T240
796Q244 817 258 828T295 840Q321 840 333 824T339 781Q326 732 283 732ZM478 733Q453 733 442 749T434 793Q442 840 492 840Q516 840 528 825T535 784Q526 733 478 733Z" />
<glyph unicode="&#xcc;" horiz-adv-x="357" d="M189 549Q195 583 191 600T172 625T129 636Q128 646 128 656T128 679Q156 678 186 677T248 676Q280 676 310 677T370 679Q369 667 368 657T361 636Q336 632 321 624T298 599T283 549L210 127Q204 94 207 76T225 51T269
40Q271 31 272 20T271 -3Q241 -1 210 -1T150 0Q121 0 88 0T29 -3Q29 10 31 21T37 40Q64 43 79 50T102 76T116 127L189 549ZM552 740Q544 736 531 736T508 740Q496 760 480 782T446 826T410 867Q430 874 455 875T503 870Q511 839 523 806T552 740Z" />
<glyph unicode="&#xcd;" horiz-adv-x="357" d="M189 549Q195 583 191 600T172 625T129 636Q128 646 128 656T128 679Q156 678 186 677T248 676Q280 676 310 677T370 679Q369 667 368 657T361 636Q336 632 321 624T298 599T283 549L210 127Q204 94 207 76T225 51T269
40Q271 31 272 20T271 -3Q241 -1 210 -1T150 0Q121 0 88 0T29 -3Q29 10 31 21T37 40Q64 43 79 50T102 76T116 127L189 549ZM245 729Q235 730 226 734T208 745Q229 770 245 794T274 839T293 875Q304 877 314 878T334 879Q352 879 368 876T397 866Q360 836 321 800T245
729Z" />
<glyph unicode="&#xce;" horiz-adv-x="357" d="M189 549Q195 583 191 600T172 625T129 636Q128 646 128 656T128 679Q156 678 186 677T248 676Q280 676 310 677T370 679Q369 667 368 657T361 636Q336 632 321 624T298 599T283 549L210 127Q204 94 207 76T225 51T269
40Q271 31 272 20T271 -3Q241 -1 210 -1T150 0Q121 0 88 0T29 -3Q29 10 31 21T37 40Q64 43 79 50T102 76T116 127L189 549ZM417 709Q407 717 402 727T397 750Q432 774 468 806T536 872Q550 872 557 872T570 869Q589 837 610 802T656 726Q651 722 640 719T621 715Q600
737 577 758T533 794Q500 772 471 751T417 709Z" />
<glyph unicode="&#xcf;" horiz-adv-x="357" d="M189 549Q195 583 191 600T172 625T129 636Q128 646 128 656T128 679Q156 678 186 677T248 676Q280 676 310 677T370 679Q369 667 368 657T361 636Q336 632 321 624T298 599T283 549L210 127Q204 94 207 76T225 51T269
40Q271 31 272 20T271 -3Q241 -1 210 -1T150 0Q121 0 88 0T29 -3Q29 10 31 21T37 40Q64 43 79 50T102 76T116 127L189 549ZM443 737Q417 737 403 753T393 792Q397 811 411 825T454 839Q486 839 497 822T503 780Q499 761 483 749T443 737ZM599 738Q569 738 557 755T549
798Q553 818 569 828T609 839Q635 839 649 823T659 784Q655 766 642 752T599 738Z" />
<glyph unicode="&#xd0;" horiz-adv-x="735" d="M392 679Q446 679 499 670T598 638T675 575T718 473T713 323Q701 257 675 205T609 115T519 51T408 13T279 0H175L183 45H283Q345 45 398 60T493 107T565 190T609 315Q627 408 614 470T565 568T478 620T367 636Q345
636 327 634T290 627L254 676Q289 676 324 677T392 679ZM128 679Q150 678 175 678T224 677T270 676T304 676L211 133Q205 96 207 77T227 52T283 45L279 0Q251 0 219 0T154 0T88 -1T25 -3Q26 9 28 20T33 40Q63 44 79 53T103 83T118 143L190 554Q196 588 191 604T171
627T130 637Q127 648 127 658T128 679ZM75 317Q75 328 78 344T84 368H386Q386 353 385 341T377 318Q340 319 313 319T248 319Q208 319 181 319T130 319T75 317Z" />
<glyph unicode="&#xd1;" horiz-adv-x="675" d="M31 40Q56 44 72 56T100 96T119 172L196 610H247L172 182Q163 129 164 100T180 59T226 40Q229 30 229 20T228 -3Q198 -1 169 -1T119 0Q96 0 77 0T24 -3Q25 21 31 40ZM128 679Q143 678 157 677T188 676Q208 676 226
677T257 679Q332 545 406 403T548 124L510 -9Q432 149 353 299T188 603Q178 623 166 628T130 636Q127 646 127 657T128 679ZM532 679Q554 677 579 677T623 676Q646 676 673 676T720 679Q720 670 718 658T712 636Q690 630 677 616T654 572T636 489L551 -4Q543 -7
532 -8T510 -9L516 94L587 499Q596 552 594 579T578 619T533 636Q532 646 532 656T532 679ZM501 748Q482 748 466 753T435 765T405 777T373 783Q352 783 333 774T295 751Q289 758 287 767T286 789Q321 824 351 835T406 847Q433 847 453 839T491 822T530 813Q547
813 562 820T592 841Q598 838 605 833T617 819Q587 780 558 764T501 748Z" />
<glyph unicode="&#xd2;" horiz-adv-x="741" d="M347 -9Q247 -9 177 39T77 174T69 375Q81 440 114 496T196 595T306 661T436 685Q533 685 604 641T707 509T714 296Q698 212 648 143T520 32T347 -9ZM365 35Q431 35 481 69T565 161T612 294Q631 396 610 474T539 596T417
641Q357 641 307 606T222 512T173 382Q160 311 166 249T196 138T263 63T365 35ZM490 740Q482 736 469 736T446 740Q434 760 418 782T384 826T348 867Q368 874 393 875T441 870Q449 839 461 806T490 740Z" />
<glyph unicode="&#xd3;" horiz-adv-x="741" d="M347 -9Q247 -9 177 39T77 174T69 375Q81 440 114 496T196 595T306 661T436 685Q533 685 604 641T707 509T714 296Q698 212 648 143T520 32T347 -9ZM365 35Q431 35 481 69T565 161T612 294Q631 396 610 474T539 596T417
641Q357 641 307 606T222 512T173 382Q160 311 166 249T196 138T263 63T365 35ZM439 729Q429 730 420 734T402 745Q423 770 439 794T468 839T487 875Q498 877 508 878T528 879Q546 879 562 876T591 866Q554 836 515 800T439 729Z" />
<glyph unicode="&#xd4;" horiz-adv-x="741" d="M347 -9Q247 -9 177 39T77 174T69 375Q81 440 114 496T196 595T306 661T436 685Q533 685 604 641T707 509T714 296Q698 212 648 143T520 32T347 -9ZM365 35Q431 35 481 69T565 161T612 294Q631 396 610 474T539 596T417
641Q357 641 307 606T222 512T173 382Q160 311 166 249T196 138T263 63T365 35ZM331 730Q325 738 322 749T320 771Q347 787 373 804T423 840T471 877Q482 879 491 878T509 872Q533 843 560 815T615 757Q612 748 604 742T586 733Q558 752 528 768T465 797Q442 788
419 777T375 754T331 730Z" />
<glyph unicode="&#xd5;" horiz-adv-x="741" d="M347 -9Q247 -9 177 39T77 174T69 375Q81 440 114 496T196 595T306 661T436 685Q533 685 604 641T707 509T714 296Q698 212 648 143T520 32T347 -9ZM365 35Q431 35 481 69T565 161T612 294Q631 396 610 474T539 596T417
641Q357 641 307 606T222 512T173 382Q160 311 166 249T196 138T263 63T365 35ZM516 748Q497 748 481 753T450 765T420 777T388 783Q367 783 348 774T310 751Q304 758 302 767T301 789Q336 824 366 835T421 847Q448 847 468 839T506 822T545 813Q562 813 577 820T607
841Q613 838 620 833T632 819Q602 780 573 764T516 748Z" />
<glyph unicode="&#xd6;" horiz-adv-x="741" d="M347 -9Q247 -9 177 39T77 174T69 375Q81 440 114 496T196 595T306 661T436 685Q533 685 604 641T707 509T714 296Q698 212 648 143T520 32T347 -9ZM365 35Q431 35 481 69T565 161T612 294Q631 396 610 474T539 596T417
641Q357 641 307 606T222 512T173 382Q160 311 166 249T196 138T263 63T365 35ZM359 732Q334 732 323 750T316 796Q320 817 334 828T371 840Q397 840 409 824T415 781Q402 732 359 732ZM554 733Q529 733 518 749T510 793Q518 840 568 840Q592 840 604 825T611 784Q602
733 554 733Z" />
<glyph unicode="&#xd7;" horiz-adv-x="550" d="M63 22Q47 22 33 26T12 44L500 498Q514 494 525 487T542 468Q507 437 460 395T361 304T256 205T153 108T63 22ZM425 22Q384 77 342 133T256 244T168 355T80 465Q90 476 103 482T131 489L479 46Q469 35 455 29T425 22Z" />
<glyph unicode="&#xd8;" horiz-adv-x="741" d="M347 -9Q247 -9 177 39T77 174T69 375Q81 440 114 496T196 595T306 661T436 685Q533 685 604 641T707 509T714 296Q698 212 648 143T520 32T347 -9ZM365 35Q431 35 481 69T565 161T612 294Q631 396 610 474T539 596T417
641Q357 641 307 606T222 512T173 382Q160 311 166 249T196 138T263 63T365 35ZM103 -9Q87 -9 75 -3T58 15L676 685Q709 685 725 664Q657 594 576 508T411 331T248 153T103 -9Z" />
<glyph unicode="&#xd9;" horiz-adv-x="635" d="M301 -9Q174 -9 126 61T99 256L150 554Q156 585 154 601T142 625T109 636Q107 645 107 656T108 679Q143 677 166 677T219 676Q251 676 276 676T339 679Q338 667 337 657T330 636Q299 633 283 626T258 600T242 544L193
260Q173 145 210 95T321 44Q395 44 443 96T509 246L556 514Q564 557 562 580T545 615T502 636Q500 647 500 657T501 679Q533 677 556 677T600 676Q624 676 645 676T700 679Q700 667 698 657T691 636Q670 629 656 621T633 600T618 563T605 504L561 255Q545 165 512
107T426 20T301 -9ZM467 740Q459 736 446 736T423 740Q411 760 395 782T361 826T325 867Q345 874 370 875T418 870Q426 839 438 806T467 740Z" />
<glyph unicode="&#xda;" horiz-adv-x="635" d="M301 -9Q174 -9 126 61T99 256L150 554Q156 585 154 601T142 625T109 636Q107 645 107 656T108 679Q143 677 166 677T219 676Q251 676 276 676T339 679Q338 667 337 657T330 636Q299 633 283 626T258 600T242 544L193
260Q173 145 210 95T321 44Q395 44 443 96T509 246L556 514Q564 557 562 580T545 615T502 636Q500 647 500 657T501 679Q533 677 556 677T600 676Q624 676 645 676T700 679Q700 667 698 657T691 636Q670 629 656 621T633 600T618 563T605 504L561 255Q545 165 512
107T426 20T301 -9ZM416 729Q406 730 397 734T379 745Q400 770 416 794T445 839T464 875Q475 877 485 878T505 879Q523 879 539 876T568 866Q531 836 492 800T416 729Z" />
<glyph unicode="&#xdb;" horiz-adv-x="635" d="M301 -9Q174 -9 126 61T99 256L150 554Q156 585 154 601T142 625T109 636Q107 645 107 656T108 679Q143 677 166 677T219 676Q251 676 276 676T339 679Q338 667 337 657T330 636Q299 633 283 626T258 600T242 544L193
260Q173 145 210 95T321 44Q395 44 443 96T509 246L556 514Q564 557 562 580T545 615T502 636Q500 647 500 657T501 679Q533 677 556 677T600 676Q624 676 645 676T700 679Q700 667 698 657T691 636Q670 629 656 621T633 600T618 563T605 504L561 255Q545 165 512
107T426 20T301 -9ZM308 730Q302 738 299 749T297 771Q324 787 350 804T400 840T448 877Q459 879 468 878T486 872Q510 843 537 815T592 757Q589 748 581 742T563 733Q535 752 505 768T442 797Q419 788 396 777T352 754T308 730Z" />
<glyph unicode="&#xdc;" horiz-adv-x="635" d="M301 -9Q174 -9 126 61T99 256L150 554Q156 585 154 601T142 625T109 636Q107 645 107 656T108 679Q143 677 166 677T219 676Q251 676 276 676T339 679Q338 667 337 657T330 636Q299 633 283 626T258 600T242 544L193
260Q173 145 210 95T321 44Q395 44 443 96T509 246L556 514Q564 557 562 580T545 615T502 636Q500 647 500 657T501 679Q533 677 556 677T600 676Q624 676 645 676T700 679Q700 667 698 657T691 636Q670 629 656 621T633 600T618 563T605 504L561 255Q545 165 512
107T426 20T301 -9ZM336 732Q311 732 300 750T293 796Q297 817 311 828T348 840Q374 840 386 824T392 781Q379 732 336 732ZM531 733Q506 733 495 749T487 793Q495 840 545 840Q569 840 581 825T588 784Q579 733 531 733Z" />
<glyph unicode="&#xdd;" horiz-adv-x="582" d="M285 224Q261 307 234 386T174 541Q158 581 148 599T128 625T103 637Q101 648 101 657T102 679Q121 678 139 677T176 676T213 676Q233 676 252 676T293 677T339 679Q339 667 337 657T330 635Q281 628 268 613T271
556Q295 495 315 430T354 297L338 305Q377 358 413 413T487 531Q516 582 515 605T468 636Q464 655 467 679Q492 677 513 677T563 676Q587 676 607 676T652 679Q652 657 643 636Q632 632 621 625T594 600T553 543Q492 446 440 371T332 224H285ZM150 -3Q150 11 152
22T157 41Q190 47 207 55T233 81T248 132L274 280H368L340 122Q335 94 337 78T356 54T407 40Q409 30 410 20T409 -3Q378 -1 345 -1T281 0Q248 0 213 0T150 -3ZM399 729Q389 730 380 734T362 745Q383 770 399 794T428 839T447 875Q458 877 468 878T488 879Q506 879
522 876T551 866Q514 836 475 800T399 729Z" />
<glyph unicode="&#xde;" horiz-adv-x="586" d="M29 -3Q29 10 31 21T37 40Q64 43 79 50T102 76T116 127L189 549Q195 583 191 600T172 625T129 636Q128 646 128 656T128 679Q156 678 186 677T248 676Q280 676 310 677T370 679Q369 667 368 657T361 636Q336 632
321 624T297 599T283 549L210 127Q204 93 207 76T229 51T283 40Q285 31 286 20T285 -3Q254 -1 222 -1T160 0Q129 0 93 0T29 -3ZM311 151Q289 151 273 154T244 165Q244 175 246 185T255 203Q267 199 279 198T306 196Q342 196 376 208T437 253T473 343Q485 414 453
458T333 502Q315 502 301 500T260 492L221 538Q239 538 267 538T327 539T386 540Q442 540 480 525T539 482T568 420T568 344Q560 299 528 255T441 181T311 151Z" />
<glyph unicode="&#xdf;" horiz-adv-x="536" d="M57 448H139L131 401Q111 405 89 407T46 409Q46 420 49 430T57 448ZM378 714Q437 714 465 693T499 641T500 580Q492 541 475 514T437 467T396 432T362 404T344 374Q338 346 351 325T387 283T432 239T466 183T471
106Q461 49 421 21T322 -7Q286 -7 257 3T205 30Q214 62 217 89T222 139Q245 150 270 148Q269 94 284 64T339 34Q365 34 382 47T403 88Q408 117 394 140T356 186T311 233T276 288T271 360Q276 386 292 404T329 436T371 466T410 502T433 556Q439 585 431 610T402
652T342 669Q315 669 294 647T256 576T223 447Q211 383 200 321T182 208T169 128Q156 46 135 -23T85 -142T21 -220T-56 -248Q-76 -248 -98 -239T-143 -212Q-144 -196 -142 -181T-136 -152Q-103 -161 -78 -164T-24 -168Q-5 -168 8 -160T31 -128T50 -59T70 59Q77
105 86 172T105 313T126 452Q135 505 153 552T201 636T274 693T378 714Z" />
<glyph unicode="&#xe0;" horiz-adv-x="473" d="M408 467Q414 465 418 458T421 431T410 371L360 147Q349 92 349 76T366 60Q378 60 390 67T422 90Q429 83 433 76T440 59Q415 31 386 11T324 -9Q296 -9 282 5T264 40T262 83T271 123Q275 133 281 149T295 181T306
205L342 346L345 458Q361 457 379 459T408 467ZM360 454L343 400Q328 408 309 412T270 416Q209 416 174 369T123 248Q105 163 113 118T152 72Q170 72 201 103T263 194T314 336L333 416L380 409L325 196H299Q281 146 249 99T178 21T96 -9Q71 -9 53 3T25 41T15 107T26
202Q42 279 80 339T174 433T295 467Q312 467 331 463T360 454ZM268 706Q275 664 285 623T312 536Q305 533 293 533T272 538Q254 578 228 624T175 704Q195 712 220 713T268 706Z" />
<glyph unicode="&#xe1;" horiz-adv-x="473" d="M408 467Q414 465 418 458T421 431T410 371L360 147Q349 92 349 76T366 60Q378 60 390 67T422 90Q429 83 433 76T440 59Q415 31 386 11T324 -9Q296 -9 282 5T264 40T262 83T271 123Q275 133 281 149T295 181T306
205L342 346L345 458Q361 457 379 459T408 467ZM360 454L343 400Q328 408 309 412T270 416Q209 416 174 369T123 248Q105 163 113 118T152 72Q170 72 201 103T263 194T314 336L333 416L380 409L325 196H299Q281 146 249 99T178 21T96 -9Q71 -9 53 3T25 41T15 107T26
202Q42 279 80 339T174 433T295 467Q312 467 331 463T360 454ZM350 714Q379 722 405 720T451 705Q414 671 374 626T296 531Q275 532 261 545Q282 579 299 609T329 666T350 714Z" />
<glyph unicode="&#xe2;" horiz-adv-x="473" d="M408 467Q414 465 418 458T421 431T410 371L360 147Q349 92 349 76T366 60Q378 60 390 67T422 90Q429 83 433 76T440 59Q415 31 386 11T324 -9Q296 -9 282 5T264 40T262 83T271 123Q275 133 281 149T295 181T306
205L342 346L345 458Q361 457 379 459T408 467ZM360 454L343 400Q328 408 309 412T270 416Q209 416 174 369T123 248Q105 163 113 118T152 72Q170 72 201 103T263 194T314 336L333 416L380 409L325 196H299Q281 146 249 99T178 21T96 -9Q71 -9 53 3T25 41T15 107T26
202Q42 279 80 339T174 433T295 467Q312 467 331 463T360 454ZM173 530Q167 539 165 551T164 575Q192 595 218 616T270 660T320 705Q331 707 340 705T358 698Q381 662 406 628T458 561Q455 551 447 543T428 532Q400 555 371 575T310 613Q286 601 263 588T218 561T173
530Z" />
<glyph unicode="&#xe3;" horiz-adv-x="473" d="M408 467Q414 465 418 458T421 431T410 371L360 147Q349 92 349 76T366 60Q378 60 390 67T422 90Q429 83 433 76T440 59Q415 31 386 11T324 -9Q296 -9 282 5T264 40T262 83T271 123Q275 133 281 149T295 181T306
205L342 346L345 458Q361 457 379 459T408 467ZM360 454L343 400Q328 408 309 412T270 416Q209 416 174 369T123 248Q105 163 113 118T152 72Q170 72 201 103T263 194T314 336L333 416L380 409L325 196H299Q281 146 249 99T178 21T96 -9Q71 -9 53 3T25 41T15 107T26
202Q42 279 80 339T174 433T295 467Q312 467 331 463T360 454ZM374 554Q357 554 341 560T310 575T280 590T248 597Q226 597 205 589T158 559Q153 563 150 569T148 583Q186 632 216 649T270 667Q288 667 304 661T335 646T363 632T391 625Q411 625 429 634T464 661Q469
659 474 654T482 641Q448 589 422 572T374 554Z" />
<glyph unicode="&#xe4;" horiz-adv-x="473" d="M408 467Q414 465 418 458T421 431T410 371L360 147Q349 92 349 76T366 60Q378 60 390 67T422 90Q429 83 433 76T440 59Q415 31 386 11T324 -9Q296 -9 282 5T264 40T262 83T271 123Q275 133 281 149T295 181T306
205L342 346L345 458Q361 457 379 459T408 467ZM360 454L343 400Q328 408 309 412T270 416Q209 416 174 369T123 248Q105 163 113 118T152 72Q170 72 201 103T263 194T314 336L333 416L380 409L325 196H299Q281 146 249 99T178 21T96 -9Q71 -9 53 3T25 41T15 107T26
202Q42 279 80 339T174 433T295 467Q312 467 331 463T360 454ZM382 533Q356 533 344 550T337 593Q342 619 357 629T393 640Q416 640 429 627T438 584Q429 533 382 533ZM226 532Q200 532 189 551T183 596Q188 616 201 628T236 640Q265 640 276 623T282 581Q278 560
263 546T226 532Z" />
<glyph unicode="&#xe5;" horiz-adv-x="473" d="M408 467Q414 465 418 458T421 431T410 371L360 147Q349 92 349 76T366 60Q378 60 390 67T422 90Q429 83 433 76T440 59Q415 31 386 11T324 -9Q296 -9 282 5T264 40T262 83T271 123Q275 133 281 149T295 181T306
205L342 346L345 458Q361 457 379 459T408 467ZM360 454L343 400Q328 408 309 412T270 416Q209 416 174 369T123 248Q105 163 113 118T152 72Q170 72 201 103T263 194T314 336L333 416L380 409L325 196H299Q281 146 249 99T178 21T96 -9Q71 -9 53 3T25 41T15 107T26
202Q42 279 80 339T174 433T295 467Q312 467 331 463T360 454ZM307 526Q254 526 232 555T216 625Q223 662 251 685T325 708Q365 708 386 692T413 652T415 605Q408 570 381 548T307 526ZM311 563Q328 563 341 573T359 606Q365 632 355 653T321 674Q300 674 287 658T269
620Q265 595 276 579T311 563Z" />
<glyph unicode="&#xe6;" horiz-adv-x="576" d="M120 -9Q87 -9 64 5T28 45T15 111T26 202Q47 291 88 350T182 438T291 467Q318 467 343 460T394 436L348 399Q326 410 310 413T278 416Q209 416 174 372T120 248Q98 157 112 113T173 69Q194 69 219 78T275 108L291
66Q254 35 210 13T120 -9ZM347 -9Q308 -9 285 10T251 63T241 138T250 221Q267 304 303 358T386 440T477 467Q515 467 536 450T564 405T563 346Q553 302 519 255T434 164T325 82L303 119Q342 142 380 173T446 245T482 333Q489 377 476 395T442 413Q427 413 413 404T384
377T359 333T341 271Q336 245 333 211T334 143T352 88T397 66Q419 66 447 79T497 119Q505 114 510 107T518 90Q488 53 443 22T347 -9Z" />
<glyph unicode="&#xe7;" horiz-adv-x="364" d="M138 -9Q93 -9 67 12T31 70T21 149T33 237Q44 286 64 328T112 401T178 449T264 467Q291 467 316 461T357 443Q349 418 343 390T334 335Q315 326 286 331Q290 381 278 399T238 418Q202 418 179 393T142 330T121 250Q116
219 114 186T117 124T139 78T187 60Q216 60 244 76T296 118Q304 113 308 106T317 90Q277 38 230 15T138 -9ZM55 -242Q53 -235 53 -227T54 -210Q91 -210 114 -198T143 -160Q148 -131 133 -116T89 -101Q73 -87 79 -63L144 16H199L141 -55Q178 -62 194 -87T202 -158Q193
-201 153 -222T55 -242Z" />
<glyph unicode="&#xe8;" horiz-adv-x="365" d="M132 -9Q89 -9 65 12T30 67T20 141T29 221Q46 305 82 359T163 440T254 467Q293 467 316 451T348 409T350 356Q343 323 317 296T256 248T182 217T112 203L115 240Q171 244 215 270T269 343Q275 374 264 395T228 416Q196
416 166 373T120 241Q113 200 114 159T131 90T185 63Q209 63 235 76T286 119Q294 114 299 107T307 90Q276 48 232 20T132 -9ZM224 706Q231 664 241 623T268 536Q261 533 249 533T228 538Q210 578 184 624T131 704Q151 712 176 713T224 706Z" />
<glyph unicode="&#xe9;" horiz-adv-x="365" d="M132 -9Q89 -9 65 12T30 67T20 141T29 221Q46 305 82 359T163 440T254 467Q293 467 316 451T348 409T350 356Q343 323 317 296T256 248T182 217T112 203L115 240Q171 244 215 270T269 343Q275 374 264 395T228 416Q196
416 166 373T120 241Q113 200 114 159T131 90T185 63Q209 63 235 76T286 119Q294 114 299 107T307 90Q276 48 232 20T132 -9ZM306 714Q335 722 361 720T407 705Q370 671 330 626T252 531Q231 532 217 545Q238 579 255 609T285 666T306 714Z" />
<glyph unicode="&#xea;" horiz-adv-x="365" d="M132 -9Q89 -9 65 12T30 67T20 141T29 221Q46 305 82 359T163 440T254 467Q293 467 316 451T348 409T350 356Q343 323 317 296T256 248T182 217T112 203L115 240Q171 244 215 270T269 343Q275 374 264 395T228 416Q196
416 166 373T120 241Q113 200 114 159T131 90T185 63Q209 63 235 76T286 119Q294 114 299 107T307 90Q276 48 232 20T132 -9ZM129 530Q123 539 121 551T120 575Q148 595 174 616T226 660T276 705Q287 707 296 705T314 698Q337 662 362 628T414 561Q411 551 403
543T384 532Q356 555 327 575T266 613Q242 601 219 588T174 561T129 530Z" />
<glyph unicode="&#xeb;" horiz-adv-x="365" d="M132 -9Q89 -9 65 12T30 67T20 141T29 221Q46 305 82 359T163 440T254 467Q293 467 316 451T348 409T350 356Q343 323 317 296T256 248T182 217T112 203L115 240Q171 244 215 270T269 343Q275 374 264 395T228 416Q196
416 166 373T120 241Q113 200 114 159T131 90T185 63Q209 63 235 76T286 119Q294 114 299 107T307 90Q276 48 232 20T132 -9ZM338 533Q312 533 300 550T293 593Q298 619 313 629T349 640Q372 640 385 627T394 584Q385 533 338 533ZM182 532Q156 532 145 551T139
596Q144 616 157 628T192 640Q221 640 232 623T238 581Q234 560 219 546T182 532Z" />
<glyph unicode="&#xec;" horiz-adv-x="247" d="M100 -9Q67 -9 51 9T34 59T45 135L86 279Q101 330 103 353T93 382T46 388Q45 399 46 408T52 426Q68 428 90 435T134 451T167 467Q198 454 204 424T194 331L139 138Q125 89 127 75T144 61Q154 61 167 68T196 90Q204
85 208 77T214 58Q185 27 157 9T100 -9ZM406 706Q413 664 423 623T450 536Q443 533 431 533T410 538Q392 578 366 624T313 704Q333 712 358 713T406 706Z" />
<glyph unicode="&#xed;" horiz-adv-x="247" d="M100 -9Q67 -9 51 9T34 59T45 135L86 279Q101 330 103 353T93 382T46 388Q45 399 46 408T52 426Q68 428 90 435T134 451T167 467Q198 454 204 424T194 331L139 138Q125 89 127 75T144 61Q154 61 167 68T196 90Q204
85 208 77T214 58Q185 27 157 9T100 -9ZM232 714Q261 722 287 720T333 705Q296 671 256 626T178 531Q157 532 143 545Q164 579 181 609T211 666T232 714Z" />
<glyph unicode="&#xee;" horiz-adv-x="247" d="M100 -9Q67 -9 51 9T34 59T45 135L86 279Q101 330 103 353T93 382T46 388Q45 399 46 408T52 426Q68 428 90 435T134 451T167 467Q198 454 204 424T194 331L139 138Q125 89 127 75T144 61Q154 61 167 68T196 90Q204
85 208 77T214 58Q185 27 157 9T100 -9ZM344 517Q334 526 329 537T325 561Q360 592 397 630T469 709Q482 709 489 708T502 704Q519 666 539 623T582 533Q578 530 567 528T548 526Q528 553 506 580T464 625Q430 597 400 570T344 517Z" />
<glyph unicode="&#xef;" horiz-adv-x="247" d="M100 -9Q67 -9 51 9T34 59T45 135L86 279Q101 330 103 353T93 382T46 388Q45 399 46 408T52 426Q68 428 90 435T134 451T167 467Q198 454 204 424T194 331L139 138Q125 89 127 75T144 61Q154 61 167 68T196 90Q204
85 208 77T214 58Q185 27 157 9T100 -9ZM364 532Q338 532 325 549T315 590Q319 610 333 625T376 640Q408 640 419 622T425 578Q421 557 404 545T364 532ZM521 533Q490 533 478 551T470 596Q475 618 491 629T531 640Q557 640 571 624T581 582Q577 563 564 548T521
533Z" />
<glyph unicode="&#xf0;" horiz-adv-x="453" d="M180 -8Q87 -8 48 57T31 231Q53 341 116 404T267 467Q296 467 316 460T349 438L350 379Q338 398 313 408T266 419Q217 419 181 367T128 226Q111 135 129 87T190 39Q240 39 276 100T331 264Q351 367 343 446T297 582T193
676Q193 684 196 693T204 711Q229 709 253 710T300 716Q355 672 391 604T438 450T429 263Q404 135 340 64T180 -8ZM212 489Q208 500 207 517T207 541L476 673Q480 660 481 648T480 621Q429 596 389 578T308 539T212 489Z" />
<glyph unicode="&#xf1;" horiz-adv-x="518" d="M42 0L97 291Q106 338 106 358T92 383T46 388Q46 399 47 409T52 426Q68 428 94 434T147 450T188 467Q204 462 209 446T209 402Q201 359 192 331T172 278L158 130L133 0H42ZM374 467Q390 467 408 459T439 431T455
372T444 275L415 153Q405 108 401 89T400 64T411 59Q422 59 438 68T467 90Q475 83 479 76T485 58Q452 24 425 8T370 -9Q331 -9 318 10T308 66T323 152L350 271Q362 322 362 348T354 384T335 394Q317 394 292 375T240 321T191 238T158 130L150 230L188 311Q200 335
220 362T266 413T320 452T374 467ZM394 554Q377 554 361 560T330 575T300 590T268 597Q246 597 225 589T178 559Q173 563 170 569T168 583Q206 632 236 649T290 667Q308 667 324 661T355 646T383 632T411 625Q431 625 449 634T484 661Q489 659 494 654T502 641Q468
589 442 572T394 554Z" />
<glyph unicode="&#xf2;" horiz-adv-x="455" d="M180 -9Q120 -9 82 22T31 108T31 230Q45 301 80 354T166 437T276 467Q335 467 372 438T424 357T426 238Q414 167 379 111T292 23T180 -9ZM193 39Q223 39 249 64T296 131T327 228Q343 311 325 365T261 419Q218 419
182 370T130 240Q119 182 123 137T145 65T193 39ZM256 706Q263 664 273 623T300 536Q293 533 281 533T260 538Q242 578 216 624T163 704Q183 712 208 713T256 706Z" />
<glyph unicode="&#xf3;" horiz-adv-x="455" d="M180 -9Q120 -9 82 22T31 108T31 230Q45 301 80 354T166 437T276 467Q335 467 372 438T424 357T426 238Q414 167 379 111T292 23T180 -9ZM193 39Q223 39 249 64T296 131T327 228Q343 311 325 365T261 419Q218 419
182 370T130 240Q119 182 123 137T145 65T193 39ZM338 714Q367 722 393 720T439 705Q402 671 362 626T284 531Q263 532 249 545Q270 579 287 609T317 666T338 714Z" />
<glyph unicode="&#xf4;" horiz-adv-x="455" d="M180 -9Q120 -9 82 22T31 108T31 230Q45 301 80 354T166 437T276 467Q335 467 372 438T424 357T426 238Q414 167 379 111T292 23T180 -9ZM193 39Q223 39 249 64T296 131T327 228Q343 311 325 365T261 419Q218 419
182 370T130 240Q119 182 123 137T145 65T193 39ZM161 530Q155 539 153 551T152 575Q180 595 206 616T258 660T308 705Q319 707 328 705T346 698Q369 662 394 628T446 561Q443 551 435 543T416 532Q388 555 359 575T298 613Q274 601 251 588T206 561T161 530Z"
/>
<glyph unicode="&#xf5;" horiz-adv-x="455" d="M180 -9Q120 -9 82 22T31 108T31 230Q45 301 80 354T166 437T276 467Q335 467 372 438T424 357T426 238Q414 167 379 111T292 23T180 -9ZM193 39Q223 39 249 64T296 131T327 228Q343 311 325 365T261 419Q218 419
182 370T130 240Q119 182 123 137T145 65T193 39ZM362 554Q345 554 329 560T298 575T268 590T236 597Q214 597 193 589T146 559Q141 563 138 569T136 583Q174 632 204 649T258 667Q276 667 292 661T323 646T351 632T379 625Q399 625 417 634T452 661Q457 659 462
654T470 641Q436 589 410 572T362 554Z" />
<glyph unicode="&#xf6;" horiz-adv-x="455" d="M180 -9Q120 -9 82 22T31 108T31 230Q45 301 80 354T166 437T276 467Q335 467 372 438T424 357T426 238Q414 167 379 111T292 23T180 -9ZM193 39Q223 39 249 64T296 131T327 228Q343 311 325 365T261 419Q218 419
182 370T130 240Q119 182 123 137T145 65T193 39ZM370 533Q344 533 332 550T325 593Q330 619 345 629T381 640Q404 640 417 627T426 584Q417 533 370 533ZM214 532Q188 532 177 551T171 596Q176 616 189 628T224 640Q253 640 264 623T270 581Q266 560 251 546T214
532Z" />
<glyph unicode="&#xf7;" horiz-adv-x="550" d="M49 237Q49 248 52 264T59 288H501Q501 273 500 261T491 238Q452 238 426 238T380 239T337 239T285 239Q224 239 169 239T49 237ZM246 61Q224 61 210 75T195 109Q195 129 206 143T244 158Q271 158 283 145T295 109Q295
87 281 74T246 61ZM305 369Q279 369 267 382T255 417Q255 443 270 455T305 467Q326 467 341 455T356 417Q356 399 345 384T305 369Z" />
<glyph unicode="&#xf8;" horiz-adv-x="455" d="M180 -9Q120 -9 82 22T31 108T31 230Q45 301 80 354T166 437T276 467Q335 467 372 438T424 357T426 238Q414 167 379 111T292 23T180 -9ZM193 39Q223 39 249 64T296 131T327 228Q343 311 325 365T261 419Q218 419
182 370T130 240Q119 182 123 137T145 65T193 39ZM33 -27Q21 -27 9 -22T-10 -7L429 484Q443 486 455 483T477 471Q441 434 396 385T302 281T204 170T111 64T33 -27Z" />
<glyph unicode="&#xf9;" horiz-adv-x="508" d="M128 -9Q94 -9 78 12T58 67T60 143T76 225Q91 285 97 318T101 366T85 384T47 388Q46 397 47 407T52 426Q67 428 93 434T146 450T185 467Q196 460 201 452T206 420T194 350T163 218Q151 168 149 134T154 82T180 65Q199
65 232 94T298 184T348 337L371 458H462L413 210Q399 140 394 108T392 68T407 60Q425 60 456 91Q463 85 467 77T475 59Q451 31 421 11T363 -9Q333 -9 317 5T298 45T300 103Q302 115 306 127T316 151H314Q302 126 283 99T238 47T185 7T128 -9ZM265 706Q272 664 282
623T309 536Q302 533 290 533T269 538Q251 578 225 624T172 704Q192 712 217 713T265 706Z" />
<glyph unicode="&#xfa;" horiz-adv-x="508" d="M128 -9Q94 -9 78 12T58 67T60 143T76 225Q91 285 97 318T101 366T85 384T47 388Q46 397 47 407T52 426Q67 428 93 434T146 450T185 467Q196 460 201 452T206 420T194 350T163 218Q151 168 149 134T154 82T180 65Q199
65 232 94T298 184T348 337L371 458H462L413 210Q399 140 394 108T392 68T407 60Q425 60 456 91Q463 85 467 77T475 59Q451 31 421 11T363 -9Q333 -9 317 5T298 45T300 103Q302 115 306 127T316 151H314Q302 126 283 99T238 47T185 7T128 -9ZM347 714Q376 722 402
720T448 705Q411 671 371 626T293 531Q272 532 258 545Q279 579 296 609T326 666T347 714Z" />
<glyph unicode="&#xfb;" horiz-adv-x="508" d="M128 -9Q94 -9 78 12T58 67T60 143T76 225Q91 285 97 318T101 366T85 384T47 388Q46 397 47 407T52 426Q67 428 93 434T146 450T185 467Q196 460 201 452T206 420T194 350T163 218Q151 168 149 134T154 82T180 65Q199
65 232 94T298 184T348 337L371 458H462L413 210Q399 140 394 108T392 68T407 60Q425 60 456 91Q463 85 467 77T475 59Q451 31 421 11T363 -9Q333 -9 317 5T298 45T300 103Q302 115 306 127T316 151H314Q302 126 283 99T238 47T185 7T128 -9ZM170 530Q164 539 162
551T161 575Q189 595 215 616T267 660T317 705Q328 707 337 705T355 698Q378 662 403 628T455 561Q452 551 444 543T425 532Q397 555 368 575T307 613Q283 601 260 588T215 561T170 530Z" />
<glyph unicode="&#xfc;" horiz-adv-x="508" d="M128 -9Q94 -9 78 12T58 67T60 143T76 225Q91 285 97 318T101 366T85 384T47 388Q46 397 47 407T52 426Q67 428 93 434T146 450T185 467Q196 460 201 452T206 420T194 350T163 218Q151 168 149 134T154 82T180 65Q199
65 232 94T298 184T348 337L371 458H462L413 210Q399 140 394 108T392 68T407 60Q425 60 456 91Q463 85 467 77T475 59Q451 31 421 11T363 -9Q333 -9 317 5T298 45T300 103Q302 115 306 127T316 151H314Q302 126 283 99T238 47T185 7T128 -9ZM379 533Q353 533 341
550T334 593Q339 619 354 629T390 640Q413 640 426 627T435 584Q426 533 379 533ZM223 532Q197 532 186 551T180 596Q185 616 198 628T233 640Q262 640 273 623T279 581Q275 560 260 546T223 532Z" />
<glyph unicode="&#xfd;" horiz-adv-x="453" d="M125 467Q141 462 150 454T165 427T178 372Q195 281 205 201T217 35L144 -100Q141 -13 134 67T116 213T92 326Q82 362 71 376T20 388Q19 399 20 408T25 426Q42 428 61 435T97 450T125 467ZM377 468Q405 458 418 437T431
389Q431 358 420 320T385 237T327 137T247 17Q187 -70 146 -122T76 -202T22 -239T-28 -248Q-50 -248 -73 -239T-117 -212Q-118 -196 -116 -181T-110 -152Q-87 -159 -60 -163T-9 -168Q11 -168 31 -160T78 -127T139 -57T226 64Q264 121 289 172T327 264T340 333Q340
354 329 368T284 387Q276 404 278 424Q296 429 315 437T352 453T377 468ZM298 714Q327 722 353 720T399 705Q362 671 322 626T244 531Q223 532 209 545Q230 579 247 609T277 666T298 714Z" />
<glyph unicode="&#xfe;" horiz-adv-x="445" d="M208 710Q224 705 229 690T229 646L186 414Q180 380 174 353T160 304T143 257L101 54Q109 19 109 -11T102 -77L72 -245H-19L118 534Q126 581 126 601T113 626T67 631Q67 642 68 652T73 669Q89 671 115 677T168 693T208
710ZM86 5L103 59Q118 51 137 47T176 43Q238 43 273 90T323 211Q341 296 333 341T294 387Q277 387 246 356T183 265T132 123L113 43L66 50L121 263H147Q166 314 197 361T268 438T350 468Q375 468 393 456T421 418T431 353T420 257Q405 180 366 120T272 26T151 -8Q135
-8 116 -4T86 5Z" />
<glyph unicode="&#xff;" horiz-adv-x="453" d="M125 467Q141 462 150 454T165 427T178 372Q195 281 205 201T217 35L144 -100Q141 -13 134 67T116 213T92 326Q82 362 71 376T20 388Q19 399 20 408T25 426Q42 428 61 435T97 450T125 467ZM377 468Q405 458 418 437T431
389Q431 358 420 320T385 237T327 137T247 17Q187 -70 146 -122T76 -202T22 -239T-28 -248Q-50 -248 -73 -239T-117 -212Q-118 -196 -116 -181T-110 -152Q-87 -159 -60 -163T-9 -168Q11 -168 31 -160T78 -127T139 -57T226 64Q264 121 289 172T327 264T340 333Q340
354 329 368T284 387Q276 404 278 424Q296 429 315 437T352 453T377 468ZM330 533Q304 533 292 550T285 593Q290 619 305 629T341 640Q364 640 377 627T386 584Q377 533 330 533ZM174 532Q148 532 137 551T131 596Q136 616 149 628T184 640Q213 640 224 623T230
581Q226 560 211 546T174 532Z" />
<glyph unicode="&#x2013;" horiz-adv-x="529" d="M49 233Q48 249 51 263T62 288H494Q493 274 490 261T478 236Q414 236 341 236T192 236T49 233Z" />
<glyph unicode="&#x2014;" horiz-adv-x="1024" d="M46 230Q49 266 64 286H989Q988 270 984 257T971 233Q869 233 734 233T428 233T46 230Z" />
<glyph unicode="&#x2018;" horiz-adv-x="245" d="M154 460Q132 472 130 500T134 555Q141 591 164 632T238 717Q250 717 258 711T272 696Q216 640 211 602T256 551Q256 536 252 517T241 488Q220 486 195 478T154 460Z" />
<glyph unicode="&#x2019;" horiz-adv-x="246" d="M231 717Q253 705 255 677T251 622Q244 586 221 545T147 460Q135 460 127 466T113 481Q169 537 174 575T129 626Q129 641 133 660T144 689Q165 691 190 699T231 717Z" />
<glyph unicode="&#x201a;" horiz-adv-x="185" d="M92 103Q114 91 116 63T112 8Q105 -28 82 -69T8 -154Q-4 -154 -12 -148T-26 -133Q30 -77 35 -39T-10 12Q-10 27 -6 46T5 75Q26 77 51 85T92 103Z" />
<glyph unicode="&#x201c;" horiz-adv-x="395" d="M143 460Q121 472 119 500T123 555Q130 591 153 632T227 717Q239 717 247 711T261 696Q209 644 203 607T242 551Q242 536 238 517T227 488Q206 486 182 478T143 460ZM296 460Q274 472 272 500T276 555Q283 593
303 632T373 713Q385 713 393 707T407 692Q352 637 350 600T395 551Q395 536 391 517T380 488Q359 486 335 478T296 460Z" />
<glyph unicode="&#x201d;" horiz-adv-x="396" d="M392 717Q414 705 416 677T412 622Q405 586 382 545T308 460Q296 460 288 466T274 481Q326 533 332 570T293 626Q293 641 297 660T308 689Q329 691 353 699T392 717ZM239 717Q261 705 263 677T259 622Q252 584
232 545T162 464Q150 464 142 470T128 485Q183 540 185 577T140 626Q140 641 144 660T155 689Q176 691 200 699T239 717Z" />
<glyph unicode="&#x201e;" horiz-adv-x="335" d="M242 103Q264 91 266 63T262 8Q255 -28 232 -69T158 -154Q146 -154 138 -148T124 -133Q176 -81 182 -44T143 12Q143 27 147 46T158 75Q179 77 203 85T242 103ZM89 103Q111 91 113 63T109 8Q102 -30 82 -69T12 -150Q0
-150 -8 -144T-22 -129Q33 -74 35 -37T-10 12Q-10 27 -6 46T5 75Q26 77 50 85T89 103Z" />
<glyph unicode="&#x2022;" horiz-adv-x="309" d="M161 183Q122 183 98 201T64 249T61 309Q68 344 97 368T175 393Q210 393 234 376T268 333T273 275Q265 232 236 208T161 183Z" />
<glyph unicode="&#x2039;" horiz-adv-x="272" d="M218 418Q181 380 144 348T62 279Q56 272 53 262T49 240Q78 209 111 169T178 83Q186 88 192 97T201 117Q192 133 179 159T153 214T133 261Q145 279 166 304T211 356T252 399Q248 406 239 411T218 418Z" />
<glyph unicode="&#x203a;" horiz-adv-x="275" d="M121 416Q147 380 173 347T230 281Q235 271 235 261T232 242Q191 208 146 168T58 90Q43 105 43 128Q70 154 103 187T158 248Q151 269 138 298T111 356T84 407Q92 413 101 415T121 416Z" />
</font>
</defs>
</svg>
