<?xml version="1.0" standalone="no"?>
<!DOCTYPE svg PUBLIC "-//W3C//DTD SVG 1.1//EN" "http://www.w3.org/Graphics/SVG/1.1/DTD/svg11.dtd">
<svg xmlns="http://www.w3.org/2000/svg">
<defs >
<font id="VollkornSC" horiz-adv-x="671" ><font-face
    font-family="Vollkorn SC Black"
    units-per-em="1000"
    panose-1="0 0 10 0 0 0 0 0 0 0"
    ascent="952"
    descent="-441"
    alphabetic="0" />
<glyph unicode=" " glyph-name="space" horiz-adv-x="200" />
<glyph unicode="!" glyph-name="exclam" horiz-adv-x="411" d="M279 494T259 258Q219 245 156 245Q135 474 101 675Q139 678 186 690T270 717Q286 713 293 702T301 669Q301 655 298 635Q279 494 259 258ZM310 53T282 23T206 -8Q158 -8 131 19T103 93Q103 139 133
165T212 192Q255 192 282 164T310 98Q310 53 282 23Z" />
<glyph unicode="&quot;" glyph-name="quotedbl" horiz-adv-x="412" d="M193 660T191 650Q180 585 165 452Q163 426 161 412Q142 412 120 415T89 425Q82 587 60 688Q92 692 115 698T164 717Q177 714 185 701T193 675Q193 660 191 650ZM352 663T350 649Q341 598
333 495L326 411Q299 411 283 413T251 422L248 464Q242 552 239 596T226 688Q282 696 321 717Q336 714 344 702T352 671Q352 663 350 649Z" />
<glyph unicode="#" glyph-name="numbersign" horiz-adv-x="624" d="M484 432L455 273H570Q570 223 555 184H461H439L404 -9Q378 -9 355 -3T320 14L351 184H211L176 -9Q154 -9 130 -2T93 18L123 183L20 180Q20 210 23 232T35 273H140L169 431Q123 431 65 429Q65
457 68 477T81 522H185L221 717Q247 717 271 710T304 692L273 522H413L449 717Q473 717 499 710T532 694L501 522H604Q604 468 590 432H505H484ZM397 432H256L227 273H368L397 432Z" />
<glyph unicode="$" glyph-name="dollar" horiz-adv-x="576" d="M536 85T479 42T314 -6Q314 -65 315 -97Q293 -97 268 -94T232 -83V-6Q134 0 48 28Q61 87 61 171Q104 184 166 184Q176 124 204 99T286 74Q327 74 350 83T373 108Q373 128 348 140T269 170Q206 191
165 210T94 264T63 351Q63 421 112 458T245 504V602Q293 602 327 587Q327 530 326 505Q376 503 419 495T486 473Q486 381 494 352Q477 341 449 335T396 329Q383 380 353 403T275 427Q241 427 223 419T204 398Q204 377 230 365T318 335Q384 317 428 299T504 248T536
161Q536 85 479 42Z" />
<glyph unicode="%" glyph-name="percent" horiz-adv-x="863" d="M175 -8T156 2T125 30L668 686Q691 686 714 679T750 657L201 -7Q175 -8 156 2ZM194 359T158 380T103 437T84 512Q84 556 103 594T162 654T256 677Q304 677 338 655T391 598T409 526Q409 480 390
442T334 382T246 359Q194 359 158 380ZM266 434T279 455T292 514Q292 554 279 579T245 604Q227 604 215 581T202 524Q202 484 215 459T251 434Q266 434 279 455ZM564 -8T528 13T473 70T454 145Q454 189 473 227T532 287T626 310Q674 310 708 288T761 231T779 159Q779
113 760 75T704 15T616 -8Q564 -8 528 13ZM636 67T649 88T662 147Q662 187 649 212T615 237Q597 237 585 214T572 157Q572 117 585 92T621 67Q636 67 649 88Z" />
<glyph unicode="&amp;" glyph-name="ampersand" horiz-adv-x="730" d="M608 114T625 109T676 102Q676 79 673 52T663 7Q574 7 482 -7Q479 -3 445 33Q375 -7 264 -7Q159 -7 106 26T53 131Q53 191 91 232T207 300Q176 343 165 369T154 418Q154 531 381 531Q493 531
567 507Q558 462 558 413Q558 400 560 370Q508 359 450 359Q445 407 428 431T376 456Q356 456 347 448T338 423Q338 403 353 376T404 306Q450 254 504 201Q515 220 519 233Q522 242 522 250Q522 263 511 269T476 280Q466 309 466 341Q497 339 577 339Q638 339 669
341Q669 306 661 279Q630 273 619 263T594 227Q577 194 555 156Q568 144 585 131Q608 114 625 109ZM369 59T398 81Q334 145 279 210L260 233Q241 211 241 172Q241 121 269 90T337 59Q369 59 398 81Z" />
<glyph unicode="&apos;" glyph-name="quotesingle" horiz-adv-x="253" d="M193 665T191 651Q183 609 178 556T166 411Q122 411 89 426Q84 564 60 687Q91 690 117 698T161 717Q176 713 184 701T193 669Q193 665 191 651Z" />
<glyph unicode="(" glyph-name="parenleft" horiz-adv-x="353" d="M239 620T212 520T185 266Q185 103 218 -29T306 -256Q281 -271 240 -271Q153 -179 94 -44T35 240Q35 394 86 514T235 741Q272 741 300 719Q239 620 212 520Z" />
<glyph unicode=")" glyph-name="parenright" horiz-adv-x="353" d="M214 635T266 520T318 270Q318 101 260 -38T113 -271Q73 -271 47 -256Q113 -145 140 -34T168 244Q168 401 141 511T53 719Q81 741 118 741Q214 635 266 520Z" />
<glyph unicode="*" glyph-name="asterisk" horiz-adv-x="507" d="M330 637T359 648T429 678Q447 632 447 580Q447 556 444 530Q396 544 364 551T290 565Q344 503 395 450Q365 425 329 409T256 390Q251 483 240 544Q195 479 157 415Q124 438 103 463T69 522Q146
554 204 586Q171 598 141 605T60 623Q70 657 88 688T130 741Q158 707 179 684T232 630Q232 701 223 782Q260 782 296 775T361 752Q318 688 286 623Q330 637 359 648Z" />
<glyph unicode="+" glyph-name="plus" horiz-adv-x="550" d="M512 269T510 250T499 212Q424 213 321 213V14Q301 1 229 1Q231 66 231 213L74 212Q62 211 37 211Q37 242 39 260T50 300H231Q231 409 230 491Q250 499 268 501T321 504V300H512Q512 269 510 250Z" />
<glyph unicode="," glyph-name="comma" horiz-adv-x="316" d="M256 -8T226 -73T144 -187Q120 -186 99 -178T64 -160Q131 -84 131 -35Q131 -16 113 -4T60 13Q60 49 63 72T76 128Q159 131 202 160Q232 151 244 130T256 55Q256 -8 226 -73Z" />
<glyph unicode="-" glyph-name="hyphen" horiz-adv-x="419" d="M359 249T346 209Q162 209 60 201Q60 225 64 254T77 306H359Q359 249 346 209Z" />
<glyph unicode="." glyph-name="period" horiz-adv-x="327" d="M115 -8T88 19T60 93Q60 139 90 165T169 192Q212 192 239 164T267 98Q267 53 239 23T163 -8Q115 -8 88 19Z" />
<glyph unicode="/" glyph-name="slash" horiz-adv-x="369" d="M85 -14T63 -6T29 15L263 530Q289 530 311 524T345 504L111 -14Q85 -14 63 -6Z" />
<glyph unicode="0" glyph-name="zero" horiz-adv-x="568" d="M162 -7T96 59T30 250Q30 374 95 439T283 504Q406 504 472 439T538 249Q538 125 473 59T285 -7Q162 -7 96 59ZM321 63T333 100T346 225Q346 332 329 383T275 434Q246 434 234 397T222 271Q222 164 239
114T292 63Q321 63 333 100Z" />
<glyph unicode="1" glyph-name="one" horiz-adv-x="437" d="M128 318T123 337T99 362T35 369Q35 423 44 453Q122 457 175 469T283 506Q301 500 309 485T318 438V197Q318 140 323 118T342 87T395 74Q402 34 402 -3Q335 0 209 0Q109 0 35 -3Q35 45 43 74Q86 78 102
86T123 116T128 197V271Q128 318 123 337Z" />
<glyph unicode="2" glyph-name="two" horiz-adv-x="475" d="M438 178T438 147Q438 82 445 38Q437 12 421 4T378 -4L325 -3Q276 0 214 0Q155 0 105 -3L54 -4Q30 37 30 100Q46 111 77 139T141 201Q206 268 230 309T255 382Q255 409 242 421T205 434Q172 434 158
406T138 310Q81 307 31 328Q34 364 34 409Q34 432 32 464Q114 503 243 503Q344 503 390 477T436 389Q436 346 415 313T364 256T285 203Q255 185 235 172T198 145H268Q306 145 321 148T343 162T355 200Q374 201 400 199T439 192Q438 178 438 147Z" />
<glyph unicode="3" glyph-name="three" horiz-adv-x="460" d="M292 269Q360 269 395 237T430 149Q430 74 368 34T195 -7Q77 -7 25 40Q30 82 59 111Q85 90 105 80T155 70Q196 70 221 88T247 138Q247 161 234 172T198 184Q178 184 167 182Q155 196 149 216T145 257Q206
310 257 369H205Q179 369 165 364T142 345T121 299Q63 299 39 317Q49 402 49 504Q133 500 223 500Q328 500 398 504Q422 462 419 421Q344 346 272 268L292 269Z" />
<glyph unicode="4" glyph-name="four" horiz-adv-x="536" d="M416 123V114Q416 94 426 87T468 74Q474 47 474 -2Q432 0 287 0Q170 0 140 -2Q140 49 148 74Q208 80 228 88T249 115V123H169Q103 123 58 117Q25 176 25 232L262 503Q290 507 329 507Q381 507 416 500V255H455Q472
255 482 250T502 231Q488 178 489 123H416ZM256 238V394L117 238H256Z" />
<glyph unicode="5" glyph-name="five" horiz-adv-x="469" d="M339 297T391 261T444 162Q444 83 377 38T184 -7Q124 -7 88 -1T25 30Q27 50 36 69T61 104Q83 87 101 81T144 74Q197 74 225 95T253 150Q253 174 233 185T173 196Q130 196 104 179L94 178Q79 178 65
184T41 200L85 506Q147 502 194 501T292 500Q310 500 321 513T333 544Q348 551 368 552T418 554Q413 506 411 400V373Q402 343 362 343H296Q233 343 198 342T137 336L129 281Q170 297 233 297Q339 297 391 261Z" />
<glyph unicode="6" glyph-name="six" horiz-adv-x="531" d="M407 321T454 280T501 171Q501 82 429 38T255 -7Q150 -7 90 44T30 203Q30 315 89 378T222 466T380 505L400 508Q407 500 412 484T417 450Q417 444 415 432Q328 419 284 393T223 310Q263 321 308 321Q407
321 454 280ZM293 75T306 96T319 157Q319 204 300 228T246 253Q229 253 213 249Q211 223 211 206Q211 137 225 106T268 75Q293 75 306 96Z" />
<glyph unicode="7" glyph-name="seven" horiz-adv-x="416" d="M101 15T101 55Q101 87 106 116T127 177Q147 218 186 269T263 355H220Q185 355 167 350T137 332T118 292Q49 292 20 306Q28 334 31 389T35 500L203 499Q359 499 384 500Q395 484 400 459T405 409Q335
341 304 272T273 105Q273 68 280 0Q190 0 106 -10Q101 15 101 55Z" />
<glyph unicode="8" glyph-name="eight" horiz-adv-x="515" d="M417 260T448 226T480 140Q480 72 421 33T254 -7Q151 -7 93 29T35 127Q35 165 59 191T134 236Q53 292 53 367Q53 430 107 467T259 505Q320 505 365 491T435 450T460 392Q460 360 435 333T363 289Q417
260 448 226ZM227 447T216 439T204 415Q204 396 222 377T278 334Q290 340 298 355T306 389Q306 417 291 432T248 447Q227 447 216 439ZM290 62T304 72T318 100Q318 121 297 139T225 184Q197 168 197 130Q197 99 215 81T265 62Q290 62 304 72Z" />
<glyph unicode="9" glyph-name="nine" horiz-adv-x="531" d="M381 507T441 456T501 297Q501 185 442 122T309 34T151 -5L131 -8Q124 0 119 16T114 50Q114 56 116 68Q203 81 247 107T308 190Q268 179 223 179Q124 179 77 220T30 329Q30 418 102 462T276 507Q381
507 441 456ZM302 247T318 251Q320 277 320 294Q320 363 306 394T263 425Q238 425 225 404T212 343Q212 296 231 272T285 247Q302 247 318 251Z" />
<glyph unicode=":" glyph-name="colon" horiz-adv-x="327" d="M115 267T88 294T60 368Q60 414 90 440T169 467Q212 467 239 439T267 373Q267 328 239 298T163 267Q115 267 88 294ZM115 -8T88 19T60 93Q60 139 90 165T169 192Q212 192 239 164T267 98Q267 53 239
23T163 -8Q115 -8 88 19Z" />
<glyph unicode=";" glyph-name="semicolon" horiz-adv-x="327" d="M115 267T88 294T60 368Q60 414 90 440T169 467Q212 467 239 439T267 373Q267 328 239 298T163 267Q115 267 88 294ZM263 -8T233 -73T151 -187Q127 -186 106 -178T71 -160Q138 -84 138 -35Q138
-16 120 -4T67 13Q67 49 70 72T83 128Q166 131 209 160Q239 151 251 130T263 55Q263 -8 233 -73Z" />
<glyph unicode="&lt;" glyph-name="less" horiz-adv-x="550" d="M236 122T54 213Q52 229 52 236Q52 273 71 307L409 503Q458 493 496 448L161 260L464 102Q467 86 467 66Q467 14 450 -7Q236 122 54 213Z" />
<glyph unicode="=" glyph-name="equal" horiz-adv-x="550" d="M46 356T60 392H504Q504 363 502 344T490 304Q409 305 281 305Q138 305 46 303Q46 356 60 392ZM45 174T59 206H505Q505 156 491 118Q410 119 281 119Q137 119 45 117Q45 174 59 206Z" />
<glyph unicode="&gt;" glyph-name="greater" horiz-adv-x="550" d="M488 274T488 265Q488 235 470 206Q387 162 309 116T126 1Q88 35 89 91L382 260L76 446Q85 467 104 485T148 512L484 294Q488 274 488 265Z" />
<glyph unicode="?" glyph-name="question" horiz-adv-x="537" d="M409 717T455 685T502 595Q502 545 480 514T416 448Q377 415 358 390T339 325Q339 287 354 242Q338 233 313 228T264 223Q239 238 222 275T204 351Q204 395 219 421T263 478Q289 506 300 525T312
574Q312 608 300 624T267 640Q246 640 232 612T210 506Q177 506 154 511T108 529Q111 567 111 607Q111 642 108 672Q204 717 315 717Q409 717 455 685ZM255 -8T228 19T200 93Q200 139 230 165T309 192Q352 192 379 164T407 98Q407 53 379 23T303 -8Q255 -8 228
19Z" />
<glyph unicode="@" glyph-name="at" horiz-adv-x="950" d="M799 44T817 11Q773 -39 685 -68T494 -97Q355 -97 263 -54T126 67T81 247Q81 344 132 423T281 547T512 593Q630 593 710 559T829 466T869 332Q869 249 839 187T752 92T623 58Q584 58 560 79T536 136V139Q483
58 383 58Q314 58 280 102T245 230Q245 290 272 338T344 412T442 439Q497 439 556 428Q639 430 673 439Q690 430 695 416T700 362V257Q700 213 702 192T711 163T728 155Q752 155 771 190T791 303Q791 402 720 464T498 527Q391 527 317 491T205 392T167 252Q167
174 203 111T315 10T506 -28Q587 -28 655 -8T772 54Q799 44 817 11ZM486 149T507 188T538 300L539 354Q512 371 479 371Q452 371 439 364T420 334T414 262Q414 149 457 149Q486 149 507 188Z" />
<glyph unicode="A" glyph-name="A" horiz-adv-x="717" d="M707 48T707 -3Q667 0 550 0Q412 0 374 -3Q374 43 382 75Q404 80 414 89T424 112Q424 126 413 151L406 166Q275 166 179 156L177 152Q172 139 172 126Q172 107 182 93T215 75Q223 41 223 -3Q189 0 106
0Q40 0 10 -3Q10 44 20 75Q44 80 59 99T100 176L312 676Q330 680 348 681T388 682L610 195Q634 143 648 119T672 86T699 75Q707 48 707 -3ZM378 231L340 316Q307 389 289 454Q271 389 241 316L208 231H378Z" />
<glyph unicode="B" glyph-name="B" horiz-adv-x="713" d="M591 364T637 319T683 194Q683 0 367 0Q185 0 30 -3Q30 45 38 75Q66 77 79 86T98 117T104 187V491Q104 537 99 558T81 588T37 601Q30 629 30 679Q67 676 138 676Q205 676 248 677L367 678Q472 678 533
661T621 610T647 523Q647 464 606 423T488 370Q591 364 637 319ZM447 544T421 572T351 601Q325 601 304 592V384H340Q390 384 418 413T447 496Q447 544 421 572ZM411 74T437 103T463 183Q463 252 431 280T329 309H304V178Q304 117 322 96T373 74Q411 74 437 103Z"
/>
<glyph unicode="C" glyph-name="C" horiz-adv-x="634" d="M277 -9T199 35T78 158T35 341Q35 450 82 528T208 645T379 685Q433 685 490 672T599 633Q588 570 588 478Q576 471 546 468T489 464Q488 608 383 608Q308 608 274 540T240 367Q240 239 289 162T438 85Q511
85 586 127Q607 109 614 72Q574 37 514 14T379 -9Q277 -9 199 35Z" />
<glyph unicode="D" glyph-name="D" horiz-adv-x="739" d="M454 678T532 652T657 555T704 355Q704 208 640 129T494 25T339 0Q268 0 178 -1T30 -3Q30 45 38 75Q66 77 79 86T98 117T104 187V491Q104 537 99 558T81 588T37 601Q30 629 30 679Q101 676 239 676Q265
676 280 677L344 678Q454 678 532 652ZM423 75T462 128T502 337Q502 603 344 603Q322 603 304 595V192Q304 145 311 120T334 85T382 75Q423 75 462 128Z" />
<glyph unicode="E" glyph-name="E" horiz-adv-x="646" d="M562 208T590 199T631 177Q608 108 600 -2Q482 0 339 0Q268 0 178 -1T30 -3Q30 45 38 75Q66 77 79 86T98 117T104 187V491Q104 537 99 558T81 588T37 601Q30 629 30 679Q123 676 301 676Q487 676 571 679Q572
636 577 585T592 501Q545 483 491 483Q480 543 451 572T353 601H304V374H305Q352 374 368 389T386 445Q417 457 474 457Q470 393 470 340Q470 279 474 221Q417 221 388 231Q384 272 367 285T305 299H304V192Q304 145 311 120T334 85T382 75H399Q450 75 479 106T529
211Q562 208 590 199Z" />
<glyph unicode="F" glyph-name="F" horiz-adv-x="617" d="M447 422T504 422Q500 358 500 305Q500 244 504 186Q447 186 418 196Q414 237 397 250T335 264H304V197Q304 132 327 106T413 75Q422 50 422 -3Q365 0 232 0Q99 0 30 -3Q30 48 37 75Q66 77 79 86T98 117T104
187V491Q104 538 100 559T82 588T39 601Q30 637 30 679Q123 676 301 676Q497 676 581 679Q582 636 587 585T602 501Q555 483 501 483Q490 543 461 572T363 601H304V339H335Q382 339 398 354T416 410Q447 422 504 422Z" />
<glyph unicode="G" glyph-name="G" horiz-adv-x="699" d="M279 -9T200 32T78 153T35 343Q35 451 78 527T201 644T393 685Q455 685 517 670T628 633Q617 570 617 478Q598 469 575 467T518 464Q514 540 482 573T388 607Q312 607 276 538T239 367Q239 281 259 214T316
109T402 71Q426 71 437 75Q453 81 461 96T469 147V181Q469 211 464 226T443 248T398 256Q391 285 391 333Q431 330 530 330Q632 330 674 332Q674 285 668 256Q643 254 637 243T630 197V173Q630 135 633 115T647 69Q598 34 531 13T389 -9Q279 -9 200 32Z" />
<glyph unicode="H" glyph-name="H" horiz-adv-x="802" d="M698 140T703 118T722 86T764 75Q772 46 772 -3Q727 0 613 0Q495 0 424 -3Q424 14 427 37T434 75Q462 77 475 86T493 117T498 187V310Q365 310 304 301V187Q304 140 309 118T328 86T370 75Q378 46 378
-3Q333 0 219 0Q101 0 30 -3Q30 14 33 37T40 75Q68 77 81 86T99 117T104 187V491Q104 538 100 559T82 588T39 601Q30 637 30 679Q80 676 209 676Q318 676 378 679Q378 653 377 636T369 601Q340 598 327 590T309 560T304 491V389H498V491Q498 538 494 559T476 588T433
601Q424 637 424 679Q474 676 603 676Q712 676 772 679Q772 653 771 636T763 601Q734 598 721 590T703 560T698 491V187Q698 140 703 118Z" />
<glyph unicode="I" glyph-name="I" horiz-adv-x="408" d="M104 538T100 559T82 588T39 601Q30 637 30 679Q80 676 209 676Q318 676 378 679Q378 653 377 636T369 601Q340 598 327 590T309 560T304 491V187Q304 140 309 118T328 86T370 75Q378 46 378 -3Q333 0
219 0Q101 0 30 -3Q30 14 33 37T40 75Q68 77 81 86T99 117T104 187V491Q104 538 100 559Z" />
<glyph unicode="J" glyph-name="J" horiz-adv-x="393" d="M289 34T269 -34T190 -156T22 -249Q-10 -225 -15 -175Q24 -149 46 -121T78 -50T89 62V488Q89 537 84 559T66 589T24 601Q15 631 15 679Q57 676 189 676Q318 676 363 679Q363 629 354 601Q324 599 311 588T293
556T289 488V135Q289 34 269 -34Z" />
<glyph unicode="K" glyph-name="K" horiz-adv-x="767" d="M658 124T688 102T757 75Q757 24 745 0Q688 0 607 -2T492 -9Q447 84 403 158T304 299V187Q304 140 309 118T328 86T370 75Q378 46 378 -3Q333 0 219 0Q101 0 30 -3Q30 14 33 37T40 75Q68 77 81 86T99 117T104
187V491Q104 538 100 559T82 588T39 601Q30 637 30 679Q80 676 209 676Q318 676 378 679Q378 653 377 636T369 601Q340 598 327 590T309 560T304 491V375L439 509Q486 556 486 581Q486 599 460 601Q451 629 451 679Q489 676 564 676Q681 676 717 679Q717 660 714
637T706 601Q669 599 635 581T565 526L458 415Q547 305 626 176Q658 124 688 102Z" />
<glyph unicode="L" glyph-name="L" horiz-adv-x="641" d="M450 75T479 106T529 211Q562 208 590 199T631 177Q608 108 600 -2Q482 0 339 0Q268 0 178 -1T30 -3Q30 45 38 75Q66 77 79 86T98 117T104 187V491Q104 537 99 558T81 588T37 601Q30 629 30 679Q125 676
204 676Q318 676 378 679Q378 651 377 633T369 601Q340 598 327 590T309 560T304 491V192Q304 145 311 120T334 85T382 75H399Q450 75 479 106Z" />
<glyph unicode="M" glyph-name="M" horiz-adv-x="998" d="M988 44T988 -3Q949 0 793 0Q711 0 639 -3Q639 32 648 75Q684 79 696 91T709 138Q709 165 705 200L676 475L489 -1Q466 -9 414 -9L203 472L179 246Q174 196 174 170Q174 116 189 97T238 75Q246 44 246
-3Q216 0 136 0Q70 0 10 -3Q10 44 18 75Q45 77 61 92T87 142T104 242L126 486Q129 512 129 531Q129 573 115 587T64 601Q56 628 56 679Q101 676 196 676Q302 676 332 679L513 247L669 679Q723 676 813 676Q903 676 948 679Q948 628 940 601Q903 601 888 585T873
529Q873 511 876 485L904 211Q910 150 917 124T938 88T981 76Q988 44 988 -3Z" />
<glyph unicode="N" glyph-name="N" horiz-adv-x="711" d="M645 676T681 679Q681 659 680 639T674 601Q647 597 634 586T616 547T611 458V0Q592 -6 572 -7T520 -9L179 453V218Q179 159 185 131T208 91T258 75Q265 49 265 -3Q223 0 144 0Q51 0 15 -3Q15 50 23 75Q56
79 72 91T96 132T104 218V554L90 573Q82 587 69 592T23 601Q15 630 15 679Q54 676 148 676Q234 676 261 679L536 300V458Q536 517 530 545T506 585T451 601Q444 628 444 679Q486 676 575 676Q645 676 681 679Z" />
<glyph unicode="O" glyph-name="O" horiz-adv-x="761" d="M274 -9T196 34T77 157T35 341Q35 446 79 523T201 643T380 685Q484 685 562 644T683 528T726 354Q726 247 684 165T563 37T380 -9Q274 -9 196 34ZM453 69T487 140T521 333Q521 410 503 473T449 573T367
610Q306 610 273 547T240 365Q240 236 278 153T392 69Q453 69 487 140Z" />
<glyph unicode="P" glyph-name="P" horiz-adv-x="693" d="M403 295T428 330T453 439Q453 513 426 556T343 599Q322 599 304 592V197Q304 132 327 106T413 75Q422 50 422 -3Q365 0 229 0Q99 0 30 -3Q30 48 37 75Q66 77 79 86T98 117T104 187V491Q104 538 100 559T82
588T39 601Q30 637 30 679Q125 676 193 676L322 677Q352 678 390 678Q538 678 598 624T658 469Q658 353 591 284T405 215Q363 215 337 225Q335 241 335 249Q335 277 346 297Q354 295 368 295Q403 295 428 330Z" />
<glyph unicode="Q" glyph-name="Q" horiz-adv-x="761" d="M787 -107T784 -130T776 -170Q728 -174 680 -187T591 -219Q559 -205 541 -182T496 -114Q469 -66 446 -41T381 -9H380Q274 -9 196 34T77 157T35 341Q35 446 79 523T201 643T380 685Q484 685 562 644T683
528T726 354Q726 234 673 146T525 18Q569 2 621 -34Q663 -63 697 -76T786 -86Q787 -107 784 -130ZM240 236T278 153T392 69Q453 69 487 140T521 333Q521 410 503 473T449 573T367 610Q306 610 273 547T240 365Q240 236 278 153Z" />
<glyph unicode="R" glyph-name="R" horiz-adv-x="718" d="M650 105T664 93T708 78Q708 38 697 0Q533 0 473 -9Q463 14 426 109L413 144Q394 195 379 219T341 259Q317 259 304 260V197Q304 143 308 118T323 84T353 75Q360 55 360 -3Q303 0 185 0Q99 0 30 -3Q30
45 38 75Q66 77 79 86T98 117T104 187V493Q104 539 99 560T81 590T37 603Q34 616 32 640T30 680Q110 676 202 676L266 678Q389 681 409 681Q492 681 548 656T631 589T658 493Q658 409 620 356T518 286Q542 277 557 263T588 223T630 144Q650 105 664 93ZM381 337T415
371T449 469Q449 533 421 569T346 605Q324 605 304 598V341Q324 337 334 337Q381 337 415 371Z" />
<glyph unicode="S" glyph-name="S" horiz-adv-x="564" d="M141 -9T28 48Q42 111 42 217Q88 230 165 230Q170 165 180 132T210 86T269 73Q317 73 341 92T365 140Q365 168 339 186T254 232Q190 261 148 288T74 362T43 478Q43 584 111 634T287 685Q344 685 404 673T493
641Q493 533 500 490Q481 478 449 473T385 467Q373 544 346 574T273 605Q240 605 219 591T197 547Q197 514 228 492T325 441Q393 411 437 384T512 311T544 198Q544 100 474 46T274 -9Q141 -9 28 48Z" />
<glyph unicode="T" glyph-name="T" horiz-adv-x="719" d="M457 601V187Q457 139 464 117T492 86T555 75Q565 49 565 -3Q509 0 370 0Q205 0 139 -3Q139 14 142 37T151 75Q195 77 217 86T248 117T257 187V601H255Q202 601 174 571T128 473Q57 473 25 488Q36 529
43 583T50 679Q134 676 363 676Q545 676 670 679Q670 637 676 586T694 489Q655 473 590 473Q576 542 552 571T477 601H457Z" />
<glyph unicode="U" glyph-name="U" horiz-adv-x="697" d="M596 186T583 132T536 44Q479 -9 359 -9Q259 -9 201 16T119 95T94 239V486Q94 533 89 555T70 587T28 601Q20 635 20 679Q61 676 156 676Q316 676 364 679Q364 629 358 601Q329 596 317 587T299 556T294
486V256Q294 163 322 118T406 72Q431 72 454 82T492 115Q506 136 513 175T520 287V467Q520 517 514 544T494 583T454 601Q448 642 448 679Q489 676 560 676Q630 676 667 679Q667 630 659 601Q633 597 620 586T601 549T596 476V277Q596 186 583 132Z" />
<glyph unicode="V" glyph-name="V" horiz-adv-x="707" d="M667 676T697 679Q697 643 687 601Q661 596 644 575T605 500Q503 239 399 0Q384 -6 362 -7T307 -9Q199 276 105 482Q82 532 69 555T45 588T18 601Q8 628 10 679Q61 676 173 676Q279 676 343 679Q342 628
335 601Q312 597 302 590T292 567Q292 548 312 502Q350 408 370 353T411 225Q478 382 528 525Q534 542 534 556Q534 595 492 601Q483 628 484 679Q519 676 598 676Q667 676 697 679Z" />
<glyph unicode="W" glyph-name="W" horiz-adv-x="985" d="M934 676T975 679Q975 652 974 635T966 601Q947 594 935 581T911 539T883 458L748 0Q733 -4 701 -6T640 -9Q571 181 486 391L347 -2Q317 -9 243 -9Q163 260 96 467Q74 530 64 555T45 588T17 598Q12 614
11 635T10 679Q58 676 178 676Q303 676 350 679Q350 633 342 601Q312 596 299 587T286 557Q286 534 304 484Q341 368 365 282L505 676Q534 684 589 684Q672 480 750 268L807 458Q821 503 821 534Q821 565 806 580T756 601Q746 627 746 679Q788 676 866 676Q934
676 975 679Z" />
<glyph unicode="X" glyph-name="X" horiz-adv-x="730" d="M710 49T710 -3Q667 0 523 0Q406 0 346 -2Q346 44 353 75Q370 77 377 81T385 95Q385 107 372 134T326 217L308 247L274 197Q249 159 238 137T226 102Q226 90 235 84T263 75Q271 46 271 -3Q220 0 144 0Q60
0 20 -3Q20 54 29 77Q74 89 108 115T183 199L265 316Q192 433 153 491Q122 537 105 558T74 588T40 600Q31 629 31 679Q84 676 238 676Q323 676 385 678Q385 637 378 601Q360 598 352 593T343 577Q343 557 377 506L425 433L461 490Q497 546 497 572Q497 585 489
592T464 601Q457 627 457 679Q507 676 581 676Q656 676 694 679Q694 629 687 601Q654 593 636 583T600 553T556 492L470 362Q523 279 544 241Q589 167 613 134T655 90T701 75Q710 49 710 -3Z" />
<glyph unicode="Y" glyph-name="Y" horiz-adv-x="634" d="M592 676T624 678Q624 635 615 601Q596 597 581 580T545 517L423 248V198Q423 146 430 122T457 88T522 75Q528 55 530 39T532 -3Q474 0 318 0Q258 0 158 -2L105 -3Q107 50 117 75Q168 79 189 87T216 119T223
199V251L84 542Q58 596 18 601Q10 630 10 678Q58 676 178 676Q305 676 346 678Q346 640 339 601Q306 597 306 569Q306 555 320 518L331 490Q368 399 390 338Q429 438 466 524Q475 545 475 562Q475 598 437 601Q428 634 428 678Q464 676 531 676Q592 676 624 678Z"
/>
<glyph unicode="Z" glyph-name="Z" horiz-adv-x="586" d="M513 207T556 183Q547 145 538 90T528 -3Q450 0 270 0Q142 0 50 -3Q30 25 30 68Q129 243 191 357T317 601H264Q232 601 212 589T178 547T149 456Q75 456 43 470Q56 515 62 571T68 678Q118 676 302 676Q463
676 524 678Q542 648 545 608Q472 456 408 334T264 75H300Q345 75 371 86T415 126T448 212Q513 207 556 183Z" />
<glyph unicode="[" glyph-name="bracketleft" horiz-adv-x="311" d="M71 741T131 741Q207 741 252 742Q260 725 262 707T264 659Q219 655 198 648T170 625T162 575V-96Q162 -132 168 -149T194 -174T253 -184Q260 -205 262 -222T264 -269Q246 -269 238 -268L155
-267L64 -268Q55 -269 35 -269V742Q71 741 131 741Z" />
<glyph unicode="\" glyph-name="backslash" horiz-adv-x="368" d="M24 512Q34 517 51 520T86 523Q100 523 105 522L339 -13Q322 -19 300 -21T259 -23L24 512Z" />
<glyph unicode="]" glyph-name="bracketright" horiz-adv-x="311" d="M256 -269T247 -268L156 -267L73 -268Q65 -269 47 -269Q47 -240 49 -223T58 -184Q98 -182 117 -175T142 -150T149 -96V575Q149 609 142 625T113 648T47 659Q47 689 49 707T59 742Q104 741 180
741Q240 741 276 742V-269Q256 -269 247 -268Z" />
<glyph unicode="_" glyph-name="underscore" horiz-adv-x="550" d="M16 -103T30 -72H534Q534 -126 520 -152Q443 -151 384 -151T262 -151L98 -152L16 -153Q16 -103 30 -72Z" />
<glyph unicode="`" glyph-name="grave" horiz-adv-x="300" d="M130 581T102 614T33 685Q110 717 197 717Q208 680 227 635T266 551Q228 533 164 533Q130 581 102 614Z" />
<glyph unicode="a" glyph-name="a" horiz-adv-x="670" d="M640 51T640 -2Q617 0 547 0H495H436Q353 0 331 -2Q331 41 338 74Q378 85 378 111Q378 117 373 129L369 137Q258 137 174 125Q171 106 182 93T214 74Q221 39 221 -2Q183 0 115 0Q48 0 30 -2Q30 42 39 75Q60
77 73 91T108 146L292 499Q309 503 327 504T366 505L579 127Q598 94 608 85T633 74Q640 51 640 -2ZM341 196L312 258L302 281Q288 309 273 348Q260 308 236 259L206 196H341Z" />
<glyph unicode="b" glyph-name="b" horiz-adv-x="697" d="M566 267T606 231T647 141Q647 71 579 36T357 0Q236 0 187 0T113 -1L50 -2Q50 45 58 74Q83 76 94 83T110 108T115 164V333Q115 373 111 390T95 415T56 426Q50 456 50 502Q94 500 146 500L355 502Q501 502
559 471T617 386Q617 341 582 312T475 272Q566 267 606 231ZM426 391T405 408T345 426Q324 426 308 421V295H340Q426 295 426 359Q426 391 405 408ZM394 71T415 88T436 140Q436 213 330 213H308V153Q308 71 365 71Q394 71 415 88Z" />
<glyph unicode="c" glyph-name="c" horiz-adv-x="606" d="M543 421T543 354Q532 348 503 345T449 341Q448 384 425 407T362 431Q303 431 277 387T251 270Q251 183 291 132T416 80Q482 80 540 102Q559 85 566 49Q467 -7 362 -7Q270 -7 201 25T93 116T55 251Q55
331 96 389T207 477T359 507Q405 507 456 497T553 468Q543 421 543 354Z" />
<glyph unicode="d" glyph-name="d" horiz-adv-x="704" d="M50 45T58 74Q83 76 94 83T110 108T115 164V333Q115 373 111 390T95 415T56 426Q50 456 50 502Q138 500 243 500Q265 500 278 501L335 502Q432 502 500 483T608 411T649 263Q649 154 593 96T465 19T330
0L50 -2Q50 45 58 74ZM405 71T430 105T456 248Q456 354 425 390T337 427Q320 427 308 421V171Q308 131 314 110T336 80T378 71Q405 71 430 105Z" />
<glyph unicode="e" glyph-name="e" horiz-adv-x="629" d="M526 173T553 164T594 144Q574 92 567 -1L330 0L50 -2Q50 45 58 74Q83 76 94 83T110 108T115 164V333Q115 373 111 390T95 415T56 426Q50 456 50 502Q168 500 307 500Q487 500 540 502Q541 468 546 428T559
363Q536 355 515 351T465 347Q456 391 432 408T348 426H308V273H319Q346 273 355 283T365 317Q393 329 444 329Q440 285 440 241Q440 190 444 154Q393 154 367 164Q365 187 355 194T319 201H308V171Q308 113 322 92T374 71H391Q428 71 453 95T495 174Q526 173 553
164Z" />
<glyph unicode="f" glyph-name="f" horiz-adv-x="605" d="M425 308T479 308Q475 262 475 217Q475 164 479 128Q425 128 397 138Q394 162 380 169T329 177H308V172Q308 123 329 101T407 74Q415 49 415 -2Q347 0 238 0Q138 0 50 -2Q50 47 56 74Q82 76 94 83T110
109T115 170V333Q115 374 111 391T97 415T59 426Q50 462 50 502Q166 500 308 500Q498 500 551 502Q552 467 557 426T570 360Q546 352 524 348T472 344Q463 389 439 407T355 426H308V249H329Q368 249 381 260T396 297Q425 308 479 308Z" />
<glyph unicode="g" glyph-name="g" horiz-adv-x="653" d="M271 -7T201 26T93 118T55 252Q55 337 97 394T209 479T367 506Q420 506 477 494T568 466Q559 415 559 351Q542 342 522 340T486 338T465 338Q461 383 435 406T359 430Q307 430 283 384T259 271Q259 178
291 124T380 69Q395 69 404 71Q412 73 416 82T421 117V134Q421 155 409 164T362 176Q357 204 357 250Q393 247 479 247Q568 247 608 249Q608 206 603 176Q583 174 578 167T572 144V128Q572 102 575 90T587 53Q545 26 487 10T365 -7Q271 -7 201 26Z" />
<glyph unicode="h" glyph-name="h" horiz-adv-x="769" d="M653 129T657 110T673 84T711 75Q715 63 717 40T719 -2Q669 0 573 0Q490 0 410 -2Q410 14 413 37T420 75Q439 77 447 84T458 109T461 170V227Q367 227 308 219V170Q308 129 311 110T323 84T351 75Q355
63 357 40T359 -2Q313 0 227 0Q136 0 50 -2Q50 14 53 37T60 75Q85 77 96 84T111 109T115 170V333Q115 373 111 390T97 414T59 425Q55 440 53 462T50 502Q106 500 216 500Q293 500 359 502Q359 478 358 461T350 425Q331 422 323 414T311 386T308 325V296H461V325Q461
366 458 385T447 412T418 425Q410 465 410 502Q462 500 562 500Q647 500 719 502Q719 478 718 461T710 425Q684 422 673 415T657 391T653 333V170Q653 129 657 110Z" />
<glyph unicode="i" glyph-name="i" horiz-adv-x="423" d="M50 15T53 38T60 74Q85 76 96 83T111 109T115 170V333Q115 374 111 391T97 415T59 426Q50 456 50 502Q106 500 216 500Q301 500 373 502Q373 478 372 461T364 426Q338 423 327 416T312 392T308 333V170Q308
128 312 109T328 83T365 74Q373 51 373 -2Q323 0 227 0Q136 0 50 -2Q50 15 53 38Z" />
<glyph unicode="j" glyph-name="j" horiz-adv-x="402" d="M287 30T268 -23T195 -117T41 -184Q10 -158 5 -104Q40 -88 58 -72T86 -25T95 61V329Q95 372 91 391T76 416T38 426Q34 440 32 462T29 502Q68 500 191 500Q309 500 352 502Q352 454 343 426Q316 424 305
415T290 388T287 329V105Q287 30 268 -23Z" />
<glyph unicode="k" glyph-name="k" horiz-adv-x="742" d="M626 92T641 86T684 77Q689 77 695 77T712 74Q712 47 710 30T700 0Q651 0 572 -2T463 -8Q430 61 396 109T308 217V170Q308 128 312 109T328 83T365 74Q373 51 373 -2Q323 0 227 0Q136 0 50 -2Q50 15 53
38T60 74Q85 76 96 83T111 109T115 170V333Q115 374 111 391T97 415T59 426Q50 456 50 502Q106 500 216 500Q301 500 373 502Q373 478 372 461T364 426Q338 423 327 416T312 392T308 333V275L422 359Q463 390 463 410Q463 426 441 426Q433 454 433 502Q477 500
534 500Q636 500 676 502Q676 484 673 461T666 426Q636 425 608 413T542 377L465 315Q541 215 609 116Q626 92 641 86Z" />
<glyph unicode="l" glyph-name="l" horiz-adv-x="627" d="M431 71T456 97T498 177Q529 176 556 167T597 147Q577 93 570 -1L330 0L50 -2Q50 45 58 74Q83 76 94 83T110 108T115 164V333Q115 373 111 390T95 415T56 426Q50 456 50 502Q76 502 88 501L211 500Q301
500 373 502Q373 476 372 458T364 426Q338 423 327 416T312 392T308 334V171Q308 113 322 92T374 71H391Q431 71 456 97Z" />
<glyph unicode="m" glyph-name="m" horiz-adv-x="939" d="M909 44T909 -2Q865 0 726 0L630 -1Q610 -2 585 -2Q585 28 588 49T593 75Q626 79 636 86T647 121Q647 144 643 172L619 349L464 14Q436 5 409 5Q393 5 378 8L202 350L184 219Q180 183 180 153Q180 108
192 93T235 75Q242 44 242 -2Q210 0 145 0L66 -1Q50 -2 30 -2Q30 46 38 75Q71 76 88 106T114 209L132 331Q134 363 134 370Q134 405 123 415T78 426Q73 443 72 459T70 502Q126 500 204 500Q299 500 333 502L481 235L609 502Q677 500 746 500Q820 500 874 502Q874
450 866 426Q833 426 820 414T807 370Q807 355 810 332L834 179Q840 129 846 109T863 84T902 75Q909 44 909 -2Z" />
<glyph unicode="n" glyph-name="n" horiz-adv-x="689" d="M599 500T639 502Q639 452 633 426Q607 421 596 414T581 387T577 320V2Q559 -4 540 -5T489 -7L200 317V178Q200 135 205 115T225 87T271 74Q278 48 278 -2Q230 0 168 0Q92 0 50 -2Q50 49 58 74Q89 79 103
87T124 115T131 178V394L125 401Q113 414 100 419T58 426Q50 454 50 502Q98 500 176 500Q258 500 283 502L507 241V320Q507 365 502 385T481 413T430 426Q423 446 423 502Q473 500 544 500Q599 500 639 502Z" />
<glyph unicode="o" glyph-name="o" horiz-adv-x="723" d="M264 -9T196 23T92 114T55 252Q55 373 139 440T365 507Q504 507 586 443T668 261Q668 182 630 121T521 25T355 -9Q264 -9 196 23ZM417 64T444 112T472 244Q472 336 440 386T351 437Q251 437 251 270Q251
178 280 121T366 64Q417 64 444 112Z" />
<glyph unicode="p" glyph-name="p" horiz-adv-x="663" d="M388 216T408 243T428 320Q428 365 406 395T344 425Q322 425 308 419V172Q308 123 329 101T407 74Q415 49 415 -2Q347 0 238 0Q138 0 50 -2Q50 47 56 74Q82 76 94 83T110 109T115 170V333Q115 374 111
391T97 415T59 426Q50 462 50 502L130 501Q155 500 208 500Q258 500 286 501L413 502Q515 502 561 454T608 328Q608 272 582 229T509 163T398 139Q360 139 338 146Q336 162 336 170Q336 196 347 216Q351 215 355 215T362 216Q388 216 408 243Z" />
<glyph unicode="q" glyph-name="q" horiz-adv-x="723" d="M685 -79T682 -103T674 -143Q631 -144 586 -154T502 -181Q476 -169 460 -149T424 -94Q401 -55 384 -36T336 -9Q250 -6 187 27T89 118T55 252Q55 373 139 440T365 507Q504 507 586 443T668 261Q668 170
619 104T481 9Q501 1 539 -19Q577 -39 606 -48T684 -57Q685 -79 682 -103ZM251 178T280 121T366 64Q417 64 444 112T472 244Q472 336 440 386T351 437Q251 437 251 270Q251 178 280 121Z" />
<glyph unicode="r" glyph-name="r" horiz-adv-x="688" d="M610 87T621 83T658 77Q658 38 648 0Q487 0 440 -7Q426 41 397 106Q369 169 351 178H303V163Q303 124 306 106T318 82T343 75Q349 53 349 -2Q287 0 190 0Q136 0 50 -2Q50 46 58 75Q83 77 94 84T110 110T115
171V335Q115 375 111 392T95 416T56 429Q50 456 50 504Q126 500 190 500Q222 500 248 501T292 503Q340 506 382 506Q513 506 567 463T622 345Q622 287 587 246T494 189Q520 184 540 166T602 97Q610 87 621 83ZM380 250T405 273T431 341Q431 381 408 403T342 426Q326
426 303 419V253Q320 250 332 250Q380 250 405 273Z" />
<glyph unicode="s" glyph-name="s" horiz-adv-x="576" d="M153 -7T48 28Q61 87 61 171Q104 184 166 184Q176 124 204 99T286 74Q327 74 350 83T373 108Q373 128 348 140T269 170Q206 191 165 210T94 264T63 351Q63 431 127 468T297 506Q354 506 406 497T486 473Q486
381 494 352Q477 341 449 335T396 329Q383 380 353 403T275 427Q241 427 223 419T204 398Q204 377 230 365T318 335Q384 317 428 299T504 248T536 161Q536 80 471 37T282 -7Q153 -7 48 28Z" />
<glyph unicode="t" glyph-name="t" horiz-adv-x="700" d="M446 423V171Q446 129 452 110T477 84T535 75Q540 63 542 41T545 -2Q481 0 363 0Q224 0 144 -2Q144 13 148 36T156 75Q197 77 216 84T244 110T253 171V423H246Q204 423 181 402T144 329Q76 329 45 344Q55
373 61 420T68 502Q147 500 353 500Q553 500 631 502Q631 466 637 421T655 345Q618 331 555 329Q542 383 523 403T465 423H446Z" />
<glyph unicode="u" glyph-name="u" horiz-adv-x="678" d="M256 -7T205 11T131 69T108 181V326Q108 367 103 386T86 414T48 426Q40 456 40 502Q90 500 165 500Q302 500 360 502Q360 454 355 426Q329 421 318 413T302 385T297 326V195Q297 124 320 96T393 68Q415
68 435 76T469 102Q493 133 493 226V323Q493 361 488 381T469 411T433 426Q428 456 428 502Q478 500 531 500Q582 500 628 502Q628 447 620 426Q585 422 574 404T563 335V209Q563 140 552 97T509 31Q482 10 443 2T348 -7Q256 -7 205 11Z" />
<glyph unicode="v" glyph-name="v" horiz-adv-x="672" d="M610 500T642 502Q642 468 633 425Q611 422 594 405T561 354Q513 249 385 1Q371 -6 352 -7T296 -8Q230 125 114 335Q92 374 81 391T60 415T38 425Q30 446 30 502Q92 500 180 500Q277 500 337 502Q337 448
330 425Q295 418 295 398Q295 386 310 358Q350 287 393 189Q461 319 478 362Q487 385 487 396Q487 419 458 425Q451 450 451 502Q489 500 556 500Q610 500 642 502Z" />
<glyph unicode="w" glyph-name="w" horiz-adv-x="911" d="M881 472T880 457T873 426Q848 417 833 396T800 321L688 0Q674 -3 643 -5T584 -7Q546 76 521 128T457 257L338 -1Q308 -7 237 -7Q170 180 108 318L98 341Q80 380 73 395T58 415T37 422Q32 438 31 459T30
502Q58 500 187 500Q303 500 346 502Q346 455 338 426Q313 421 301 413T289 388Q289 369 307 333Q330 284 352 215L468 500Q498 506 548 506Q621 365 691 213L729 320Q741 355 741 375Q741 398 728 409T683 426Q674 452 674 502Q724 500 783 500Q833 500 881 502Q881
472 880 457Z" />
<glyph unicode="x" glyph-name="x" horiz-adv-x="703" d="M663 48T663 -2Q613 0 489 0L324 -1Q324 42 331 75Q345 75 352 78T359 90Q359 101 346 124T300 188L278 165Q228 113 228 94Q228 78 259 75Q267 46 267 -2Q207 0 152 0Q88 0 40 -2Q40 55 48 75Q85 84 114
104T192 173L258 238L158 350Q118 395 100 408T57 426Q49 453 49 502Q111 500 244 500Q322 500 378 502Q378 461 371 426Q350 425 350 410Q350 393 387 346L410 319L435 348Q467 386 467 406Q467 424 441 426Q434 449 434 502L547 500Q604 500 648 502Q648 454
642 426Q597 414 578 401T524 349L454 268L537 171Q546 159 555 150Q583 116 595 103T620 84T655 75Q663 48 663 -2Z" />
<glyph unicode="y" glyph-name="y" horiz-adv-x="606" d="M546 500T576 502Q576 454 567 425Q550 424 540 416T510 375L405 194V165Q405 129 411 111T437 84T495 74Q501 53 503 39T505 -2Q473 0 390 0H303Q248 0 156 -2L104 -3Q105 25 107 42T115 74Q162 77 181
84T206 109T212 173V194L94 382Q80 405 66 414T37 426Q30 454 30 502Q75 500 188 500Q303 500 341 502Q341 460 334 425Q308 421 308 400Q308 385 320 363Q343 325 371 273Q398 321 434 378Q440 387 440 398Q440 410 432 418T409 426Q401 458 401 502Q435 500 493
500Q546 500 576 502Z" />
<glyph unicode="z" glyph-name="z" horiz-adv-x="592" d="M501 175T542 152Q534 124 526 75T516 -2Q444 0 275 0Q183 0 69 -2Q61 10 56 30T50 71Q85 121 173 237Q208 282 244 330T311 426H268Q239 426 221 416T189 382T162 310Q93 310 62 322Q74 363 80 412T86
502Q133 500 304 500Q456 500 512 502Q530 467 532 430Q489 360 452 307T343 159L279 73H302Q343 73 368 82T409 114T439 180Q501 175 542 152Z" />
<glyph unicode="{" glyph-name="braceleft" horiz-adv-x="423" d="M226 -263T179 -204T131 -59Q131 -26 134 4Q136 44 136 63Q136 120 115 157T35 213Q35 263 40 275Q96 293 117 327T138 412Q138 433 134 477Q130 523 130 547Q130 599 145 636T208 705T345 754Q366
737 366 685Q320 670 301 640T282 568Q282 539 294 473Q295 467 300 436T305 378Q305 324 275 290T166 246Q245 235 275 199T306 105Q306 74 296 8Q286 -56 286 -85Q286 -130 305 -160T372 -203Q376 -214 376 -230Q376 -259 358 -283Q226 -263 179 -204Z" />
<glyph unicode="}" glyph-name="braceright" horiz-adv-x="423" d="M47 -259T47 -230Q47 -214 51 -203Q99 -190 118 -160T137 -85Q137 -56 127 8Q117 74 117 105Q117 162 147 198T257 246Q179 256 149 290T118 378Q118 409 130 473Q131 481 136 512T141 568Q141
610 122 640T57 685Q57 737 78 754Q168 736 215 706T277 637T293 548Q293 524 289 478Q285 432 285 412Q285 362 306 328T383 275Q388 263 388 213Q329 195 308 158T287 64Q287 44 289 4Q292 -28 292 -59Q292 -144 245 -203T65 -283Q47 -259 47 -230Z" />
<glyph unicode="~" glyph-name="asciitilde" horiz-adv-x="550" d="M71 173T58 183T38 211Q110 349 192 349Q215 349 237 340T291 311Q319 294 339 285T379 276Q400 276 418 290T460 339Q474 334 489 321T512 295Q474 221 439 194T371 167Q347 167 326 177T272
207Q245 225 226 234T186 244Q130 244 90 165Q71 173 58 183Z" />
<glyph unicode="&#xa0;" glyph-name="uni00A0" horiz-adv-x="200" />
<glyph unicode="&#xa1;" glyph-name="exclamdown" horiz-adv-x="411" d="M101 406T129 436T205 467Q253 467 280 440T308 366Q308 320 278 294T199 267Q156 267 129 295T101 361Q101 406 129 436ZM132 -35T152 201Q192 214 255 214Q276 -15 310 -216Q272 -219
225 -231T141 -258Q125 -254 118 -243T110 -210Q110 -196 113 -176Q132 -35 152 201Z" />
<glyph unicode="&#xa2;" glyph-name="cent" horiz-adv-x="606" d="M490 5T407 -4L408 -97Q347 -97 319 -86V-5Q239 2 180 36T88 126T55 251Q55 325 90 380T186 466T319 505V648Q344 648 371 644T408 633L406 504Q482 496 553 468Q543 421 543 354Q532 348 503
345T449 341Q448 384 425 407T362 431Q303 431 277 387T251 270Q251 183 291 132T416 80Q482 80 540 102Q559 85 566 49Q490 5 407 -4Z" />
<glyph unicode="&#xa3;" glyph-name="sterling" horiz-adv-x="578" d="M486 206T509 192T543 163Q515 119 500 79T476 -7Q441 -7 420 -4T372 5Q333 14 301 19T230 24Q143 24 93 -6Q79 5 68 23T52 61Q101 79 120 108T139 179Q139 189 137 205L50 203Q50 225 53
248T65 287H105Q92 309 85 328T78 373Q78 443 139 475T329 507Q382 507 435 502T514 485Q504 424 507 369Q483 358 455 355T384 350Q377 397 365 414T318 431Q297 431 287 425T277 402Q277 388 283 375T303 346Q305 342 313 331T326 309T333 287H435Q435 233 421
204Q369 206 316 206Q294 163 249 118Q324 163 368 163Q373 163 394 160Q404 157 415 157Q432 157 442 168T463 210Q486 206 509 192Z" />
<glyph unicode="&#xa5;" glyph-name="yen" horiz-adv-x="606" d="M546 500T576 502Q576 454 567 425Q550 424 540 416T510 375L462 292H511Q511 251 502 220L420 221L405 194V187H510Q510 167 507 149T499 114H410Q417 93 436 85T495 74Q501 53 503 39T505 -2Q473
0 390 0H303Q248 0 156 -2L104 -3Q105 25 107 42T115 74Q164 77 182 84T207 114H91Q91 141 92 156T101 187H212V194L195 221L86 220Q86 268 96 292H150L94 382Q80 405 66 414T37 426Q30 454 30 502Q75 500 188 500Q303 500 341 502Q341 460 334 425Q308 421 308
400Q308 385 320 363Q343 325 371 273Q398 321 434 378Q440 387 440 398Q440 410 432 418T409 426Q401 458 401 502Q435 500 493 500Q546 500 576 502Z" />
<glyph unicode="&#xa8;" glyph-name="dieresis" horiz-adv-x="300" d="M-19 506T-46 529T-73 586Q-73 624 -50 650T21 676Q70 676 94 652T118 588Q118 553 91 530T24 506Q-19 506 -46 529ZM232 506T206 530T180 596Q180 634 206 655T276 676Q318 676 345 653T373
596Q373 557 351 532T281 506Q232 506 206 530Z" />
<glyph unicode="&#xa9;" glyph-name="copyright" horiz-adv-x="814" d="M502 577T581 531T707 406T754 230Q754 135 708 55T582 -71T407 -117Q310 -117 231 -71T106 54T60 230Q60 326 106 405T231 531T407 577Q502 577 581 531ZM330 510T266 473T164 372T127 230Q127
152 164 88T265 -12T407 -49Q485 -49 549 -12T650 89T687 230Q687 308 650 372T549 473T407 510Q330 510 266 473ZM461 453T494 444T560 417Q553 375 553 297Q524 282 484 282Q475 384 413 384Q383 384 370 352T357 250Q357 176 378 130T447 84Q494 84 534 121Q546
113 554 98T562 65Q496 5 399 5Q345 5 301 31T230 107T203 228Q203 330 261 391T422 453Q461 453 494 444Z" />
<glyph unicode="&#xaa;" glyph-name="ordfeminine" horiz-adv-x="440" d="M405 429T405 423Q405 402 395 386Q327 384 261 359Q229 368 229 397Q229 407 233 425Q229 415 221 404T206 386Q177 360 133 360Q30 360 30 451Q30 512 80 541T223 586Q223 614 221 627T213
650Q202 667 181 667Q166 667 158 649T145 586Q89 586 62 595Q63 602 63 617Q63 650 57 678Q84 695 120 706T196 718Q253 718 282 709T332 677Q348 659 354 634T361 562V507Q361 479 364 467T375 449T403 443Q405 429 405 423ZM223 538Q188 531 175 518T162 474Q162
440 180 440Q197 440 210 462T223 524V538Z" />
<glyph unicode="&#xab;" glyph-name="guillemotleft" horiz-adv-x="504" d="M255 354T234 327T194 268Q232 180 281 113Q270 97 251 81T212 55L183 87Q141 134 116 160T60 213Q60 258 77 295Q143 348 209 416Q256 416 288 392Q255 354 234 327ZM431 291T409 250Q450
175 487 131Q481 116 458 96T409 62Q376 104 348 135T278 205Q278 251 291 295Q354 347 404 407Q460 400 487 378Q431 291 409 250Z" />
<glyph unicode="&#xad;" glyph-name="uni00AD" horiz-adv-x="419" d="M359 249T346 209Q162 209 60 201Q60 225 64 254T77 306H359Q359 249 346 209Z" />
<glyph unicode="&#xae;" glyph-name="registered" horiz-adv-x="571" d="M349 810T400 780T481 699T511 584Q511 521 482 470T401 389T287 359Q224 359 172 388T90 469T60 584Q60 647 90 698T171 780T286 810Q349 810 400 780ZM333 417T371 439T431 499T453 584Q453
631 431 669T371 730T286 752Q239 752 201 730T140 670T118 584Q118 538 140 500T200 439T286 417Q333 417 371 439ZM360 540T385 489Q359 482 337 482L320 483Q311 518 292 543H266V484Q251 481 237 481Q223 481 210 484V682Q245 692 286 692Q331 692 352 676T374
624Q374 576 334 559Q360 540 385 489ZM314 578T314 616Q314 655 287 655Q277 655 266 651V583Q281 578 289 578Q314 578 314 616Z" />
<glyph unicode="&#xaf;" glyph-name="overscore" horiz-adv-x="300" d="M-42 607T-33 631H342Q342 599 333 573Q130 573 -42 563Q-42 607 -33 631Z" />
<glyph unicode="&#xb0;" glyph-name="degree" horiz-adv-x="436" d="M376 497T332 456T216 415Q143 415 102 454T60 558Q60 598 80 630T135 680T216 699Q291 699 333 660T376 559Q376 497 332 456ZM170 532T187 504T228 475Q245 475 255 493T266 548Q266 591 252
616T211 641Q193 641 182 622T170 577Q170 532 187 504Z" />
<glyph unicode="&#xb4;" glyph-name="acute" horiz-adv-x="300" d="M107 530T80 536T36 550Q60 596 74 631T97 706Q135 719 199 719Q239 719 263 715Q179 615 133 530Q107 530 80 536Z" />
<glyph unicode="&#xb6;" glyph-name="paragraph" horiz-adv-x="630" d="M572 677T603 681Q603 634 595 602Q565 600 551 591T533 559T528 491V-231Q511 -241 492 -244T448 -248V599Q434 602 406 606L407 -231Q380 -248 327 -248V288Q318 287 298 287Q163 287 100
330T37 481Q37 575 109 628T341 682Q385 682 425 679Q471 677 490 677Q572 677 603 681ZM233 431T261 399T327 363V605Q276 599 255 572T233 491Q233 431 261 399Z" />
<glyph unicode="&#xb7;" glyph-name="middot" horiz-adv-x="327" d="M115 160T88 187T60 261Q60 307 90 333T169 360Q212 360 239 332T267 266Q267 221 239 191T163 160Q115 160 88 187Z" />
<glyph unicode="&#xb8;" glyph-name="cedilla" horiz-adv-x="300" d="M57 -224T57 -191Q90 -191 112 -180T135 -147Q135 -131 119 -121T77 -110Q59 -89 59 -63L124 16H198L153 -43Q195 -50 218 -76T242 -138Q242 -188 197 -215T66 -242Q57 -224 57 -191Z" />
<glyph unicode="&#xba;" glyph-name="ordmasculine" horiz-adv-x="453" d="M322 717T370 670T419 543Q419 454 367 406T220 357Q125 357 78 402T30 529Q30 622 85 669T227 717Q322 717 370 670ZM252 417T263 445T274 516Q274 586 257 623T216 660Q196 660 185
632T174 559Q174 498 189 458T234 417Q252 417 263 445Z" />
<glyph unicode="&#xbb;" glyph-name="guillemotright" horiz-adv-x="506" d="M272 171T310 234Q264 324 221 388Q234 398 256 405T300 412Q338 375 365 351T429 295Q446 262 446 215Q353 125 289 53Q245 75 226 113Q272 171 310 234ZM47 158T62 182T92 237Q67
294 17 375Q29 384 53 393T102 407Q134 371 153 351T212 296Q221 275 223 255T226 207Q163 140 97 62Q74 73 54 91T23 127Q47 158 62 182Z" />
<glyph unicode="&#xbf;" glyph-name="questiondown" horiz-adv-x="537" d="M282 466T309 439T337 365Q337 319 307 293T228 266Q185 266 158 294T130 360Q130 405 158 435T234 466Q282 466 309 439ZM128 -259T82 -227T35 -137Q35 -87 57 -56T121 10Q160 43 179
68T198 133Q198 171 183 216Q199 225 224 230T273 235Q298 220 315 183T333 107Q333 63 318 37T274 -20Q248 -48 237 -67T225 -116Q225 -150 237 -166T270 -182Q291 -182 305 -154T327 -48Q360 -48 383 -53T429 -71Q426 -109 426 -149Q426 -184 429 -214Q333 -259
222 -259Q128 -259 82 -227Z" />
<glyph unicode="&#xc0;" glyph-name="Agrave" horiz-adv-x="717" d="M707 48T707 -3Q667 0 550 0Q412 0 374 -3Q374 43 382 75Q404 80 414 89T424 112Q424 126 413 151L406 166Q275 166 179 156L177 152Q172 139 172 126Q172 107 182 93T215 75Q223 41 223 -3Q189
0 106 0Q40 0 10 -3Q10 44 20 75Q44 80 59 99T100 176L312 676Q330 680 348 681T388 682L610 195Q634 143 648 119T672 86T699 75Q707 48 707 -3ZM378 231L340 316Q307 389 289 454Q271 389 241 316L208 231H378ZM260 808T210 856Q237 869 276 875T354 882Q365
853 384 817T423 753Q374 735 321 735Q260 808 210 856Z" />
<glyph unicode="&#xc1;" glyph-name="Aacute" horiz-adv-x="717" d="M707 48T707 -3Q667 0 550 0Q412 0 374 -3Q374 43 382 75Q404 80 414 89T424 112Q424 126 413 151L406 166Q275 166 179 156L177 152Q172 139 172 126Q172 107 182 93T215 75Q223 41 223 -3Q189
0 106 0Q40 0 10 -3Q10 44 20 75Q44 80 59 99T100 176L312 676Q330 680 348 681T388 682L610 195Q634 143 648 119T672 86T699 75Q707 48 707 -3ZM378 231L340 316Q307 389 289 454Q271 389 241 316L208 231H378ZM326 735T277 753Q312 808 338 872Q381 882 432
882Q472 882 500 876Q434 807 379 735Q326 735 277 753Z" />
<glyph unicode="&#xc2;" glyph-name="Acircumflex" horiz-adv-x="717" d="M707 48T707 -3Q667 0 550 0Q412 0 374 -3Q374 43 382 75Q404 80 414 89T424 112Q424 126 413 151L406 166Q275 166 179 156L177 152Q172 139 172 126Q172 107 182 93T215 75Q223 41 223
-3Q189 0 106 0Q40 0 10 -3Q10 44 20 75Q44 80 59 99T100 176L312 676Q330 680 348 681T388 682L610 195Q634 143 648 119T672 86T699 75Q707 48 707 -3ZM378 231L340 316Q307 389 289 454Q271 389 241 316L208 231H378ZM200 731T182 746T157 781Q261 843 308 883Q342
894 398 894Q451 841 542 781Q524 759 502 745T448 725Q409 749 332 782Q324 778 317 775T302 768Q252 746 224 728Q200 731 182 746Z" />
<glyph unicode="&#xc3;" glyph-name="Atilde" horiz-adv-x="717" d="M707 48T707 -3Q667 0 550 0Q412 0 374 -3Q374 43 382 75Q404 80 414 89T424 112Q424 126 413 151L406 166Q275 166 179 156L177 152Q172 139 172 126Q172 107 182 93T215 75Q223 41 223 -3Q189
0 106 0Q40 0 10 -3Q10 44 20 75Q44 80 59 99T100 176L312 676Q330 680 348 681T388 682L610 195Q634 143 648 119T672 86T699 75Q707 48 707 -3ZM378 231L340 316Q307 389 289 454Q271 389 241 316L208 231H378ZM372 735T354 742T314 763Q298 774 286 779T257
784Q215 784 179 737Q161 755 152 772T142 813Q169 851 209 869T287 888Q311 888 329 882T373 862Q392 852 405 847T432 842Q469 842 493 882Q533 874 558 848Q531 794 490 765T398 735Q372 735 354 742Z" />
<glyph unicode="&#xc4;" glyph-name="Adieresis" horiz-adv-x="717" d="M707 48T707 -3Q667 0 550 0Q412 0 374 -3Q374 43 382 75Q404 80 414 89T424 112Q424 126 413 151L406 166Q275 166 179 156L177 152Q172 139 172 126Q172 107 182 93T215 75Q223 41 223
-3Q189 0 106 0Q40 0 10 -3Q10 44 20 75Q44 80 59 99T100 176L312 676Q330 680 348 681T388 682L610 195Q634 143 648 119T672 86T699 75Q707 48 707 -3ZM378 231L340 316Q307 389 289 454Q271 389 241 316L208 231H378ZM181 719T154 742T127 799Q127 837 150 863T221
889Q270 889 294 865T318 801Q318 766 291 743T224 719Q181 719 154 742ZM432 719T406 743T380 809Q380 847 406 868T476 889Q518 889 545 866T573 809Q573 770 551 745T481 719Q432 719 406 743Z" />
<glyph unicode="&#xc5;" glyph-name="Aring" horiz-adv-x="717" d="M707 48T707 -3Q667 0 550 0Q412 0 374 -3Q374 43 382 75Q404 80 414 89T424 112Q424 126 413 151L406 166Q275 166 179 156L177 152Q172 139 172 126Q172 107 182 93T215 75Q223 41 223 -3Q189
0 106 0Q40 0 10 -3Q10 44 20 75Q44 80 59 99T100 176L312 676Q330 680 348 681T388 682L610 195Q634 143 648 119T672 86T699 75Q707 48 707 -3ZM378 231L340 316Q307 389 289 454Q271 389 241 316L208 231H378ZM289 713T254 736T219 802Q219 847 256 872T355
897Q412 897 446 875T481 809Q481 765 444 739T344 713Q289 713 254 736ZM367 759T377 770T387 802Q387 822 377 839T346 856Q331 856 323 844T314 808Q314 786 324 773T352 759Q367 759 377 770Z" />
<glyph unicode="&#xc6;" glyph-name="AE" horiz-adv-x="1001" d="M975 142T967 94T955 -2Q857 0 672 0Q442 0 385 -3Q385 46 393 75Q421 77 434 86T453 117T459 187V282Q331 277 276 269L221 170Q204 138 204 117Q204 83 250 75Q260 51 260 -3Q214 0 142 0Q40
0 10 -3Q10 19 12 41T20 75Q55 80 74 94T118 152L331 519Q349 551 349 568Q349 596 302 601Q298 610 294 636T289 678Q393 676 497 676H633Q832 676 926 679Q926 634 932 586T947 501Q937 493 904 488T846 483Q835 543 806 572T708 601H659V352H670Q701 352 715
357T735 378T742 428Q758 434 783 437T829 441Q826 393 826 322Q826 246 829 202Q763 202 743 211Q741 245 735 260T715 280T670 286H659V192Q659 144 666 119T689 85T737 75H754Q788 75 809 86T848 126T886 211Q918 206 946 197T986 177Q975 142 967 94ZM459 352V540Q459
564 462 594Q451 571 436 546L324 352H459Z" />
<glyph unicode="&#xc7;" glyph-name="Ccedilla" horiz-adv-x="634" d="M425 -50T448 -76T472 -138Q472 -188 427 -215T296 -242Q287 -224 287 -191Q320 -191 342 -180T365 -147Q365 -131 349 -121T307 -110Q289 -89 289 -63L335 -7Q245 2 177 48T72 170T35 341Q35
450 82 528T208 645T379 685Q433 685 490 672T599 633Q588 570 588 478Q576 471 546 468T489 464Q488 608 383 608Q308 608 274 540T240 367Q240 239 289 162T438 85Q511 85 586 127Q607 109 614 72Q579 41 527 19T410 -8L383 -43Q425 -50 448 -76Z" />
<glyph unicode="&#xc8;" glyph-name="Egrave" horiz-adv-x="646" d="M562 208T590 199T631 177Q608 108 600 -2Q482 0 339 0Q268 0 178 -1T30 -3Q30 45 38 75Q66 77 79 86T98 117T104 187V491Q104 537 99 558T81 588T37 601Q30 629 30 679Q123 676 301 676Q487
676 571 679Q572 636 577 585T592 501Q545 483 491 483Q480 543 451 572T353 601H304V374H305Q352 374 368 389T386 445Q417 457 474 457Q470 393 470 340Q470 279 474 221Q417 221 388 231Q384 272 367 285T305 299H304V192Q304 145 311 120T334 85T382 75H399Q450
75 479 106T529 211Q562 208 590 199ZM224 808T174 856Q201 869 240 875T318 882Q329 853 348 817T387 753Q338 735 285 735Q224 808 174 856Z" />
<glyph unicode="&#xc9;" glyph-name="Eacute" horiz-adv-x="646" d="M562 208T590 199T631 177Q608 108 600 -2Q482 0 339 0Q268 0 178 -1T30 -3Q30 45 38 75Q66 77 79 86T98 117T104 187V491Q104 537 99 558T81 588T37 601Q30 629 30 679Q123 676 301 676Q487
676 571 679Q572 636 577 585T592 501Q545 483 491 483Q480 543 451 572T353 601H304V374H305Q352 374 368 389T386 445Q417 457 474 457Q470 393 470 340Q470 279 474 221Q417 221 388 231Q384 272 367 285T305 299H304V192Q304 145 311 120T334 85T382 75H399Q450
75 479 106T529 211Q562 208 590 199ZM290 735T241 753Q276 808 302 872Q345 882 396 882Q436 882 464 876Q398 807 343 735Q290 735 241 753Z" />
<glyph unicode="&#xca;" glyph-name="Ecircumflex" horiz-adv-x="646" d="M562 208T590 199T631 177Q608 108 600 -2Q482 0 339 0Q268 0 178 -1T30 -3Q30 45 38 75Q66 77 79 86T98 117T104 187V491Q104 537 99 558T81 588T37 601Q30 629 30 679Q123 676 301 676Q487
676 571 679Q572 636 577 585T592 501Q545 483 491 483Q480 543 451 572T353 601H304V374H305Q352 374 368 389T386 445Q417 457 474 457Q470 393 470 340Q470 279 474 221Q417 221 388 231Q384 272 367 285T305 299H304V192Q304 145 311 120T334 85T382 75H399Q450
75 479 106T529 211Q562 208 590 199ZM164 731T146 746T121 781Q225 843 272 883Q306 894 362 894Q415 841 506 781Q488 759 466 745T412 725Q373 749 296 782Q288 778 281 775T266 768Q216 746 188 728Q164 731 146 746Z" />
<glyph unicode="&#xcb;" glyph-name="Edieresis" horiz-adv-x="646" d="M562 208T590 199T631 177Q608 108 600 -2Q482 0 339 0Q268 0 178 -1T30 -3Q30 45 38 75Q66 77 79 86T98 117T104 187V491Q104 537 99 558T81 588T37 601Q30 629 30 679Q123 676 301 676Q487
676 571 679Q572 636 577 585T592 501Q545 483 491 483Q480 543 451 572T353 601H304V374H305Q352 374 368 389T386 445Q417 457 474 457Q470 393 470 340Q470 279 474 221Q417 221 388 231Q384 272 367 285T305 299H304V192Q304 145 311 120T334 85T382 75H399Q450
75 479 106T529 211Q562 208 590 199ZM145 719T118 742T91 799Q91 837 114 863T185 889Q234 889 258 865T282 801Q282 766 255 743T188 719Q145 719 118 742ZM396 719T370 743T344 809Q344 847 370 868T440 889Q482 889 509 866T537 809Q537 770 515 745T445 719Q396
719 370 743Z" />
<glyph unicode="&#xcc;" glyph-name="Igrave" horiz-adv-x="408" d="M104 538T100 559T82 588T39 601Q30 637 30 679Q80 676 209 676Q318 676 378 679Q378 653 377 636T369 601Q340 598 327 590T309 560T304 491V187Q304 140 309 118T328 86T370 75Q378 46 378
-3Q333 0 219 0Q101 0 30 -3Q30 14 33 37T40 75Q68 77 81 86T99 117T104 187V491Q104 538 100 559ZM114 808T64 856Q91 869 130 875T208 882Q219 853 238 817T277 753Q228 735 175 735Q114 808 64 856Z" />
<glyph unicode="&#xcd;" glyph-name="Iacute" horiz-adv-x="408" d="M104 538T100 559T82 588T39 601Q30 637 30 679Q80 676 209 676Q318 676 378 679Q378 653 377 636T369 601Q340 598 327 590T309 560T304 491V187Q304 140 309 118T328 86T370 75Q378 46 378
-3Q333 0 219 0Q101 0 30 -3Q30 14 33 37T40 75Q68 77 81 86T99 117T104 187V491Q104 538 100 559ZM180 735T131 753Q166 808 192 872Q235 882 286 882Q326 882 354 876Q288 807 233 735Q180 735 131 753Z" />
<glyph unicode="&#xce;" glyph-name="Icircumflex" horiz-adv-x="408" d="M80 715T62 727T31 760Q54 778 92 811Q146 858 161 869Q181 875 207 879T252 883Q299 829 377 758Q359 738 330 724T273 707Q251 724 198 752L180 762Q136 739 106 708Q80 715 62 727ZM104
538T100 559T82 588T39 601Q30 637 30 679Q80 676 209 676Q318 676 378 679Q378 653 377 636T369 601Q340 598 327 590T309 560T304 491V187Q304 140 309 118T328 86T370 75Q378 46 378 -3Q333 0 219 0Q101 0 30 -3Q30 14 33 37T40 75Q68 77 81 86T99 117T104 187V491Q104
538 100 559Z" />
<glyph unicode="&#xcf;" glyph-name="Idieresis" horiz-adv-x="408" d="M52 710T26 732T-1 786Q-1 822 22 846T91 871Q139 871 162 848T186 787Q186 755 160 733T94 710Q52 710 26 732ZM270 710T245 733T219 795Q219 831 244 851T313 871Q354 871 381 849T408
795Q408 758 386 734T318 710Q270 710 245 733ZM104 538T100 559T82 588T39 601Q30 637 30 679Q80 676 209 676Q318 676 378 679Q378 653 377 636T369 601Q340 598 327 590T309 560T304 491V187Q304 140 309 118T328 86T370 75Q378 46 378 -3Q333 0 219 0Q101 0
30 -3Q30 14 33 37T40 75Q68 77 81 86T99 117T104 187V491Q104 538 100 559Z" />
<glyph unicode="&#xd0;" glyph-name="Eth" horiz-adv-x="739" d="M454 678T532 652T657 555T704 355Q704 208 640 129T494 25T339 0Q268 0 178 -1T30 -3Q30 45 38 75Q66 77 79 86T98 117T104 187V295L33 294Q33 350 44 385H104V491Q104 537 99 558T81 588T37 601Q30
629 30 679Q101 676 239 676Q265 676 280 677L344 678Q454 678 532 652ZM423 75T462 128T502 337Q502 603 344 603Q322 603 304 595V385H396Q396 330 385 296Q350 297 304 297V192Q304 145 311 120T334 85T382 75Q423 75 462 128Z" />
<glyph unicode="&#xd1;" glyph-name="Ntilde" horiz-adv-x="711" d="M645 676T681 679Q681 659 680 639T674 601Q647 597 634 586T616 547T611 458V0Q592 -6 572 -7T520 -9L179 453V218Q179 159 185 131T208 91T258 75Q265 49 265 -3Q223 0 144 0Q51 0 15 -3Q15
50 23 75Q56 79 72 91T96 132T104 218V554L90 573Q82 587 69 592T23 601Q15 630 15 679Q54 676 148 676Q234 676 261 679L536 300V458Q536 517 530 545T506 585T451 601Q444 628 444 679Q486 676 575 676Q645 676 681 679ZM382 735T364 742T324 763Q308 774 296
779T267 784Q225 784 189 737Q171 755 162 772T152 813Q179 851 219 869T297 888Q321 888 339 882T383 862Q402 852 415 847T442 842Q479 842 503 882Q543 874 568 848Q541 794 500 765T408 735Q382 735 364 742Z" />
<glyph unicode="&#xd2;" glyph-name="Ograve" horiz-adv-x="761" d="M274 -9T196 34T77 157T35 341Q35 446 79 523T201 643T380 685Q484 685 562 644T683 528T726 354Q726 247 684 165T563 37T380 -9Q274 -9 196 34ZM453 69T487 140T521 333Q521 410 503 473T449
573T367 610Q306 610 273 547T240 365Q240 236 278 153T392 69Q453 69 487 140ZM291 808T241 856Q268 869 307 875T385 882Q396 853 415 817T454 753Q405 735 352 735Q291 808 241 856Z" />
<glyph unicode="&#xd3;" glyph-name="Oacute" horiz-adv-x="761" d="M274 -9T196 34T77 157T35 341Q35 446 79 523T201 643T380 685Q484 685 562 644T683 528T726 354Q726 247 684 165T563 37T380 -9Q274 -9 196 34ZM453 69T487 140T521 333Q521 410 503 473T449
573T367 610Q306 610 273 547T240 365Q240 236 278 153T392 69Q453 69 487 140ZM357 735T308 753Q343 808 369 872Q412 882 463 882Q503 882 531 876Q465 807 410 735Q357 735 308 753Z" />
<glyph unicode="&#xd4;" glyph-name="Ocircumflex" horiz-adv-x="761" d="M274 -9T196 34T77 157T35 341Q35 446 79 523T201 643T380 685Q484 685 562 644T683 528T726 354Q726 247 684 165T563 37T380 -9Q274 -9 196 34ZM453 69T487 140T521 333Q521 410 503
473T449 573T367 610Q306 610 273 547T240 365Q240 236 278 153T392 69Q453 69 487 140ZM231 731T213 746T188 781Q292 843 339 883Q373 894 429 894Q482 841 573 781Q555 759 533 745T479 725Q440 749 363 782Q355 778 348 775T333 768Q283 746 255 728Q231 731
213 746Z" />
<glyph unicode="&#xd5;" glyph-name="Otilde" horiz-adv-x="761" d="M274 -9T196 34T77 157T35 341Q35 446 79 523T201 643T380 685Q484 685 562 644T683 528T726 354Q726 247 684 165T563 37T380 -9Q274 -9 196 34ZM453 69T487 140T521 333Q521 410 503 473T449
573T367 610Q306 610 273 547T240 365Q240 236 278 153T392 69Q453 69 487 140ZM403 735T385 742T345 763Q329 774 317 779T288 784Q246 784 210 737Q192 755 183 772T173 813Q200 851 240 869T318 888Q342 888 360 882T404 862Q423 852 436 847T463 842Q500 842
524 882Q564 874 589 848Q562 794 521 765T429 735Q403 735 385 742Z" />
<glyph unicode="&#xd6;" glyph-name="Odieresis" horiz-adv-x="761" d="M274 -9T196 34T77 157T35 341Q35 446 79 523T201 643T380 685Q484 685 562 644T683 528T726 354Q726 247 684 165T563 37T380 -9Q274 -9 196 34ZM453 69T487 140T521 333Q521 410 503 473T449
573T367 610Q306 610 273 547T240 365Q240 236 278 153T392 69Q453 69 487 140ZM212 719T185 742T158 799Q158 837 181 863T252 889Q301 889 325 865T349 801Q349 766 322 743T255 719Q212 719 185 742ZM463 719T437 743T411 809Q411 847 437 868T507 889Q549 889
576 866T604 809Q604 770 582 745T512 719Q463 719 437 743Z" />
<glyph unicode="&#xd7;" glyph-name="multiply" horiz-adv-x="550" d="M462 410T328 260L515 56Q502 40 479 29T434 18Q365 97 273 198Q205 121 119 18Q94 17 68 25T31 48L217 258Q117 367 33 456Q50 472 72 482T114 493L272 320L426 494Q452 494 481 486T518
468Q462 410 328 260Z" />
<glyph unicode="&#xd8;" glyph-name="Oslash" horiz-adv-x="761" d="M649 576Q686 533 706 477T726 354Q726 247 684 165T563 37T380 -9Q280 -9 206 29L160 -26Q127 -26 100 -20T56 -4L130 84Q84 130 60 195T35 341Q35 446 79 523T201 643T380 685Q491 685 575
637L626 700Q656 700 685 694T730 676L649 576ZM306 610T273 547T240 365Q240 290 253 232L481 527Q461 566 432 588T367 610Q306 610 273 547ZM453 69T487 140T521 333Q521 375 515 414L292 128Q330 69 392 69Q453 69 487 140Z" />
<glyph unicode="&#xd9;" glyph-name="Ugrave" horiz-adv-x="697" d="M596 186T583 132T536 44Q479 -9 359 -9Q259 -9 201 16T119 95T94 239V486Q94 533 89 555T70 587T28 601Q20 635 20 679Q61 676 156 676Q316 676 364 679Q364 629 358 601Q329 596 317 587T299
556T294 486V256Q294 163 322 118T406 72Q431 72 454 82T492 115Q506 136 513 175T520 287V467Q520 517 514 544T494 583T454 601Q448 642 448 679Q489 676 560 676Q630 676 667 679Q667 630 659 601Q633 597 620 586T601 549T596 476V277Q596 186 583 132ZM316
808T266 856Q293 869 332 875T410 882Q421 853 440 817T479 753Q430 735 377 735Q316 808 266 856Z" />
<glyph unicode="&#xda;" glyph-name="Uacute" horiz-adv-x="697" d="M596 186T583 132T536 44Q479 -9 359 -9Q259 -9 201 16T119 95T94 239V486Q94 533 89 555T70 587T28 601Q20 635 20 679Q61 676 156 676Q316 676 364 679Q364 629 358 601Q329 596 317 587T299
556T294 486V256Q294 163 322 118T406 72Q431 72 454 82T492 115Q506 136 513 175T520 287V467Q520 517 514 544T494 583T454 601Q448 642 448 679Q489 676 560 676Q630 676 667 679Q667 630 659 601Q633 597 620 586T601 549T596 476V277Q596 186 583 132ZM382
735T333 753Q368 808 394 872Q437 882 488 882Q528 882 556 876Q490 807 435 735Q382 735 333 753Z" />
<glyph unicode="&#xdb;" glyph-name="Ucircumflex" horiz-adv-x="697" d="M596 186T583 132T536 44Q479 -9 359 -9Q259 -9 201 16T119 95T94 239V486Q94 533 89 555T70 587T28 601Q20 635 20 679Q61 676 156 676Q316 676 364 679Q364 629 358 601Q329 596 317
587T299 556T294 486V256Q294 163 322 118T406 72Q431 72 454 82T492 115Q506 136 513 175T520 287V467Q520 517 514 544T494 583T454 601Q448 642 448 679Q489 676 560 676Q630 676 667 679Q667 630 659 601Q633 597 620 586T601 549T596 476V277Q596 186 583
132ZM256 731T238 746T213 781Q317 843 364 883Q398 894 454 894Q507 841 598 781Q580 759 558 745T504 725Q465 749 388 782Q380 778 373 775T358 768Q308 746 280 728Q256 731 238 746Z" />
<glyph unicode="&#xdc;" glyph-name="Udieresis" horiz-adv-x="697" d="M596 186T583 132T536 44Q479 -9 359 -9Q259 -9 201 16T119 95T94 239V486Q94 533 89 555T70 587T28 601Q20 635 20 679Q61 676 156 676Q316 676 364 679Q364 629 358 601Q329 596 317 587T299
556T294 486V256Q294 163 322 118T406 72Q431 72 454 82T492 115Q506 136 513 175T520 287V467Q520 517 514 544T494 583T454 601Q448 642 448 679Q489 676 560 676Q630 676 667 679Q667 630 659 601Q633 597 620 586T601 549T596 476V277Q596 186 583 132ZM237
719T210 742T183 799Q183 837 206 863T277 889Q326 889 350 865T374 801Q374 766 347 743T280 719Q237 719 210 742ZM488 719T462 743T436 809Q436 847 462 868T532 889Q574 889 601 866T629 809Q629 770 607 745T537 719Q488 719 462 743Z" />
<glyph unicode="&#xdd;" glyph-name="Yacute" horiz-adv-x="634" d="M592 676T624 678Q624 635 615 601Q596 597 581 580T545 517L423 248V198Q423 146 430 122T457 88T522 75Q528 55 530 39T532 -3Q474 0 318 0Q258 0 158 -2L105 -3Q107 50 117 75Q168 79 189
87T216 119T223 199V251L84 542Q58 596 18 601Q10 630 10 678Q58 676 178 676Q305 676 346 678Q346 640 339 601Q306 597 306 569Q306 555 320 518L331 490Q368 399 390 338Q429 438 466 524Q475 545 475 562Q475 598 437 601Q428 634 428 678Q464 676 531 676Q592
676 624 678ZM356 735T307 753Q342 808 368 872Q411 882 462 882Q502 882 530 876Q464 807 409 735Q356 735 307 753Z" />
<glyph unicode="&#xde;" glyph-name="Thorn" horiz-adv-x="685" d="M410 229T435 258T460 346Q460 399 433 432T354 466Q322 466 304 458V197Q304 132 327 106T413 75Q422 50 422 -3Q365 0 229 0Q104 0 30 -3Q30 14 33 37T40 75Q68 77 81 86T99 117T104 187V491Q104
538 100 559T82 588T39 601Q30 637 30 679Q80 676 209 676Q318 676 378 679Q378 653 377 636T369 601Q336 597 323 586T306 544L427 545Q543 545 596 493T650 359Q650 297 621 250T539 176T413 149Q368 149 344 157Q342 175 342 182Q342 209 353 229Q359 228 365
228T375 229Q410 229 435 258Z" />
<glyph unicode="&#xdf;" glyph-name="germandbls" horiz-adv-x="744" d="M641 283T672 248T704 149Q704 68 645 31T468 -7Q380 -7 330 17Q336 39 339 72T342 130Q383 146 447 146Q447 109 452 94T462 77T481 75L501 74Q516 74 524 84T533 124Q533 166 516 188T469
219T387 230Q379 243 372 271T365 317Q421 354 466 422L434 424Q388 426 377 426Q344 426 328 419T305 389T298 315V-3Q270 0 195 0Q144 0 40 -2Q40 14 43 37T50 74Q74 75 85 81T101 103T105 153V302Q105 417 175 462T373 507Q404 507 432 504Q478 500 518 500Q565
500 651 506Q658 494 665 466T672 421Q635 351 581 299Q641 283 672 248Z" />
<glyph unicode="&#xe0;" glyph-name="agrave" horiz-adv-x="670" d="M640 51T640 -2Q617 0 547 0H495H436Q353 0 331 -2Q331 41 338 74Q378 85 378 111Q378 117 373 129L369 137Q258 137 174 125Q171 106 182 93T214 74Q221 39 221 -2Q183 0 115 0Q48 0 30 -2Q30
42 39 75Q60 77 73 91T108 146L292 499Q309 503 327 504T366 505L579 127Q598 94 608 85T633 74Q640 51 640 -2ZM341 196L312 258L302 281Q288 309 273 348Q260 308 236 259L206 196H341ZM265 623T237 656T168 727Q245 759 332 759Q343 722 362 677T401 593Q363
575 299 575Q265 623 237 656Z" />
<glyph unicode="&#xe1;" glyph-name="aacute" horiz-adv-x="670" d="M640 51T640 -2Q617 0 547 0H495H436Q353 0 331 -2Q331 41 338 74Q378 85 378 111Q378 117 373 129L369 137Q258 137 174 125Q171 106 182 93T214 74Q221 39 221 -2Q183 0 115 0Q48 0 30 -2Q30
42 39 75Q60 77 73 91T108 146L292 499Q309 503 327 504T366 505L579 127Q598 94 608 85T633 74Q640 51 640 -2ZM341 196L312 258L302 281Q288 309 273 348Q260 308 236 259L206 196H341ZM343 572T316 578T272 592Q296 638 310 673T333 748Q371 761 435 761Q475
761 499 757Q415 657 369 572Q343 572 316 578Z" />
<glyph unicode="&#xe2;" glyph-name="acircumflex" horiz-adv-x="670" d="M640 51T640 -2Q617 0 547 0H495H436Q353 0 331 -2Q331 41 338 74Q378 85 378 111Q378 117 373 129L369 137Q258 137 174 125Q171 106 182 93T214 74Q221 39 221 -2Q183 0 115 0Q48 0 30
-2Q30 42 39 75Q60 77 73 91T108 146L292 499Q309 503 327 504T366 505L579 127Q598 94 608 85T633 74Q640 51 640 -2ZM341 196L312 258L302 281Q288 309 273 348Q260 308 236 259L206 196H341ZM167 562T150 579T127 614Q231 684 295 750Q335 765 382 765Q447 687
542 608Q525 588 504 576T452 557Q388 604 318 640Q290 625 252 601T189 557Q167 562 150 579Z" />
<glyph unicode="&#xe3;" glyph-name="atilde" horiz-adv-x="670" d="M640 51T640 -2Q617 0 547 0H495H436Q353 0 331 -2Q331 41 338 74Q378 85 378 111Q378 117 373 129L369 137Q258 137 174 125Q171 106 182 93T214 74Q221 39 221 -2Q183 0 115 0Q48 0 30 -2Q30
42 39 75Q60 77 73 91T108 146L292 499Q309 503 327 504T366 505L579 127Q598 94 608 85T633 74Q640 51 640 -2ZM341 196L312 258L302 281Q288 309 273 348Q260 308 236 259L206 196H341ZM363 579T345 586T305 608Q286 621 272 627T239 633Q191 633 149 582Q132
598 123 615T113 655Q185 739 262 739Q286 739 303 732T345 711Q365 699 378 694T407 688Q449 688 479 731Q519 725 543 699Q508 638 471 609T388 579Q363 579 345 586Z" />
<glyph unicode="&#xe4;" glyph-name="adieresis" horiz-adv-x="670" d="M640 51T640 -2Q617 0 547 0H495H436Q353 0 331 -2Q331 41 338 74Q378 85 378 111Q378 117 373 129L369 137Q258 137 174 125Q171 106 182 93T214 74Q221 39 221 -2Q183 0 115 0Q48 0 30
-2Q30 42 39 75Q60 77 73 91T108 146L292 499Q309 503 327 504T366 505L579 127Q598 94 608 85T633 74Q640 51 640 -2ZM341 196L312 258L302 281Q288 309 273 348Q260 308 236 259L206 196H341ZM159 548T132 571T105 628Q105 666 128 692T199 718Q248 718 272 694T296
630Q296 595 269 572T202 548Q159 548 132 571ZM410 548T384 572T358 638Q358 676 384 697T454 718Q496 718 523 695T551 638Q551 599 529 574T459 548Q410 548 384 572Z" />
<glyph unicode="&#xe5;" glyph-name="aring" horiz-adv-x="670" d="M640 51T640 -2Q617 0 547 0H495H436Q353 0 331 -2Q331 41 338 74Q378 85 378 111Q378 117 373 129L369 137Q258 137 174 125Q171 106 182 93T214 74Q221 39 221 -2Q183 0 115 0Q48 0 30 -2Q30
42 39 75Q60 77 73 91T108 146L292 499Q309 503 327 504T366 505L579 127Q598 94 608 85T633 74Q640 51 640 -2ZM341 196L312 258L302 281Q288 309 273 348Q260 308 236 259L206 196H341ZM265 558T228 585T191 661Q191 711 230 741T333 771Q392 771 428 746T465
669Q465 619 426 589T322 558Q265 558 228 585ZM344 618T353 629T362 661Q362 682 353 699T325 716Q311 716 303 703T295 667Q295 645 304 632T331 618Q344 618 353 629Z" />
<glyph unicode="&#xe6;" glyph-name="ae" horiz-adv-x="944" d="M899 121T892 81T882 -1L629 0Q409 0 362 -3Q362 48 369 74Q394 75 406 81T422 106T427 164V200Q313 195 258 184Q238 155 221 134Q209 119 209 106Q209 94 219 86T249 75Q258 52 258 -2Q204 0 152
0Q66 0 30 -2Q30 19 32 41T39 75Q70 79 86 86T124 112L308 364Q324 387 324 402Q324 424 285 427Q282 434 277 461T272 502Q354 500 441 500Q442 501 443 500H463H599Q772 500 856 503Q855 428 874 360Q864 353 832 349T777 344Q770 375 759 392T724 417T659 426H620V266H623Q628
266 649 266T676 278T682 320Q696 326 720 329T764 333Q762 303 762 241Q762 174 764 149Q701 149 682 158Q680 192 673 199T649 206T624 205H620V171Q620 114 634 93T689 71H703Q730 71 746 78T778 108T812 177Q840 174 869 166T909 147Q899 121 892 81ZM427 266V400L429
436Q425 428 409 404Q363 335 315 266H427Z" />
<glyph unicode="&#xe7;" glyph-name="ccedilla" horiz-adv-x="606" d="M405 -50T428 -76T452 -138Q452 -188 407 -215T276 -242Q267 -224 267 -191Q300 -191 322 -180T345 -147Q345 -131 329 -121T287 -110Q269 -89 269 -63L317 -5Q238 3 179 37T87 127T55 251Q55
331 96 389T207 477T359 507Q405 507 456 497T553 468Q543 421 543 354Q532 348 503 345T449 341Q448 384 425 407T362 431Q303 431 277 387T251 270Q251 183 291 132T416 80Q482 80 540 102Q559 85 566 49Q482 1 391 -6L363 -43Q405 -50 428 -76Z" />
<glyph unicode="&#xe8;" glyph-name="egrave" horiz-adv-x="629" d="M526 173T553 164T594 144Q574 92 567 -1L330 0L50 -2Q50 45 58 74Q83 76 94 83T110 108T115 164V333Q115 373 111 390T95 415T56 426Q50 456 50 502Q168 500 307 500Q487 500 540 502Q541 468
546 428T559 363Q536 355 515 351T465 347Q456 391 432 408T348 426H308V273H319Q346 273 355 283T365 317Q393 329 444 329Q440 285 440 241Q440 190 444 154Q393 154 367 164Q365 187 355 194T319 201H308V171Q308 113 322 92T374 71H391Q428 71 453 95T495 174Q526
173 553 164ZM245 623T217 656T148 727Q225 759 312 759Q323 722 342 677T381 593Q343 575 279 575Q245 623 217 656Z" />
<glyph unicode="&#xe9;" glyph-name="eacute" horiz-adv-x="629" d="M526 173T553 164T594 144Q574 92 567 -1L330 0L50 -2Q50 45 58 74Q83 76 94 83T110 108T115 164V333Q115 373 111 390T95 415T56 426Q50 456 50 502Q168 500 307 500Q487 500 540 502Q541 468
546 428T559 363Q536 355 515 351T465 347Q456 391 432 408T348 426H308V273H319Q346 273 355 283T365 317Q393 329 444 329Q440 285 440 241Q440 190 444 154Q393 154 367 164Q365 187 355 194T319 201H308V171Q308 113 322 92T374 71H391Q428 71 453 95T495 174Q526
173 553 164ZM323 572T296 578T252 592Q276 638 290 673T313 748Q351 761 415 761Q455 761 479 757Q395 657 349 572Q323 572 296 578Z" />
<glyph unicode="&#xea;" glyph-name="ecircumflex" horiz-adv-x="629" d="M526 173T553 164T594 144Q574 92 567 -1L330 0L50 -2Q50 45 58 74Q83 76 94 83T110 108T115 164V333Q115 373 111 390T95 415T56 426Q50 456 50 502Q168 500 307 500Q487 500 540 502Q541
468 546 428T559 363Q536 355 515 351T465 347Q456 391 432 408T348 426H308V273H319Q346 273 355 283T365 317Q393 329 444 329Q440 285 440 241Q440 190 444 154Q393 154 367 164Q365 187 355 194T319 201H308V171Q308 113 322 92T374 71H391Q428 71 453 95T495
174Q526 173 553 164ZM147 562T130 579T107 614Q211 684 275 750Q315 765 362 765Q427 687 522 608Q505 588 484 576T432 557Q368 604 298 640Q270 625 232 601T169 557Q147 562 130 579Z" />
<glyph unicode="&#xeb;" glyph-name="edieresis" horiz-adv-x="629" d="M526 173T553 164T594 144Q574 92 567 -1L330 0L50 -2Q50 45 58 74Q83 76 94 83T110 108T115 164V333Q115 373 111 390T95 415T56 426Q50 456 50 502Q168 500 307 500Q487 500 540 502Q541
468 546 428T559 363Q536 355 515 351T465 347Q456 391 432 408T348 426H308V273H319Q346 273 355 283T365 317Q393 329 444 329Q440 285 440 241Q440 190 444 154Q393 154 367 164Q365 187 355 194T319 201H308V171Q308 113 322 92T374 71H391Q428 71 453 95T495
174Q526 173 553 164ZM139 548T112 571T85 628Q85 666 108 692T179 718Q228 718 252 694T276 630Q276 595 249 572T182 548Q139 548 112 571ZM390 548T364 572T338 638Q338 676 364 697T434 718Q476 718 503 695T531 638Q531 599 509 574T439 548Q390 548 364 572Z"
/>
<glyph unicode="&#xec;" glyph-name="igrave" horiz-adv-x="423" d="M50 15T53 38T60 74Q85 76 96 83T111 109T115 170V333Q115 374 111 391T97 415T59 426Q50 456 50 502Q106 500 216 500Q301 500 373 502Q373 478 372 461T364 426Q338 423 327 416T312 392T308
333V170Q308 128 312 109T328 83T365 74Q373 51 373 -2Q323 0 227 0Q136 0 50 -2Q50 15 53 38ZM148 623T120 656T51 727Q128 759 215 759Q226 722 245 677T284 593Q246 575 182 575Q148 623 120 656Z" />
<glyph unicode="&#xed;" glyph-name="iacute" horiz-adv-x="423" d="M50 15T53 38T60 74Q85 76 96 83T111 109T115 170V333Q115 374 111 391T97 415T59 426Q50 456 50 502Q106 500 216 500Q301 500 373 502Q373 478 372 461T364 426Q338 423 327 416T312 392T308
333V170Q308 128 312 109T328 83T365 74Q373 51 373 -2Q323 0 227 0Q136 0 50 -2Q50 15 53 38ZM226 572T199 578T155 592Q179 638 193 673T216 748Q254 761 318 761Q358 761 382 757Q298 657 252 572Q226 572 199 578Z" />
<glyph unicode="&#xee;" glyph-name="icircumflex" horiz-adv-x="423" d="M62 572T38 612Q53 626 111 689Q149 731 168 750Q187 756 213 759T259 763Q307 696 384 605Q366 587 337 574T280 558Q233 605 187 636Q142 596 113 557Q62 572 38 612ZM50 15T53 38T60
74Q85 76 96 83T111 109T115 170V333Q115 374 111 391T97 415T59 426Q50 456 50 502Q106 500 216 500Q301 500 373 502Q373 478 372 461T364 426Q338 423 327 416T312 392T308 333V170Q308 128 312 109T328 83T365 74Q373 51 373 -2Q323 0 227 0Q136 0 50 -2Q50
15 53 38Z" />
<glyph unicode="&#xef;" glyph-name="idieresis" horiz-adv-x="423" d="M57 548T30 571T3 628Q3 666 26 692T97 718Q146 718 170 694T194 630Q194 595 167 572T100 548Q57 548 30 571ZM278 548T252 572T226 638Q226 676 252 697T322 718Q364 718 391 695T419 638Q419
599 397 574T327 548Q278 548 252 572ZM50 15T53 38T60 74Q85 76 96 83T111 109T115 170V333Q115 374 111 391T97 415T59 426Q50 456 50 502Q106 500 216 500Q301 500 373 502Q373 478 372 461T364 426Q338 423 327 416T312 392T308 333V170Q308 128 312 109T328
83T365 74Q373 51 373 -2Q323 0 227 0Q136 0 50 -2Q50 15 53 38Z" />
<glyph unicode="&#xf0;" glyph-name="eth" horiz-adv-x="704" d="M432 502T500 483T608 411T649 263Q649 154 593 96T465 19T330 0L50 -2Q50 45 58 74Q83 76 94 83T110 108T115 164V219L61 216Q61 259 68 281H115V333Q115 373 111 390T95 415T56 426Q50 456 50
502Q138 500 243 500Q265 500 278 501L335 502Q432 502 500 483ZM405 71T430 105T456 248Q456 354 425 390T337 427Q320 427 308 421V281H378Q378 246 371 223H308V171Q308 131 314 110T336 80T378 71Q405 71 430 105Z" />
<glyph unicode="&#xf1;" glyph-name="ntilde" horiz-adv-x="689" d="M599 500T639 502Q639 452 633 426Q607 421 596 414T581 387T577 320V2Q559 -4 540 -5T489 -7L200 317V178Q200 135 205 115T225 87T271 74Q278 48 278 -2Q230 0 168 0Q92 0 50 -2Q50 49 58
74Q89 79 103 87T124 115T131 178V394L125 401Q113 414 100 419T58 426Q50 454 50 502Q98 500 176 500Q258 500 283 502L507 241V320Q507 365 502 385T481 413T430 426Q423 446 423 502Q473 500 544 500Q599 500 639 502ZM392 579T374 586T334 608Q315 621 301
627T268 633Q220 633 178 582Q161 598 152 615T142 655Q214 739 291 739Q315 739 332 732T374 711Q394 699 407 694T436 688Q478 688 508 731Q548 725 572 699Q537 638 500 609T417 579Q392 579 374 586Z" />
<glyph unicode="&#xf2;" glyph-name="ograve" horiz-adv-x="723" d="M264 -9T196 23T92 114T55 252Q55 373 139 440T365 507Q504 507 586 443T668 261Q668 182 630 121T521 25T355 -9Q264 -9 196 23ZM417 64T444 112T472 244Q472 336 440 386T351 437Q251 437
251 270Q251 178 280 121T366 64Q417 64 444 112ZM299 623T271 656T202 727Q279 759 366 759Q377 722 396 677T435 593Q397 575 333 575Q299 623 271 656Z" />
<glyph unicode="&#xf3;" glyph-name="oacute" horiz-adv-x="723" d="M264 -9T196 23T92 114T55 252Q55 373 139 440T365 507Q504 507 586 443T668 261Q668 182 630 121T521 25T355 -9Q264 -9 196 23ZM417 64T444 112T472 244Q472 336 440 386T351 437Q251 437
251 270Q251 178 280 121T366 64Q417 64 444 112ZM377 572T350 578T306 592Q330 638 344 673T367 748Q405 761 469 761Q509 761 533 757Q449 657 403 572Q377 572 350 578Z" />
<glyph unicode="&#xf4;" glyph-name="ocircumflex" horiz-adv-x="723" d="M264 -9T196 23T92 114T55 252Q55 373 139 440T365 507Q504 507 586 443T668 261Q668 182 630 121T521 25T355 -9Q264 -9 196 23ZM417 64T444 112T472 244Q472 336 440 386T351 437Q251
437 251 270Q251 178 280 121T366 64Q417 64 444 112ZM201 562T184 579T161 614Q265 684 329 750Q369 765 416 765Q481 687 576 608Q559 588 538 576T486 557Q422 604 352 640Q324 625 286 601T223 557Q201 562 184 579Z" />
<glyph unicode="&#xf5;" glyph-name="otilde" horiz-adv-x="723" d="M264 -9T196 23T92 114T55 252Q55 373 139 440T365 507Q504 507 586 443T668 261Q668 182 630 121T521 25T355 -9Q264 -9 196 23ZM417 64T444 112T472 244Q472 336 440 386T351 437Q251 437
251 270Q251 178 280 121T366 64Q417 64 444 112ZM397 579T379 586T339 608Q320 621 306 627T273 633Q225 633 183 582Q166 598 157 615T147 655Q219 739 296 739Q320 739 337 732T379 711Q399 699 412 694T441 688Q483 688 513 731Q553 725 577 699Q542 638 505
609T422 579Q397 579 379 586Z" />
<glyph unicode="&#xf6;" glyph-name="odieresis" horiz-adv-x="723" d="M264 -9T196 23T92 114T55 252Q55 373 139 440T365 507Q504 507 586 443T668 261Q668 182 630 121T521 25T355 -9Q264 -9 196 23ZM417 64T444 112T472 244Q472 336 440 386T351 437Q251 437
251 270Q251 178 280 121T366 64Q417 64 444 112ZM193 548T166 571T139 628Q139 666 162 692T233 718Q282 718 306 694T330 630Q330 595 303 572T236 548Q193 548 166 571ZM444 548T418 572T392 638Q392 676 418 697T488 718Q530 718 557 695T585 638Q585 599 563
574T493 548Q444 548 418 572Z" />
<glyph unicode="&#xf7;" glyph-name="divide" horiz-adv-x="550" d="M235 359T213 380T190 442Q190 482 215 504T277 526Q312 526 336 506T360 453Q360 413 338 386T281 359Q235 359 213 380ZM27 267T39 307H523Q523 253 511 221Q398 224 285 224Q235 224 135
222Q67 220 27 220Q27 267 39 307ZM240 -2T216 21T192 80Q192 117 212 140T274 163Q317 163 338 141T359 80Q359 43 335 21T276 -2Q240 -2 216 21Z" />
<glyph unicode="&#xf8;" glyph-name="oslash" horiz-adv-x="723" d="M668 370T668 261Q668 182 630 121T521 25T355 -9Q276 -9 214 15L168 -39Q94 -39 64 -22L137 61Q97 95 76 143T55 252Q55 373 139 440T365 507Q452 507 518 481L570 540Q598 540 627 534T672
517L597 433Q668 370 668 261ZM251 437T251 270Q251 231 257 196L433 396Q401 437 351 437Q251 437 251 270ZM417 64T444 112T472 244Q472 271 469 295L295 99Q324 64 366 64Q417 64 444 112Z" />
<glyph unicode="&#xf9;" glyph-name="ugrave" horiz-adv-x="678" d="M256 -7T205 11T131 69T108 181V326Q108 367 103 386T86 414T48 426Q40 456 40 502Q90 500 165 500Q302 500 360 502Q360 454 355 426Q329 421 318 413T302 385T297 326V195Q297 124 320 96T393
68Q415 68 435 76T469 102Q493 133 493 226V323Q493 361 488 381T469 411T433 426Q428 456 428 502Q478 500 531 500Q582 500 628 502Q628 447 620 426Q585 422 574 404T563 335V209Q563 140 552 97T509 31Q482 10 443 2T348 -7Q256 -7 205 11ZM331 623T303 656T234
727Q311 759 398 759Q409 722 428 677T467 593Q429 575 365 575Q331 623 303 656Z" />
<glyph unicode="&#xfa;" glyph-name="uacute" horiz-adv-x="678" d="M256 -7T205 11T131 69T108 181V326Q108 367 103 386T86 414T48 426Q40 456 40 502Q90 500 165 500Q302 500 360 502Q360 454 355 426Q329 421 318 413T302 385T297 326V195Q297 124 320 96T393
68Q415 68 435 76T469 102Q493 133 493 226V323Q493 361 488 381T469 411T433 426Q428 456 428 502Q478 500 531 500Q582 500 628 502Q628 447 620 426Q585 422 574 404T563 335V209Q563 140 552 97T509 31Q482 10 443 2T348 -7Q256 -7 205 11ZM409 572T382 578T338
592Q362 638 376 673T399 748Q437 761 501 761Q541 761 565 757Q481 657 435 572Q409 572 382 578Z" />
<glyph unicode="&#xfb;" glyph-name="ucircumflex" horiz-adv-x="678" d="M256 -7T205 11T131 69T108 181V326Q108 367 103 386T86 414T48 426Q40 456 40 502Q90 500 165 500Q302 500 360 502Q360 454 355 426Q329 421 318 413T302 385T297 326V195Q297 124 320
96T393 68Q415 68 435 76T469 102Q493 133 493 226V323Q493 361 488 381T469 411T433 426Q428 456 428 502Q478 500 531 500Q582 500 628 502Q628 447 620 426Q585 422 574 404T563 335V209Q563 140 552 97T509 31Q482 10 443 2T348 -7Q256 -7 205 11ZM233 562T216
579T193 614Q297 684 361 750Q401 765 448 765Q513 687 608 608Q591 588 570 576T518 557Q454 604 384 640Q356 625 318 601T255 557Q233 562 216 579Z" />
<glyph unicode="&#xfc;" glyph-name="udieresis" horiz-adv-x="678" d="M256 -7T205 11T131 69T108 181V326Q108 367 103 386T86 414T48 426Q40 456 40 502Q90 500 165 500Q302 500 360 502Q360 454 355 426Q329 421 318 413T302 385T297 326V195Q297 124 320
96T393 68Q415 68 435 76T469 102Q493 133 493 226V323Q493 361 488 381T469 411T433 426Q428 456 428 502Q478 500 531 500Q582 500 628 502Q628 447 620 426Q585 422 574 404T563 335V209Q563 140 552 97T509 31Q482 10 443 2T348 -7Q256 -7 205 11ZM225 548T198
571T171 628Q171 666 194 692T265 718Q314 718 338 694T362 630Q362 595 335 572T268 548Q225 548 198 571ZM476 548T450 572T424 638Q424 676 450 697T520 718Q562 718 589 695T617 638Q617 599 595 574T525 548Q476 548 450 572Z" />
<glyph unicode="&#xfd;" glyph-name="yacute" horiz-adv-x="606" d="M546 500T576 502Q576 454 567 425Q550 424 540 416T510 375L405 194V165Q405 129 411 111T437 84T495 74Q501 53 503 39T505 -2Q473 0 390 0H303Q248 0 156 -2L104 -3Q105 25 107 42T115 74Q162
77 181 84T206 109T212 173V194L94 382Q80 405 66 414T37 426Q30 454 30 502Q75 500 188 500Q303 500 341 502Q341 460 334 425Q308 421 308 400Q308 385 320 363Q343 325 371 273Q398 321 434 378Q440 387 440 398Q440 410 432 418T409 426Q401 458 401 502Q435
500 493 500Q546 500 576 502ZM378 572T351 578T307 592Q331 638 345 673T368 748Q406 761 470 761Q510 761 534 757Q450 657 404 572Q378 572 351 578Z" />
<glyph unicode="&#xfe;" glyph-name="thorn" horiz-adv-x="663" d="M387 191T406 211T426 263Q426 290 404 308T343 326Q321 326 308 322V172Q308 123 329 101T407 74Q415 49 415 -2Q347 0 238 0Q142 0 50 -2Q50 15 53 38T60 74Q85 76 96 83T111 109T115 170V333Q115
374 111 391T97 415T59 426Q50 456 50 502Q106 500 216 500Q301 500 373 502Q373 478 372 461T364 426Q344 424 334 420T317 406H410Q514 406 561 368T608 268Q608 189 552 149T398 109Q357 109 337 114Q335 132 335 138Q335 164 347 188Q350 189 353 190T361 191Q387
191 406 211Z" />
<glyph unicode="&#xff;" glyph-name="ydieresis" horiz-adv-x="606" d="M546 500T576 502Q576 454 567 425Q550 424 540 416T510 375L405 194V165Q405 129 411 111T437 84T495 74Q501 53 503 39T505 -2Q473 0 390 0H303Q248 0 156 -2L104 -3Q105 25 107 42T115
74Q162 77 181 84T206 109T212 173V194L94 382Q80 405 66 414T37 426Q30 454 30 502Q75 500 188 500Q303 500 341 502Q341 460 334 425Q308 421 308 400Q308 385 320 363Q343 325 371 273Q398 321 434 378Q440 387 440 398Q440 410 432 418T409 426Q401 458 401
502Q435 500 493 500Q546 500 576 502ZM194 548T167 571T140 628Q140 666 163 692T234 718Q283 718 307 694T331 630Q331 595 304 572T237 548Q194 548 167 571ZM445 548T419 572T393 638Q393 676 419 697T489 718Q531 718 558 695T586 638Q586 599 564 574T494
548Q445 548 419 572Z" />
<glyph unicode="&#x2013;" glyph-name="endash" horiz-adv-x="596" d="M536 278T532 255T520 217Q272 217 60 211Q60 235 64 261T76 303H536Q536 278 532 255Z" />
<glyph unicode="&#x2014;" glyph-name="emdash" horiz-adv-x="1056" d="M996 256T981 218Q400 218 60 213Q60 238 64 263T75 303H996Q996 256 981 218Z" />
<glyph unicode="&#x2018;" glyph-name="quoteleft" horiz-adv-x="316" d="M60 569T87 627T164 730Q209 730 240 710Q209 679 197 655T185 603Q185 582 202 572T256 557Q256 521 253 498T240 442Q157 439 114 410Q84 418 72 439T60 511Q60 569 87 627Z" />
<glyph unicode="&#x2019;" glyph-name="quoteright" horiz-adv-x="316" d="M256 572T229 514T152 411Q107 411 76 431Q107 462 119 486T131 538Q131 559 114 569T60 584Q60 620 63 643T76 699Q159 702 202 731Q232 723 244 702T256 630Q256 572 229 514Z" />
<glyph unicode="&#x201a;" glyph-name="quotesinglbase" horiz-adv-x="316" d="M256 0T229 -58T152 -161Q107 -161 76 -141Q107 -110 119 -86T131 -34Q131 -13 114 -3T60 12Q60 48 63 71T76 127Q159 130 202 159Q232 151 244 130T256 58Q256 0 229 -58Z" />
<glyph unicode="&#x201c;" glyph-name="quotedblleft" horiz-adv-x="520" d="M60 569T87 627T164 730Q209 730 240 710Q209 679 197 654T185 603Q185 582 199 572T246 557Q246 520 243 495T230 444Q160 441 114 410Q84 419 72 440T60 511Q60 569 87 627ZM271 569T296
624T366 722Q411 722 442 702Q412 672 401 650T389 603Q389 582 406 572T460 557Q460 520 457 497T444 443Q365 439 322 410Q293 418 282 439T271 511Q271 569 296 624Z" />
<glyph unicode="&#x201d;" glyph-name="quotedblright" horiz-adv-x="520" d="M249 572T224 517T154 419Q109 419 78 439Q108 469 119 491T131 538Q131 559 114 569T60 584Q60 621 63 644T76 698Q155 702 198 731Q227 723 238 702T249 630Q249 572 224 517ZM460
572T433 514T356 411Q311 411 280 431Q311 462 323 487T335 538Q335 559 321 569T274 584Q274 621 277 646T290 697Q360 700 406 731Q436 722 448 701T460 630Q460 572 433 514Z" />
<glyph unicode="&#x201e;" glyph-name="quotedblbase" horiz-adv-x="520" d="M249 -3T224 -58T154 -156Q109 -156 78 -136Q108 -106 119 -84T131 -37Q131 -16 114 -6T60 9Q60 46 63 69T76 123Q155 127 198 156Q227 148 238 127T249 55Q249 -3 224 -58ZM460 -3T433
-61T356 -164Q311 -164 280 -144Q311 -113 323 -88T335 -37Q335 -16 321 -6T274 9Q274 46 277 71T290 122Q360 125 406 156Q436 147 448 126T460 55Q460 -3 433 -61Z" />
<glyph unicode="&#x2022;" glyph-name="bullet" horiz-adv-x="440" d="M144 102T102 148T60 262Q60 326 105 368T223 410Q272 410 308 390T362 335T380 260Q380 190 338 146T223 102Q144 102 102 148Z" />
<glyph unicode="&#x2039;" glyph-name="guilsinglleft" horiz-adv-x="286" d="M224 313T191 250Q209 215 225 190T269 131Q259 113 235 93T191 62Q157 108 127 141T60 205Q60 228 63 255T73 295Q125 338 186 407Q206 407 231 397T269 378Q224 313 191 250Z" />
<glyph unicode="&#x203a;" glyph-name="guilsinglright" horiz-adv-x="302" d="M68 171T106 234Q74 305 17 388Q31 398 51 405T96 412Q134 375 161 351T225 295Q242 255 242 215Q149 125 85 53Q43 76 22 113Q68 171 106 234Z" />
</font>
</defs>
</svg>
