<?xml version="1.0" standalone="no"?>
<!DOCTYPE svg PUBLIC "-//W3C//DTD SVG 1.1//EN" "http://www.w3.org/Graphics/SVG/1.1/DTD/svg11.dtd">
<svg xmlns="http://www.w3.org/2000/svg">
<defs >
<font id="Vollkorn" horiz-adv-x="593" ><font-face
    font-family="Vollkorn"
    units-per-em="1000"
    panose-1="0 0 0 0 0 0 0 0 0 0"
    ascent="952"
    descent="-441"
    alphabetic="0" />
<glyph unicode=" " horiz-adv-x="200" />
<glyph unicode="!" horiz-adv-x="411" d="M264 683Q258 622 251 545T239 387T230 231Q221 227 210 226T185 225Q180 321 174 398T161 543T145 681Q159 684 178 689T216 701T246 714Q257 710 261 703T264 683ZM266 50Q266 20 248 6T207 -8Q180 -8 165 7T150 45Q150
68 167 85T211 102Q237 102 251 85T266 50Z" />
<glyph unicode="&quot;" horiz-adv-x="343" d="M116 714Q127 712 132 704T136 681Q135 678 135 675T134 667Q130 627 127 581T118 479Q108 479 96 481T79 488Q77 540 73 592T60 693Q74 695 90 701T116 714ZM263 714Q272 712 277 705T283 687Q283 686 283 685T283
681Q278 638 274 590T265 478Q255 478 242 480T224 487Q222 539 218 591T206 693Q220 695 236 701T263 714Z" />
<glyph unicode="#" horiz-adv-x="592" d="M354 -8Q335 -5 327 0T310 14L459 714Q474 711 484 707T502 694L354 -8ZM30 212Q30 223 33 236T42 263H520Q520 248 518 238T508 214H411Q292 214 216 214T96 213T30 212ZM146 -8Q130 -6 120 0T103 18L251 714Q265 712
275 708T294 692L146 -8ZM83 441Q83 452 85 465T95 492H562Q562 477 560 467T550 443H484Q394 443 323 443T193 443T83 441Z" />
<glyph unicode="$" horiz-adv-x="552" d="M271 -9Q209 -9 163 8T68 55Q74 93 75 131T77 197Q88 200 103 201T131 203Q134 152 149 116T198 59T285 39Q354 39 383 69T413 143Q413 187 389 215T327 264T247 303T166 347T104 409T80 505Q80 561 104 601T174 663T281
685Q316 685 347 679T405 663T448 641Q448 612 449 574T454 509Q443 505 428 503T398 500Q388 558 372 588T333 629T280 641Q227 641 197 615T167 542Q167 498 191 469T253 419T333 379T413 335T475 274T499 183Q499 133 475 89T401 18T271 -9ZM301 -91Q290 -91
276 -88T255 -80V323L299 312Q299 240 299 179T299 55T301 -91ZM299 361L255 372V744Q270 744 280 742T301 733Q300 689 300 643T299 551T299 457T299 361Z" />
<glyph unicode="%" horiz-adv-x="863" d="M174 -7Q161 1 151 10T138 30L691 686Q705 683 714 676T733 657L174 -7ZM246 359Q194 359 160 381T108 439T90 512Q90 555 108 592T164 653T256 677Q305 677 337 655T386 597T403 526Q403 481 385 443T332 382T246 359ZM254
401Q279 401 303 429T327 512Q327 566 304 600T243 635Q212 635 190 604T167 525Q167 471 190 436T254 401ZM616 -8Q564 -8 530 14T478 72T460 145Q460 188 478 225T534 286T626 310Q675 310 707 288T756 230T773 159Q773 114 755 76T702 15T616 -8ZM624 34Q649
34 673 62T697 145Q697 199 674 233T613 268Q582 268 560 237T537 158Q537 104 560 69T624 34Z" />
<glyph unicode="&amp;" horiz-adv-x="742" d="M478 185Q507 231 523 266T547 334Q557 373 541 391T472 419Q469 429 467 440T465 461Q486 460 514 459T567 458Q592 458 621 459T667 461Q667 452 666 441T663 420Q643 413 630 403T609 377T594 338Q586 308 575
279T548 219T510 149L478 185ZM572 102Q589 85 603 76T637 62T687 55Q687 45 686 33T681 10Q662 10 634 8T579 1T535 -9Q468 80 401 154T265 307Q227 353 199 394T157 477T142 568Q142 606 161 640T217 695T306 717Q349 717 380 709T442 682Q438 656 437 626T437
565Q425 560 411 559T384 557Q380 621 361 647T300 673Q266 673 244 651T221 587Q221 558 228 531T256 472T315 391Q331 372 351 348T400 290T471 211T572 102ZM281 67Q326 67 362 84T437 141L467 102Q422 43 375 17T268 -10Q208 -10 167 9T101 61T65 131T54 208Q54
284 96 340T200 433L213 400Q183 371 161 332T138 237Q138 182 157 144T209 87T281 67Z" />
<glyph unicode="&apos;" horiz-adv-x="198" d="M117 714Q136 711 138 690Q138 688 138 686T138 681Q132 638 129 590T120 477Q110 477 98 479T80 487Q78 540 73 592T60 693Q74 695 90 701T117 714Z" />
<glyph unicode="(" horiz-adv-x="291" d="M215 741Q228 743 235 740T250 729Q203 659 175 585T133 426T120 240Q120 137 134 50T178 -114T256 -266Q249 -271 239 -271T220 -271Q162 -193 121 -113T57 55T35 240Q35 327 53 406T111 567T215 741Z" />
<glyph unicode=")" horiz-adv-x="291" d="M76 741Q140 649 179 568T237 407T256 240Q256 143 234 56T171 -112T71 -271Q63 -272 53 -272T35 -266Q83 -191 113 -114T157 50T171 240Q171 341 158 425T117 584T41 729Q48 735 56 738T76 741Z" />
<glyph unicode="*" horiz-adv-x="443" d="M284 738Q271 709 258 674T233 603Q257 607 279 612T325 622T373 635Q379 622 381 603T381 568Q349 570 311 571T236 574Q253 541 270 513T309 451Q297 440 283 433T248 424Q241 454 231 490T209 561Q184 536 162 511T116
455Q103 462 90 475T71 505Q97 521 128 542T190 585Q158 601 127 614T60 640Q63 654 71 671T93 698Q116 678 146 655T205 610Q210 646 213 679T217 751Q231 753 251 750T284 738Z" />
<glyph unicode="+" horiz-adv-x="550" d="M248 3Q249 43 249 89T249 183T250 269Q250 306 250 337T250 405T249 493Q260 500 271 501T298 503V13Q291 9 275 6T248 3ZM49 232Q49 243 51 259T58 283H501Q501 268 500 256T491 233Q443 234 410 234T347 234T283 234Q248
234 208 234T127 233T49 232Z" />
<glyph unicode="," horiz-adv-x="259" d="M165 97Q182 90 190 72T199 25Q199 -34 167 -89T92 -185Q83 -185 74 -181T60 -170Q124 -98 124 -43Q124 -22 113 -9T77 7Q77 17 79 35T85 67Q108 72 128 79T165 97Z" />
<glyph unicode="-" horiz-adv-x="419" d="M359 294Q359 278 356 261T346 229Q319 229 281 229T202 228T124 227T60 225Q60 242 64 261T76 294H359Z" />
<glyph unicode="." horiz-adv-x="236" d="M372 -10Q340 -10 322 8T304 54Q304 82 324 102T377 122Q408 122 425 101T443 60Q443 24 422 7T372 -10Z" />
<glyph unicode="/" horiz-adv-x="365" d="M76 -9Q46 1 33 17L291 713Q302 710 314 703T334 687L76 -9Z" />
<glyph unicode="0" horiz-adv-x="601" d="M275 455Q228 455 196 430T148 363T131 269Q131 232 144 193T184 121T247 68T330 48Q379 48 409 73T453 141T467 233Q467 267 455 305T418 378T357 433T275 455ZM304 506Q369 506 428 477T524 392T561 255Q561 175 526
116T432 24T304 -9Q235 -9 175 23T77 115T40 255Q40 315 62 362T123 441T208 489T304 506Z" />
<glyph unicode="1" horiz-adv-x="388" d="M239 127Q239 94 245 76T266 49T308 40Q311 30 312 19T313 -3Q298 -2 282 -2T249 -1T218 0T194 0Q181 0 166 0T135 0T104 -1T75 -3Q75 8 76 19T80 40Q105 41 120 49T142 75T149 127V373Q149 406 143 424T123 450T80 460Q78
469 77 480T75 503Q87 502 102 502T134 501T166 500T194 500Q215 500 236 500T277 501T313 503Q313 490 312 480T308 460Q282 459 267 451T245 424T239 373V127Z" />
<glyph unicode="2" horiz-adv-x="537" d="M263 506Q309 506 347 494T407 453T430 374Q430 343 419 318T384 267T320 204Q292 179 261 150T186 78L171 90H344Q372 90 386 93T407 110T414 151Q428 151 439 150T461 144Q461 106 463 78T472 21Q468 12 460 5T440 -2Q392
-1 342 -1T247 0Q203 0 155 0T78 -2Q70 7 68 16T65 39Q108 79 152 119T236 194Q275 229 296 256T325 307T333 358Q333 408 311 434T246 460Q207 460 185 432T151 321Q138 321 123 322T97 328Q99 346 100 369T100 416T95 458Q124 479 166 492T263 506Z" />
<glyph unicode="3" horiz-adv-x="513" d="M196 -171Q147 -171 110 -158T50 -126Q50 -118 53 -110T64 -93Q77 -102 109 -111T191 -121Q230 -121 269 -104T335 -51T362 36Q362 94 326 133T217 172Q209 172 201 171T185 165Q177 173 172 183T167 200Q226 276 267
329T334 420H212Q183 420 166 415T139 396T118 350Q108 350 97 353T77 363Q85 400 86 433T88 502Q105 502 129 502T187 501T263 500Q305 500 334 500T386 501T426 502Q434 495 436 485T438 462Q405 422 362 368T268 248Q317 251 361 229T434 162T463 50Q463 -8
431 -58T339 -140T196 -171Z" />
<glyph unicode="4" horiz-adv-x="597" d="M330 0Q254 0 191 -2T63 -6Q57 0 51 10T45 32L386 506Q398 506 411 504T431 496V-152Q419 -152 400 -156T366 -164T348 -171Q342 -165 340 -157T337 -138V21V35V379L356 386L139 59L131 79H395H417H518Q529 79 536 77T547
70Q543 61 539 48T532 23T529 0H330Z" />
<glyph unicode="5" horiz-adv-x="481" d="M134 502Q169 501 197 501T252 500T307 500Q336 500 347 514T359 548Q368 551 380 552T404 553Q400 526 399 495T398 428Q394 420 384 415T353 410Q337 410 309 410T251 410T195 409T160 407L136 306Q222 288 286 259T385
184T421 67Q421 9 398 -35T338 -109T258 -155T175 -171Q138 -171 107 -162T60 -139Q60 -131 63 -123T73 -106Q86 -111 113 -116T171 -121Q211 -121 245 -102T300 -46T321 40Q321 83 300 115T245 170T170 205T90 222Q82 227 78 236T73 253L134 502Z" />
<glyph unicode="6" horiz-adv-x="506" d="M409 638Q414 632 416 626T419 607Q324 588 260 548T164 436T131 244Q131 183 145 144T180 81T223 49T264 39Q305 39 329 60T365 112T377 175Q377 239 354 274T297 322T234 336Q209 336 184 329T125 298V334Q172 367 207
381T279 395Q365 395 415 348T466 212Q466 162 450 122T404 52T336 7T255 -9Q184 -9 135 19T60 103T35 240Q35 329 58 395T121 506T210 580T310 622T409 638Z" />
<glyph unicode="7" horiz-adv-x="485" d="M149 -176Q135 -171 128 -160T120 -132Q120 -69 148 12T228 193T347 409H191Q163 409 146 404T118 384T99 338Q83 338 71 341T48 350Q54 376 58 400T64 449T67 503Q106 501 145 501T245 500Q280 500 310 500T369 501T427
503Q434 495 437 486T442 465Q417 429 393 389T346 308T304 230Q280 183 265 142T241 61T230 -23T226 -121Q199 -132 180 -147T149 -176Z" />
<glyph unicode="8" horiz-adv-x="508" d="M233 316Q198 291 178 268T149 217T140 149Q140 97 173 67T261 36Q308 36 335 63T363 136Q363 173 346 203T294 262T210 323Q166 352 137 378T92 431T77 492Q77 559 123 598T249 637Q333 637 382 602T431 504Q431 463
412 435T364 386T303 348L267 371Q308 394 324 421T341 491Q341 538 318 565T254 592Q217 592 195 571T171 512Q170 473 191 446T265 386Q325 349 368 315T435 243T458 156Q458 80 402 36T248 -9Q157 -9 104 31T50 141Q50 211 89 255T200 341L233 316Z" />
<glyph unicode="9" horiz-adv-x="519" d="M395 156Q358 122 322 108T245 93Q189 93 143 117T68 183T40 283Q40 337 57 378T105 448T176 491T263 506Q339 506 388 476T460 387T484 242Q484 163 458 100T389 -11T294 -92T188 -144T90 -170Q83 -161 82 -153T80 -134Q186
-94 255 -43T358 77T392 235Q392 356 353 409T249 462Q215 462 189 443T148 390T133 318Q133 266 148 234T188 185T240 162T293 156Q323 156 351 167T399 201L395 156Z" />
<glyph unicode=":" horiz-adv-x="236" d="M117 25Q90 25 75 40T60 78Q60 101 77 118T121 135Q147 135 161 118T176 83Q176 53 158 39T117 25ZM117 311Q90 311 75 326T60 364Q60 387 77 404T121 421Q147 421 161 404T176 369Q176 339 158 325T117 311Z" />
<glyph unicode=";" horiz-adv-x="259" d="M139 311Q112 311 97 326T82 364Q82 387 99 404T143 421Q169 421 183 404T198 369Q198 339 180 325T139 311ZM165 97Q182 90 190 72T199 25Q199 -34 167 -89T92 -185Q83 -185 74 -181T60 -170Q124 -98 124 -43Q124 -22
113 -9T77 7Q77 17 79 35T85 67Q108 72 128 79T165 97Z" />
<glyph unicode="&lt;" horiz-adv-x="550" d="M456 18Q356 77 257 132T66 234Q60 266 74 287L435 505Q458 497 473 472L117 260L466 74Q469 60 467 43T456 18Z" />
<glyph unicode="=" horiz-adv-x="550" d="M57 147Q57 158 60 174T67 197H494Q494 181 492 170T484 148Q445 149 416 149T356 149T283 149Q240 149 206 149T136 149T57 147ZM57 313Q57 324 60 339T68 362H493Q493 347 491 336T483 314Q444 315 415 315T356 315T283
315Q240 315 206 315T137 315T57 313Z" />
<glyph unicode="&gt;" horiz-adv-x="550" d="M96 14Q89 23 86 38T86 67L454 269L453 249L75 472Q84 486 93 494T117 506L486 277Q491 251 477 228Q403 191 344 158T226 91T96 14Z" />
<glyph unicode="?" horiz-adv-x="537" d="M274 714Q345 714 390 681T435 586Q435 547 421 516T385 458T341 404T305 344T290 269Q290 257 293 236T301 201Q292 196 284 195T265 193Q249 204 234 238T219 315Q219 355 232 384T264 436T301 480T333 524T346 577Q346
620 322 646T265 673Q240 673 223 660T194 619T177 544Q163 544 147 546T120 554Q123 589 123 614T120 671Q145 687 181 700T274 714ZM272 -10Q240 -10 222 8T204 54Q204 82 224 102T277 122Q308 122 325 102T343 60Q343 24 322 7T272 -10Z" />
<glyph unicode="@" horiz-adv-x="997" d="M643 467Q652 464 657 456T663 428T665 371V180Q665 131 667 107T677 76T701 69Q721 69 750 101T801 196T823 351Q823 423 790 484T691 582T526 619Q413 619 338 570T225 434T187 237Q187 159 208 88T274 -38T384 -125T540
-157Q623 -157 696 -130T822 -43Q835 -45 842 -51T853 -68Q823 -110 773 -140T659 -186T526 -202Q390 -202 301 -147T169 6T125 228Q125 318 152 396T232 533T361 626T536 660Q649 660 723 619T835 510T872 359Q872 278 852 211T798 95T725 18T648 -9Q609 -9 595
17T580 89Q580 115 580 161T582 262T584 369T587 458Q600 458 614 460T643 467ZM502 467Q531 467 555 465T610 454L593 387Q571 405 545 413T496 422Q464 422 444 402T415 340T405 228Q405 141 423 107T465 73Q482 73 506 102T553 191T584 339L611 363Q608 289
595 222T559 103T507 21T439 -9Q384 -9 350 38T315 198Q315 277 338 337T404 432T502 467Z" />
<glyph unicode="A" horiz-adv-x="704" d="M358 682L596 136Q613 99 624 79T646 51T673 40Q677 27 678 18T679 -3Q669 -2 648 -2T604 -1T565 0Q553 0 537 0T504 -1T474 -2T452 -3Q452 9 453 20T459 40Q500 45 507 58T495 118L356 443Q343 474 333 498T309 559H314Q302
521 293 495T274 444L160 147Q138 88 146 66T196 40Q200 31 201 20T203 -3Q192 -2 176 -2T143 -1T108 0Q83 0 61 -1T25 -3Q25 7 26 18T32 39Q50 43 62 53T85 85T112 147L319 678Q329 680 337 681T358 682ZM449 265L458 220Q391 220 315 219T176 216L192 265H449Z"
/>
<glyph unicode="B" horiz-adv-x="623" d="M57 679Q77 678 105 677T161 676Q185 676 209 676T257 677T304 678Q362 678 410 666T487 623T517 532Q517 468 478 423T372 367Q425 364 469 348T541 295T568 197Q568 143 544 98T466 27T328 0Q300 0 262 0T183 0T109
-1T56 -3Q56 11 57 21T61 40Q88 42 103 50T124 78T131 138V549Q131 583 125 601T104 627T62 636Q59 644 58 655T57 679ZM225 641V138Q225 97 232 77T260 50T318 43Q392 43 426 80T461 183Q461 230 442 259T392 304T323 326T248 332H213V375H256Q321 375 355 393T402
440T415 502Q415 554 392 582T334 622T266 634Q253 634 241 633T211 626L225 641Z" />
<glyph unicode="C" horiz-adv-x="653" d="M353 -9Q260 -9 189 35T76 159T35 343Q35 429 63 493T138 600T245 664T369 685Q432 685 484 672T591 633Q584 598 582 559T580 478Q567 473 555 471T527 469Q525 540 506 578T454 630T377 644Q314 644 269 621T196 560T154
472T140 370Q140 281 170 209T258 94T395 52Q443 52 493 68T585 111Q591 106 596 97T603 80Q544 34 487 13T353 -9Z" />
<glyph unicode="D" horiz-adv-x="730" d="M56 -3Q56 11 57 21T61 40Q88 42 103 50T124 78T131 138V549Q131 583 125 601T104 627T62 636Q59 644 58 655T57 679Q73 678 97 678T148 677T197 676Q226 676 256 677T315 678Q368 678 422 671T525 644T612 588T673 495T695
355Q695 274 675 216T622 119T547 56T464 20T382 4T315 0Q287 0 251 0T177 0T107 -1T56 -3ZM315 45Q375 45 425 59T513 107T571 198T592 340Q592 421 568 478T502 571T408 623T299 640Q277 640 251 637T217 628L225 654V138Q225 101 232 81T258 53T315 45Z" />
<glyph unicode="E" horiz-adv-x="601" d="M56 679Q71 678 93 678T141 677T188 676T224 676V138Q224 101 231 81T258 53T315 45V0Q287 0 251 0T177 0T107 -1T56 -3Q56 11 57 21T61 40Q88 42 103 50T124 78T130 138V549Q130 583 124 601T103 627T61 636Q58 644 57
655T56 679ZM516 171Q531 167 541 162T560 147Q549 113 542 73T529 -2Q510 -1 478 -1T404 -1T315 0V45H321Q393 45 429 59T484 102T516 171ZM446 450Q445 425 445 396T444 341Q444 315 444 283T446 225Q433 225 422 226T400 230Q396 282 373 300T287 319H215V362H287Q349
362 373 378T398 443Q411 447 422 448T446 450ZM505 679Q507 657 510 628T517 571T526 521Q518 514 507 512T481 509Q479 540 465 569T417 617T317 636H203L224 676Q303 676 359 676T452 678T505 679Z" />
<glyph unicode="F" horiz-adv-x="561" d="M56 -3Q56 11 57 21T61 40Q88 42 103 49T124 75T130 127V549Q130 583 124 601T103 627T61 636Q58 644 57 655T56 679Q73 678 94 678T138 677T184 676T224 676V147Q224 104 233 82T262 51T313 40Q316 32 317 22T318 -3Q303
-2 283 -2T239 -1T192 0Q157 0 117 0T56 -3ZM452 205Q439 205 428 206T406 210Q402 262 379 280T293 299H221V342H293Q355 342 379 358T404 423Q417 427 428 428T452 430Q451 405 451 376T450 321Q450 295 450 263T452 205ZM477 509Q475 540 461 569T413 617T313
636H199L221 676Q300 676 356 676T449 678T501 679Q503 657 506 628T513 571T522 521Q514 514 503 512T477 509Z" />
<glyph unicode="G" horiz-adv-x="731" d="M364 -9Q266 -9 192 35T76 159T35 347Q35 431 64 494T142 600T254 663T382 685Q454 685 516 672T622 638Q615 603 613 565T611 483Q599 479 587 477T558 474Q556 544 533 580T473 630T390 644Q305 644 250 605T168 504T141
369Q141 278 168 204T249 85T384 40Q414 40 437 43T485 56Q502 64 510 78T519 131V181Q519 227 514 247T490 274T433 281Q430 289 429 302T427 327Q446 326 482 325T549 324Q580 324 615 324T666 326Q666 317 665 304T660 281Q640 280 630 274T617 247T613 181V136Q613
115 615 98T626 66Q583 35 516 13T364 -9Z" />
<glyph unicode="H" horiz-adv-x="753" d="M455 -3Q455 11 456 21T460 40Q487 42 502 49T523 75T529 127V549Q529 583 523 601T502 627T460 636Q457 644 456 655T455 679Q474 678 493 678T534 677T576 676Q598 676 618 676T657 677T697 679Q697 666 696 655T692
636Q666 635 651 627T629 601T623 549V127Q623 94 629 76T650 50T692 40Q695 32 696 22T697 -3Q667 -1 636 -1T576 0Q547 0 514 0T455 -3ZM56 -3Q56 11 57 21T61 40Q88 42 103 49T124 75T130 127V549Q130 583 124 601T103 627T61 636Q58 644 57 655T56 679Q75 678
94 678T135 677T177 676Q199 676 219 676T258 677T298 679Q298 666 297 655T293 636Q267 635 252 627T230 601T224 549V127Q224 94 230 76T251 50T293 40Q296 32 297 22T298 -3Q268 -1 237 -1T177 0Q148 0 115 0T56 -3ZM219 319V368H534V325Q506 325 464 325T377
325T290 323T219 319Z" />
<glyph unicode="I" horiz-adv-x="354" d="M130 549Q130 583 124 601T103 627T61 636Q58 644 57 655T56 679Q75 678 94 678T135 677T177 676Q199 676 219 676T258 677T298 679Q298 666 297 655T293 636Q267 635 252 627T230 601T224 549V127Q224 94 230 76T251
50T293 40Q296 32 297 22T298 -3Q268 -1 237 -1T177 0Q148 0 115 0T56 -3Q56 11 57 21T61 40Q88 42 103 49T124 75T130 127V549Z" />
<glyph unicode="J" horiz-adv-x="329" d="M214 125Q214 55 208 1T181 -96T123 -177T20 -249Q13 -245 9 -238T3 -223Q41 -191 67 -156T106 -75T120 34V549Q120 583 114 601T93 627T51 636Q48 644 47 655T46 679Q61 678 80 678T122 677T167 676Q200 676 235 677T288
679Q288 666 287 655T283 636Q258 635 243 627T221 601T214 549V125Z" />
<glyph unicode="K" horiz-adv-x="678" d="M492 -6Q474 23 442 68T370 165T287 262T209 339L413 553Q450 591 450 612T417 636Q414 646 413 657T412 679Q429 678 457 677T515 676Q535 676 553 676T588 677T618 679Q618 669 617 657T612 636Q590 635 570 628T526
602T470 549L295 363V387Q337 350 390 286T505 142Q530 110 549 89T592 57T656 43Q656 35 655 23T651 0Q632 0 612 0T571 -1T530 -3T492 -6ZM56 -3Q56 11 57 21T61 40Q88 42 103 49T124 75T130 127V549Q130 583 124 601T103 627T61 636Q58 644 57 655T56 679Q75
678 94 678T135 677T177 676Q199 676 219 676T258 677T298 679Q298 666 297 655T293 636Q267 635 252 627T230 601T224 549V127Q224 94 230 76T251 50T293 40Q296 32 297 22T298 -3Q268 -1 237 -1T177 0Q148 0 115 0T56 -3Z" />
<glyph unicode="L" horiz-adv-x="560" d="M321 45Q377 45 409 57T460 97T496 171Q511 167 521 162T540 147Q529 113 522 73T509 -2Q490 -1 459 -1T390 -1T315 0Q287 0 251 0T177 0T107 -1T56 -3Q56 11 57 21T61 40Q88 42 103 50T124 78T131 138V549Q131 583 125
601T104 627T62 636Q59 644 58 655T57 679Q77 678 99 678T143 677T178 676Q200 676 220 676T259 677T299 679Q299 666 298 655T294 636Q268 635 253 627T231 600T225 546V138Q225 101 232 81T258 53T315 45H321Z" />
<glyph unicode="M" horiz-adv-x="931" d="M437 -9L196 515H206L172 176Q167 123 171 95T191 55T237 40Q240 30 241 17T242 -3Q218 -1 188 -1T135 0Q121 0 103 0T67 -1T35 -3Q35 4 36 17T40 40Q67 43 82 53T107 94T121 185L153 541Q156 577 151 597T130 627T86
636Q83 646 82 658T81 679Q91 678 104 678T131 677T157 676Q170 676 182 676T207 677T233 679L495 100H473L701 679Q713 678 726 678T752 677T779 676Q792 676 804 676T829 677T855 679Q855 669 854 658T850 636Q815 636 796 616T782 535L818 168Q823 119 831 92T853
54T891 41Q894 31 895 19T896 -3Q884 -2 869 -2T838 -1T806 0T776 0Q758 0 736 0T693 -1T654 -3Q654 6 655 18T660 40Q692 43 706 53T723 87T721 155L683 519H694L478 -2Q469 -6 459 -7T437 -9Z" />
<glyph unicode="N" horiz-adv-x="742" d="M594 -6L126 605Q112 623 99 628T61 636Q58 647 57 659T56 679Q66 678 78 678T104 677T130 676Q149 676 166 677T197 679L596 150L594 -6ZM56 -3Q56 10 57 20T61 40Q88 40 103 53T124 98T130 187V610H181V187Q181 131
187 99T208 53T250 40Q253 31 254 21T255 -3Q240 -2 223 -2T188 -1T156 0Q142 0 123 0T87 -1T56 -3ZM594 -6L586 94V494Q586 549 580 579T559 623T517 636Q514 653 513 661T512 679Q527 678 543 678T575 677T606 676Q627 676 654 677T701 679Q701 669 700 658T696
636Q674 636 661 623T643 580T637 494V0Q629 -3 617 -4T594 -6Z" />
<glyph unicode="O" horiz-adv-x="731" d="M365 -9Q266 -9 192 37T77 162T35 340Q35 417 60 480T131 589T236 660T365 685Q461 685 535 642T653 521T696 340Q696 266 672 203T604 92T499 18T365 -9ZM385 40Q450 40 496 76T568 175T593 314Q593 404 561 477T472
594T344 637Q285 637 239 604T165 509T138 367Q138 304 154 245T201 140T279 67T385 40Z" />
<glyph unicode="P" horiz-adv-x="581" d="M56 -3Q56 11 57 21T61 40Q88 42 103 49T124 75T130 127V549Q130 583 124 601T103 627T61 636Q58 644 57 655T56 679Q95 677 131 677T192 676Q206 676 231 676T282 677T319 678Q402 678 452 651T524 580T546 484Q546 427
521 374T445 287T319 253Q277 253 249 264Q247 275 247 285T250 305Q263 302 276 301T303 299Q340 299 372 312T424 358T444 455Q444 535 405 584T275 634Q264 634 250 633T209 625L224 640V147Q224 104 233 82T262 51T313 40Q316 32 317 22T318 -3Q303 -2 283
-2T239 -1T192 0Q169 0 142 0T92 -1T56 -3Z" />
<glyph unicode="Q" horiz-adv-x="731" d="M365 -9Q266 -9 192 37T77 162T35 340Q35 417 60 480T131 589T236 660T365 685Q461 685 535 642T653 521T696 340Q696 266 672 203T604 92T499 18T365 -9ZM385 40Q450 40 496 76T568 175T593 314Q593 404 561 477T472
594T344 637Q285 637 239 604T165 509T138 367Q138 304 154 245T201 140T279 67T385 40ZM636 -184Q597 -174 572 -155T528 -113T488 -68T439 -30T365 -9L459 18Q499 10 529 -5T585 -38T637 -71T694 -94T766 -98Q766 -107 765 -117T760 -138Q731 -147 703 -157T636
-184Z" />
<glyph unicode="R" horiz-adv-x="684" d="M497 -9Q477 24 464 46T441 88T418 131Q399 167 381 196T340 255T281 321L307 308Q281 307 259 307T217 308V355Q231 353 243 352T268 351Q323 351 367 366T437 415T463 500Q463 559 426 596T298 634Q275 634 257 632T219
625L224 636V127Q224 94 230 76T250 50T290 40Q293 31 294 20T295 -3Q274 -1 251 -1T209 0T176 0Q150 0 115 0T56 -3Q56 8 57 19T61 40Q88 42 103 49T124 75T130 127V549Q130 583 124 601T103 628T61 636Q58 646 57 656T56 678Q71 677 106 677T176 676Q217 676
259 677T343 678Q419 678 467 656T538 596T561 510Q561 464 539 427T477 364T380 325L385 337Q413 308 432 282T473 223T523 140Q544 105 560 85T599 55T658 43Q658 31 658 21T654 0Q617 0 576 -1T497 -9Z" />
<glyph unicode="S" horiz-adv-x="552" d="M271 -9Q209 -9 163 8T68 55Q74 93 75 131T77 197Q88 200 103 201T131 203Q134 152 149 116T198 59T285 39Q354 39 383 69T413 143Q413 187 389 215T327 264T247 303T166 347T104 409T80 505Q80 561 104 601T174 663T281
685Q316 685 347 679T405 663T448 641Q448 612 449 574T454 509Q443 505 428 503T398 500Q388 558 372 588T333 629T280 641Q227 641 197 615T167 542Q167 498 191 469T253 419T333 379T413 335T475 274T499 183Q499 133 475 89T401 18T271 -9Z" />
<glyph unicode="T" horiz-adv-x="585" d="M198 632Q150 632 126 617T91 574T73 510Q62 510 48 512T25 519Q33 561 37 603T41 679Q69 678 109 677T197 676T296 676Q347 676 395 676T485 677T553 679Q552 643 553 605T559 519Q549 514 537 512T509 510Q508 569 482
600T396 632H198ZM249 649H343V127Q343 94 349 76T372 50T421 40Q424 32 425 22T426 -3Q394 -1 361 -1T295 0Q274 0 251 0T205 -1T164 -3Q164 11 165 21T169 40Q201 42 218 49T242 75T249 127V649Z" />
<glyph unicode="U" horiz-adv-x="675" d="M570 269Q570 183 559 133T513 48Q485 20 444 6T351 -9Q258 -9 205 18T129 100T106 231V549Q106 585 102 602T85 626T47 636Q44 647 43 658T42 679Q62 678 94 677T158 676Q173 676 189 676T220 676T249 677T274 679Q274
669 273 658T269 636Q240 634 225 628T205 604T200 549V245Q200 189 215 143T267 71T370 44Q395 44 425 52T476 82Q492 98 501 119T514 174T519 261V509Q519 557 514 583T495 622T450 636Q447 651 446 660T445 679Q457 678 473 678T506 677T539 676Q562 676 588
677T634 679Q634 672 633 663T629 636Q606 634 593 623T575 585T570 509V269Z" />
<glyph unicode="V" horiz-adv-x="686" d="M322 -6Q286 91 250 185T179 366T115 521Q94 570 82 594T59 626T30 636Q27 648 26 659T25 679Q35 678 49 678T79 677T113 676T146 676Q178 676 208 677T267 679Q267 670 266 659T262 636Q229 634 213 626T199 595T222
526Q249 462 275 396T326 263T378 123H363Q392 188 418 252T470 381T520 514Q539 570 532 600T479 636Q476 647 475 659T474 679Q489 678 502 678T530 677T559 676Q582 676 610 677T661 679Q661 668 660 658T656 636Q625 629 607 599T570 518Q520 389 468 259T361
-2Q351 -4 343 -5T322 -6Z" />
<glyph unicode="W" horiz-adv-x="1003" d="M25 679Q37 678 51 678T81 677T111 676T138 676Q154 676 175 676T218 677T259 679Q259 671 258 660T254 636Q219 634 204 627T190 599T207 533Q227 472 249 401T294 259T334 125H312L500 679Q508 682 518 683T544 684Q577
598 612 502T681 311T746 128H726L841 494Q864 569 853 599T793 636Q789 646 788 658T786 679Q807 678 831 677T883 676Q906 676 932 677T978 679Q978 669 977 658T971 636Q954 632 942 619T917 576T887 491L731 -3Q723 -6 713 -7T691 -9Q661 77 627 170T559 356T491
535H500L320 -3Q315 -5 308 -6T293 -8T277 -9Q237 124 195 257T109 521Q91 575 80 598T59 627T30 636Q27 646 26 657T25 679Z" />
<glyph unicode="X" horiz-adv-x="667" d="M627 -3Q613 -2 592 -2T549 -1T505 0Q485 0 463 0T420 -1T384 -2Q384 7 385 18T388 40Q414 43 426 50T435 79T404 144Q368 206 330 268T252 392T171 516Q144 557 128 580T102 614T83 629T62 635Q58 647 57 658T56 679Q74
678 95 678T137 677T178 676Q207 676 241 676T299 678Q299 669 298 658T295 636Q267 631 255 621T249 589T279 529Q320 467 359 405T437 281T512 157Q533 122 548 100T575 66T598 48T621 40Q624 31 625 20T627 -3ZM40 -3Q40 5 41 18T46 42Q70 48 99 70T165 144L298
334L327 295L232 155Q207 118 200 95T204 59T249 40Q252 30 253 19T254 -3Q229 -1 201 -1T144 0Q125 0 107 0T71 -1T40 -3ZM369 328L339 369L434 518Q475 583 470 606T419 636Q416 647 415 659T414 679Q431 678 448 678T483 677T516 676Q531 676 549 676T585 677T615
679Q615 669 615 658T611 636Q596 632 581 623T546 590T496 521L369 328Z" />
<glyph unicode="Y" horiz-adv-x="630" d="M365 264V163Q365 110 370 86T391 53T442 40Q445 31 446 20T448 -3Q415 -2 382 -1T321 0Q299 0 273 0T223 -1T185 -2Q185 9 186 20T191 40Q227 43 244 50T266 80T271 150V264H365ZM357 244H279L105 578Q89 609 74 622T31
637Q27 648 26 658T25 678Q39 678 56 678T91 677T129 676Q148 676 173 676T223 676T263 678Q263 667 262 659T258 639Q219 635 214 618T230 557Q257 505 288 440T351 305H343Q375 376 403 436T455 542Q482 595 475 613T428 637Q425 648 423 657T421 678Q439 677
468 677T519 676Q542 676 565 676T605 678Q605 668 604 659T601 639Q574 632 550 607T500 531L357 244Z" />
<glyph unicode="Z" horiz-adv-x="631" d="M102 678Q117 678 147 678T214 677T286 676T346 676Q379 676 409 676T471 676T538 678Q543 673 546 664T549 645Q487 537 426 433T302 227T174 25L164 42H339Q401 42 435 51T487 87T516 169Q549 166 568 152Q563 130 559
104T553 51T550 -3Q501 -1 459 -1T376 0T289 0Q220 0 159 0T66 -3Q62 5 60 12T58 29Q106 106 153 183T247 337T340 491T431 647L442 636H283Q239 636 212 627T168 590T140 508Q127 508 110 510T83 518Q92 550 97 594T102 678Z" />
<glyph unicode="[" horiz-adv-x="272" d="M35 742Q61 741 86 741T130 740Q156 740 177 740T226 742Q233 736 235 726T237 704Q184 700 155 693T116 668T105 610V-157Q105 -189 118 -203T159 -222T226 -229Q233 -236 235 -245T237 -269Q216 -267 189 -267T141 -267Q116
-267 89 -267T35 -269V742Z" />
<glyph unicode="\" horiz-adv-x="380" d="M31 709Q36 711 43 712T57 713Q65 713 72 712T84 709L347 0Q340 -3 321 -4T295 -3L31 709Z" />
<glyph unicode="]" horiz-adv-x="272" d="M237 -269Q212 -267 184 -267T131 -267Q111 -267 84 -267T35 -269Q35 -255 37 -246T46 -229Q87 -227 113 -223T153 -204T167 -157V610Q167 649 157 667T118 693T35 704Q35 715 37 725T46 742Q75 741 95 741T142 740Q162
740 186 740T237 742V-269Z" />
<glyph unicode="^" horiz-adv-x="550" d="M276 644Q221 578 167 510T69 383Q58 393 52 403T42 430L248 685Q259 692 274 694T303 694Q330 653 366 601T439 497T507 404Q498 397 482 394T451 394L276 644Z" />
<glyph unicode="_" horiz-adv-x="550" d="M32 -143Q32 -127 34 -115T44 -92H518Q518 -102 515 -118T506 -142Q451 -141 413 -141T340 -141T263 -141Q226 -141 192 -141T120 -142T32 -143Z" />
<glyph unicode="`" horiz-adv-x="300" d="M193 535Q159 589 129 629T66 704Q86 714 111 715T162 712Q175 669 192 626T233 537Q224 533 214 533T193 535Z" />
<glyph unicode="a" horiz-adv-x="498" d="M343 -9Q332 -4 326 9T319 50Q319 59 320 71T324 94H326Q323 78 313 60T285 27Q268 12 242 3T179 -7Q116 -7 83 21T50 99Q50 138 68 165T116 211T180 241T248 258T306 268Q306 309 305 332T299 368T285 392Q273 407 258
414T223 422Q190 422 171 402T144 354T135 306Q124 306 108 307T83 313Q85 338 84 369T78 422Q119 443 164 455T248 467Q285 467 311 457T354 429Q380 404 388 364T396 256V146Q396 118 400 102T418 78T458 68Q458 58 457 46T452 22Q427 21 397 13T343 -9ZM207
48Q229 48 252 62T290 108T306 189V227Q281 224 253 219T201 202T162 172T147 119Q147 82 165 65T207 48Z" />
<glyph unicode="b" horiz-adv-x="547" d="M161 86Q181 65 204 51T263 37Q284 37 308 45T356 75T393 134T408 232Q408 296 389 333T344 387T296 404Q267 404 239 386T193 325T175 213V54L161 86ZM258 -9Q213 -9 176 0T111 24T63 59Q74 73 79 100T85 186V575Q85
599 81 614T60 638T10 646Q10 657 12 666T19 683Q34 683 61 688T115 701T153 717Q162 714 168 705T175 677V416Q175 398 173 386T169 362L165 273L146 319Q159 351 168 368T183 393Q192 408 211 425T259 455T320 467Q379 467 420 444T484 371T507 245Q507 175 476
118T389 26T258 -9Z" />
<glyph unicode="c" horiz-adv-x="447" d="M412 78Q385 35 345 13T248 -9Q197 -9 150 17T71 96T40 227Q40 287 64 342T134 432T248 467Q294 467 332 456T399 422Q395 393 394 365T392 308Q384 304 371 302T346 300Q340 358 312 389T240 420Q191 420 162 374T133
242Q133 192 149 148T198 76T276 48Q308 48 336 63T387 106Q395 102 402 95T412 78Z" />
<glyph unicode="d" horiz-adv-x="564" d="M289 467Q318 467 339 462T386 449V372Q366 393 343 407T284 421Q263 421 239 413T191 383T154 324T139 226Q139 162 158 125T203 71T251 54Q281 54 308 72T354 133T372 245L401 139Q388 107 379 90T364 65Q355 50 336
33T289 4T227 -9Q169 -9 127 14T63 87T40 213Q40 283 71 340T158 432T289 467ZM462 136Q462 113 466 98T483 75T524 68Q524 58 523 46T518 22Q493 21 460 13T404 -9Q394 -4 387 5T379 49Q379 69 382 84T393 136H462ZM462 575V127H372V575H462ZM440 717Q449 714
455 705T462 677V538H372V575Q372 599 368 614T347 638T297 646Q297 657 299 666T306 683Q321 683 348 688T401 701T440 717Z" />
<glyph unicode="e" horiz-adv-x="474" d="M252 -9Q181 -9 134 23T64 109T40 229Q40 293 65 347T136 434T247 467Q312 467 351 439T410 364T434 260Q430 240 419 226Q402 226 368 226T291 226T203 224T118 220V271H330Q330 337 306 378T238 419Q214 419 191 405T153
354T138 250Q138 201 150 155T194 78T284 47Q317 47 349 62T406 105Q414 101 421 92T430 74Q396 29 352 10T252 -9Z" />
<glyph unicode="f" horiz-adv-x="342" d="M308 448Q308 438 306 426T298 403Q269 403 244 400T197 389V448H308ZM116 488Q116 563 146 613T225 689T325 714Q364 714 384 707T420 689Q418 658 417 629T416 572Q403 568 388 566T359 564Q359 605 341 632T281 659Q254
659 238 643T214 595T206 519V222H116V488ZM131 448V391Q106 398 80 400T36 403Q36 416 39 427T50 448H131ZM206 147Q206 104 215 82T244 51T295 40Q298 32 299 22T300 -3Q285 -2 265 -2T221 -1T174 0Q139 0 101 0T42 -3Q42 11 43 21T47 40Q74 42 89 49T110 75T116
127V227H206V147Z" />
<glyph unicode="g" horiz-adv-x="511" d="M215 -249Q154 -249 116 -234T59 -188T41 -114Q41 -76 61 -48T119 -4L169 -8Q145 -26 136 -46T127 -93Q127 -144 152 -170T239 -196Q305 -196 342 -163T380 -87Q380 -61 368 -46T320 -24T215 -17Q170 -17 142 -13T97 2T74
29T67 68Q67 101 86 132T137 189L174 163Q154 146 146 131T137 105Q137 87 146 78T187 66T282 63Q349 63 388 52T445 17T463 -48Q463 -82 445 -117T393 -182T315 -230T215 -249ZM239 139Q192 139 150 157T83 211T57 301Q57 347 77 384T137 444T237 467Q287 467
321 451T378 409T410 356T420 307Q420 261 400 223T339 162T239 139ZM251 185Q284 185 305 212T326 292Q326 345 300 383T227 422Q187 422 168 389T149 314Q149 252 176 219T251 185ZM471 396Q455 400 433 404T389 411T352 415L282 458H464Q468 445 469 429T471
396Z" />
<glyph unicode="h" horiz-adv-x="596" d="M496 127Q496 75 510 58T555 40Q558 31 559 21T560 -3Q538 -1 510 -1T451 0Q431 0 409 0T368 -1T332 -3Q332 11 333 21T337 40Q373 40 389 58T406 127V279Q406 350 380 375T313 401Q287 401 261 385T218 332T200 234V127Q200
77 215 59T269 40Q272 31 273 21T274 -3Q260 -2 240 -2T198 -1T155 0Q135 0 113 0T71 -1T36 -3Q36 11 37 21T41 40Q80 40 95 58T110 127V325L200 423Q200 411 199 396T193 364Q196 369 199 375T208 390Q225 413 262 437T353 462Q391 462 423 447T476 396T496 299V127ZM110
575Q110 599 106 614T85 638T35 646Q35 657 37 666T44 683Q59 683 86 688T140 701T178 717Q187 714 193 705T200 677V538H110V575ZM110 575H200V423L110 310V575Z" />
<glyph unicode="i" horiz-adv-x="301" d="M37 -3Q37 7 38 18T42 40Q82 40 96 58T111 127V325Q111 349 107 364T86 388T36 396Q36 407 38 416T45 433Q60 433 87 438T141 451T179 467Q188 464 194 455T201 427V127Q201 77 214 59T260 40Q263 30 264 17T265 -3Q248
-2 229 -2T191 -1T152 0Q133 0 113 0T73 -1T37 -3ZM148 580Q123 580 106 597T89 638Q89 665 107 682T148 699Q175 699 191 682T208 638Q208 615 191 598T148 580Z" />
<glyph unicode="j" horiz-adv-x="283" d="M35 -249Q28 -245 22 -238T13 -221Q52 -177 73 -142T102 -68T111 19V325Q111 349 107 364T86 388T36 396Q36 407 38 416T45 433Q60 433 87 438T141 451T179 467Q188 464 194 455T201 427V33Q201 -21 187 -65T148 -145T95
-206T35 -249ZM148 580Q123 580 106 597T89 638Q89 665 107 682T148 699Q175 699 191 682T208 638Q208 615 191 598T148 580Z" />
<glyph unicode="k" horiz-adv-x="545" d="M36 -3Q36 7 37 18T41 40Q81 40 95 58T110 127V575Q110 599 106 614T85 638T35 646Q35 657 37 666T44 683Q59 683 86 688T140 701T178 717Q187 714 193 705T200 677V127Q200 77 213 59T259 40Q262 30 263 17T264 -3Q238
-1 209 -1T151 0Q132 0 112 0T72 -1T36 -3ZM392 -9Q369 26 332 73T254 167T176 249L175 233L274 323Q309 354 323 373T338 403Q338 411 331 415T309 419Q306 429 305 439T303 460Q325 459 343 459T378 458T407 458Q424 458 449 458T501 460Q501 450 500 439T494
418Q475 418 457 412T418 393T372 357L262 257L260 289Q295 253 332 212T421 106Q441 82 455 69T486 51T525 43Q525 29 524 19T520 0Q496 0 475 -1T434 -3T392 -9Z" />
<glyph unicode="l" horiz-adv-x="299" d="M36 -3Q36 7 37 18T41 40Q81 40 95 58T110 127V575Q110 599 106 614T85 638T35 646Q35 657 37 666T44 683Q59 683 86 688T140 701T178 717Q187 714 193 705T200 677V127Q200 77 213 59T259 40Q262 30 263 17T264 -3Q247
-2 228 -2T190 -1T151 0Q132 0 112 0T72 -1T36 -3Z" />
<glyph unicode="m" horiz-adv-x="885" d="M37 -3Q37 11 38 21T42 40Q82 42 96 59T111 127V325Q111 349 106 364T85 387T36 396Q36 407 38 416T45 433Q62 434 87 439T137 452T174 467Q183 464 189 455T196 427Q196 411 195 390T188 328L178 327Q192 365 198 378T208
395Q224 418 261 442T351 467Q393 467 428 448T479 383Q483 371 483 350H480Q489 375 500 390Q517 413 554 437T643 462Q681 462 713 447T764 396T784 299V127Q784 93 790 75T810 49T844 40Q847 31 848 21T849 -3Q827 -1 799 -1T740 0Q720 0 699 0T658 -1T621 -3Q621
11 622 21T626 40Q653 42 668 49T689 75T695 127V279Q695 350 670 375T603 401Q578 401 552 385T509 332T492 234V127Q492 75 508 59T562 40Q565 31 566 21T567 -3Q542 -1 510 -1T448 0Q419 0 388 0T329 -3Q329 11 330 21T334 40Q361 42 376 49T397 75T403 127V284Q403
355 378 380T311 406Q286 406 260 390T217 337T200 239V127Q200 77 215 60T270 40Q273 31 274 21T275 -3Q258 -2 237 -2T195 -1T156 0Q139 0 117 0T74 -1T37 -3Z" />
<glyph unicode="n" horiz-adv-x="597" d="M111 214V325Q111 349 106 364T85 387T36 396Q36 407 38 416T45 433Q76 435 116 445T179 467Q188 464 194 455T201 423L111 214ZM497 127Q497 75 511 58T556 40Q559 31 560 21T561 -3Q539 -1 511 -1T452 0Q432 0 410 0T369
-1T333 -3Q333 11 334 21T338 40Q374 40 390 58T407 127V279Q407 350 381 375T314 401Q288 401 262 385T219 332T201 234V127Q201 77 216 59T270 40Q273 31 274 21T275 -3Q261 -2 241 -2T199 -1T156 0Q136 0 114 0T72 -1T37 -3Q37 11 38 21T42 40Q81 40 96 58T111
127V325L201 423Q201 411 200 396T194 364Q197 369 200 375T209 390Q226 413 263 437T354 462Q392 462 424 447T477 396T497 299V127Z" />
<glyph unicode="o" horiz-adv-x="532" d="M266 -9Q198 -9 147 20T68 103T40 229Q40 297 69 351T149 436T266 467Q337 467 387 437T465 354T492 229Q492 161 464 107T385 22T266 -9ZM274 39Q334 39 363 88T392 217Q392 279 374 324T324 394T256 419Q198 419 170
372T141 250Q141 183 157 136T204 64T274 39Z" />
<glyph unicode="p" horiz-adv-x="573" d="M37 -245Q37 -231 38 -221T42 -202Q69 -200 84 -193T105 -167T111 -115V325Q111 349 106 364T85 387T36 396Q36 407 38 416T45 433Q76 435 116 445T179 467Q188 464 194 455T201 423Q201 400 195 380T177 325L201 306V-95Q201
-138 210 -160T239 -191T290 -202Q293 -210 294 -220T295 -245Q280 -244 260 -244T216 -243T169 -242Q134 -242 96 -242T37 -245ZM284 -9Q256 -9 235 -4T187 9V86Q207 65 230 51T289 37Q310 37 334 45T382 75T419 134T434 232Q434 285 420 323T380 383T322 404Q293
404 265 386T219 325T201 213L172 319Q185 351 194 368T209 393Q218 408 237 425T285 455T346 467Q405 467 446 444T510 374T533 254Q533 180 502 120T415 26T284 -9Z" />
<glyph unicode="q" horiz-adv-x="546" d="M284 467Q352 467 401 449T482 400L372 386Q361 398 337 409T288 421Q223 421 181 371T139 227Q139 165 157 128T204 76T261 60Q284 60 310 76T354 130T372 233L392 137Q386 118 377 97T358 63Q338 37 301 18T224 -1Q176
-1 134 23T66 95T40 214Q40 282 70 339T156 432T284 467ZM293 -202Q325 -200 342 -193T365 -167T372 -115V20Q372 45 376 71T390 134L372 137V400H482Q476 390 472 376T465 342T462 291V-115Q462 -148 468 -166T489 -192T531 -202Q534 -211 535 -221T536 -245Q517
-243 481 -243T412 -242Q391 -242 369 -242T326 -243T288 -245Q288 -231 289 -221T293 -202Z" />
<glyph unicode="r" horiz-adv-x="419" d="M201 147Q201 104 210 82T239 51T290 40Q293 32 294 22T295 -3Q280 -2 260 -2T216 -1T169 0Q134 0 96 0T37 -3Q37 11 38 21T42 40Q69 42 84 49T105 75T111 127V227H201V147ZM201 293V214H111V325L201 423Q201 389 195
362T184 307L201 293ZM179 301Q190 329 196 347T209 377Q231 412 261 435T330 458Q368 458 399 434Q397 418 395 397T393 355T392 316Q383 313 368 310T335 307Q333 355 320 370T286 385Q269 385 249 366T215 314T201 243L179 301ZM111 214V325Q111 349 106 364T85
387T36 396Q36 407 38 416T45 433Q76 435 116 445T179 467Q188 464 194 455T201 423L111 214Z" />
<glyph unicode="s" horiz-adv-x="428" d="M355 432Q354 408 354 381T357 328Q347 322 334 319T307 316Q305 344 291 369T252 410T195 426Q164 426 146 411T127 371Q127 354 134 341T167 314T246 278Q300 258 331 238T375 193T388 132Q388 90 364 58T299 9T205
-9Q145 -9 110 0T40 28Q42 44 42 67T43 113T41 152Q49 158 63 160T93 163Q101 100 132 69T215 38Q256 38 278 56T301 102Q301 120 293 133T261 159T193 190Q139 212 107 231T60 276T45 342Q45 374 61 397T102 436T157 459T211 467Q256 467 290 458T355 432Z" />
<glyph unicode="t" horiz-adv-x="351" d="M208 -9Q149 -9 121 21T92 120V391Q77 396 61 399T20 404Q20 417 22 426T29 448H92V580Q112 585 131 596T166 620Q176 616 179 608T182 568V448H312Q312 438 310 427T303 404Q267 403 237 400T182 391V141Q182 108 189
87T209 55T240 45Q261 45 276 51T306 69Q319 54 321 36Q305 17 273 4T208 -9Z" />
<glyph unicode="u" horiz-adv-x="564" d="M225 -4Q158 -4 120 35T82 174V325Q82 360 72 377T16 396Q16 407 17 415T23 433Q54 435 90 445T150 467Q159 464 165 455T172 423V196Q172 129 190 93T255 57Q305 57 338 99T372 228V330Q372 365 360 382T297 401Q297
412 298 420T304 438Q343 440 380 448T440 467Q449 464 455 455T462 423V133L384 96Q379 83 370 71T350 47Q324 21 295 9T225 -4ZM404 -9Q394 -4 387 5T379 49Q379 60 380 80T389 136H462Q462 113 466 98T483 75T524 68Q524 58 523 46T518 22Q493 21 460 13T404
-9Z" />
<glyph unicode="v" horiz-adv-x="528" d="M243 -9Q235 11 219 49T182 135T141 227T105 307T83 355Q70 382 61 394T44 412T21 418Q17 431 16 439T15 461Q36 460 62 459T120 458Q141 458 163 458T206 459T243 461Q243 450 241 440T236 420Q186 416 177 404T187 351Q194
336 207 306T236 236T268 158T296 86H285Q311 151 332 203T371 300Q397 365 387 390T338 419Q333 429 330 440T327 461Q347 460 372 459T420 458Q443 458 469 459T513 461Q513 448 511 438T504 418Q488 415 476 404T453 371T424 309L289 0Q280 -4 268 -6T243 -9Z"
/>
<glyph unicode="w" horiz-adv-x="774" d="M215 -9Q198 39 182 85T148 177T113 268T77 358Q66 386 55 398T21 417Q17 427 16 439T15 460Q35 459 57 459T113 458Q146 458 172 459T223 461Q223 451 222 438T218 417Q190 414 179 407T167 388T175 357Q198 299 223
230T268 102L255 101L393 458Q401 460 412 461T433 462Q466 386 505 290T582 99H568L631 288Q647 337 646 363T630 402T591 417Q587 428 585 439T582 461Q601 460 625 459T671 458Q698 458 720 459T759 461Q759 448 758 438T751 417Q736 413 726 403T705 366T677
291L576 0Q570 -3 563 -5T548 -8T530 -9Q507 51 481 114T428 240T377 357L408 374L259 0Q254 -3 248 -5T234 -8T215 -9Z" />
<glyph unicode="x" horiz-adv-x="521" d="M252 198L203 126Q172 80 177 60T212 40Q215 33 216 21T218 -2Q190 0 159 0T113 0Q102 0 82 0T30 -2Q30 9 31 20T36 40Q54 41 70 48T104 75T148 129L221 231L252 198ZM302 102Q289 123 273 146T240 194L225 216Q203 248
181 278T142 331Q114 369 98 387T71 412T44 420Q40 428 39 438T37 460Q59 459 86 459T142 458Q171 458 201 458T257 460Q257 450 256 439T252 420Q217 419 212 404T237 346Q246 334 259 316T289 276L301 260Q327 225 354 188T401 122Q423 91 437 73T462 48T487
40Q491 30 491 21T492 -2Q461 0 437 0T387 0Q374 0 360 0T332 0T302 0T272 -2Q272 11 272 21T276 40Q311 41 318 54T302 102ZM267 261L322 346Q348 386 346 402T311 420Q307 429 306 439T305 460Q324 459 344 459T394 458Q424 458 443 458T478 460Q478 450 476
439T472 420Q457 419 445 414T420 395T385 351L297 227L267 261Z" />
<glyph unicode="y" horiz-adv-x="541" d="M379 298Q405 362 392 385T334 417Q330 428 329 438T327 460Q350 459 374 459T426 458Q454 458 479 458T526 460Q526 450 526 439T520 417Q502 413 490 403T466 372T439 313L292 -37Q264 -105 242 -147T200 -211T161 -241T118
-249Q88 -249 71 -241T43 -226Q39 -211 40 -189T44 -153Q61 -156 77 -157T108 -159Q137 -159 163 -145T209 -100Q223 -79 251 -18T310 124L379 298ZM262 -21Q238 32 212 90T161 203T119 294Q96 344 81 369T52 404T21 417Q18 426 17 437T15 460Q44 459 73 459T128
458Q154 458 192 458T261 460Q261 447 260 437T254 417Q200 408 192 386T211 307Q225 278 243 238T278 157T307 85L262 -21Z" />
<glyph unicode="z" horiz-adv-x="501" d="M67 -2Q60 5 56 15T51 38Q72 67 101 108T164 196T228 287T285 368T323 426L343 414H223Q187 414 166 406T134 375T112 308Q100 308 86 310T60 316Q63 349 65 386T67 461Q88 460 119 460T185 459T250 458Q280 458 313 458T377
459T427 461Q434 453 437 441T440 418Q414 381 377 329T300 222T224 116T161 33L153 45H297Q333 45 353 53T382 84T395 156Q407 156 420 155T448 150Q448 134 449 110T451 60T456 17Q447 -2 424 -2Q399 -1 375 -1T320 -1T245 0Q179 0 137 0T67 -2Z" />
<glyph unicode="{" horiz-adv-x="327" d="M286 -271Q235 -255 203 -233T154 -183T131 -126T124 -63Q124 -25 128 12T133 84Q133 133 115 171T35 228Q35 237 35 244T40 260Q98 280 116 315T135 394Q135 430 129 470T123 549Q123 578 129 605T152 658T198 704T277
741Q282 734 284 728T286 714Q235 697 218 665T200 591Q200 546 211 496T223 399Q224 365 214 335T177 282T96 246Q148 233 175 209T213 154T224 86Q224 37 214 -14T204 -113Q204 -156 222 -190T292 -242Q292 -252 292 -258T286 -271Z" />
<glyph unicode="|" horiz-adv-x="170" d="M60 -241V701Q71 708 83 710T110 712Q110 655 110 578T110 413T109 234Q109 145 109 61T110 -97T110 -230Q103 -234 87 -237T60 -241Z" />
<glyph unicode="}" horiz-adv-x="327" d="M41 -271Q37 -265 36 -259T35 -242Q88 -225 105 -191T123 -113Q123 -66 113 -15T103 86Q103 122 113 153T152 209T231 246Q179 259 151 281T114 334T104 399Q105 446 116 496T127 591Q127 632 110 664T41 714Q41 721 43
727T50 741Q98 725 128 704T175 658T197 606T204 549Q204 510 198 470T192 394Q192 350 210 315T287 260Q291 251 291 244T292 228Q231 209 213 171T194 84Q194 50 198 13T203 -63Q203 -95 197 -125T173 -183T124 -232T41 -271Z" />
<glyph unicode="~" horiz-adv-x="550" d="M68 195Q58 200 53 205T46 221Q84 276 118 296T184 317Q210 317 234 309T283 289T331 269T380 260Q403 260 425 270T473 305Q483 304 490 302T504 292Q479 256 456 236T411 207T371 198Q346 198 323 207T276 229T230 250T180
260Q155 260 128 246T68 195Z" />
<glyph unicode="&#xa0;" horiz-adv-x="200" />
<glyph unicode="&#xa1;" horiz-adv-x="411" d="M147 -224Q153 -163 160 -86T172 72T181 228Q190 232 201 233T226 234Q231 138 237 61T250 -84T266 -222Q252 -225 233 -230T195 -242T165 -255Q154 -251 150 -244T147 -224ZM145 409Q145 439 163 453T204 467Q231
467 246 452T261 414Q261 391 244 374T200 357Q174 357 160 374T145 409Z" />
<glyph unicode="&#xa2;" horiz-adv-x="447" d="M412 78Q385 35 345 13T248 -9Q197 -9 150 17T71 96T40 227Q40 287 64 342T134 432T248 467Q294 467 332 456T399 422Q395 393 394 365T392 308Q384 304 371 302T346 300Q340 358 312 389T240 420Q191 420 162 374T133
242Q133 192 149 148T198 76T276 48Q308 48 336 63T387 106Q395 102 402 95T412 78ZM277 -141Q266 -141 250 -138T227 -130V612Q242 612 254 610T277 601L275 439V15L277 -141Z" />
<glyph unicode="&#xa3;" horiz-adv-x="557" d="M478 100Q489 99 498 94T516 80Q491 61 465 36T426 -9Q410 -9 397 -7T370 2Q348 12 332 24T293 47T230 57Q191 57 158 42T90 -8Q79 -3 71 4T56 22Q113 76 144 124T176 238Q176 274 166 302T143 358T120 417T110 494Q110
543 131 586T194 657T296 685Q332 685 358 682T406 670T450 650Q447 619 448 588T451 518Q437 511 424 510T397 509Q393 578 365 608T284 638Q247 638 221 608T194 530Q194 494 204 468T228 418T251 369T262 308Q262 279 257 251T239 195T207 138T161 78L156 82Q184
104 205 115T246 131T287 135Q323 135 350 122T400 96T440 83Q448 83 458 87T478 100ZM233 290Q192 290 162 290T108 289T64 288Q64 304 66 313T75 334H378Q378 319 376 310T368 289Q335 290 305 290T233 290Z" />
<glyph unicode="&#xa4;" horiz-adv-x="527" d="M467 77Q461 70 452 64T427 57L361 122L392 150L467 77ZM263 75Q209 75 168 100T103 168T80 257Q80 310 106 349T173 409T263 431Q312 431 352 409T416 347T441 257Q441 210 424 176T380 119T322 86T263 75ZM368
386L420 439Q433 436 441 432T457 418L397 358L368 386ZM60 416Q67 423 76 428T99 435L152 383L123 353L60 416ZM254 391Q202 391 169 356T136 264Q136 229 153 196T201 140T269 118Q322 118 354 154T386 249Q386 284 369 316T322 370T254 391ZM165 118L106 58Q91
59 83 62T66 76L132 145L165 118Z" />
<glyph unicode="&#xa5;" horiz-adv-x="630" d="M365 264V163Q365 110 370 86T391 53T442 40Q445 31 446 20T448 -3Q415 -2 382 -1T321 0Q299 0 273 0T223 -1T185 -2Q185 9 186 20T191 40Q227 43 244 50T266 80T271 150V264H365ZM357 244H279L105 578Q89 609 74
622T31 637Q27 648 26 658T25 678Q39 678 56 678T91 677T129 676Q148 676 173 676T223 676T263 678Q263 667 262 659T258 639Q219 635 214 618T230 557Q257 505 288 440T351 305H343Q375 376 403 436T455 542Q482 595 475 613T428 637Q425 648 423 657T421 678Q439
677 468 677T519 676Q542 676 565 676T605 678Q605 668 604 659T601 639Q574 632 550 607T500 531L357 244ZM533 331H369Q369 344 372 356T379 378H513L533 331ZM541 206H360Q360 217 363 230T371 253H541V206ZM608 253H788Q788 240 785 228T776 206H608V253ZM641
378H790Q790 363 787 353T779 331H621L641 378Z" />
<glyph unicode="&#xa6;" horiz-adv-x="170" d="M60 -241V162Q71 169 83 171T110 173Q109 123 109 72T108 -29Q108 -79 108 -129T110 -230Q103 -234 87 -237T60 -241ZM60 329V701Q71 708 83 710T110 712Q109 666 109 620T108 527Q108 481 108 434T110 340Q103 336
87 333T60 329Z" />
<glyph unicode="&#xa7;" horiz-adv-x="528" d="M257 114Q217 134 192 152T152 188T133 226T127 266Q127 296 139 319T175 358T235 379L186 413Q156 404 133 388T94 348T70 298T61 241Q61 191 76 154T125 85T217 24Q275 -5 302 -26T339 -67T348 -115Q348 -152 325
-174T261 -196Q236 -196 215 -185T179 -143T158 -50Q146 -50 132 -51T107 -56Q110 -89 110 -122T108 -191Q129 -209 161 -225T255 -242Q313 -242 348 -220T399 -162T416 -84Q416 -43 403 -10T355 54T257 114ZM315 62Q351 71 379 88T426 130T456 184T466 246Q466
300 449 336T391 402T283 461Q232 484 208 503T176 541T168 585Q168 616 191 642T255 668Q285 668 306 645T340 547Q355 547 366 549T391 555Q388 584 388 615T390 672Q370 688 339 701T257 714Q210 714 175 692T120 636T101 561Q101 527 111 493T152 428T244 369Q293
347 323 328T370 290T392 253T398 214Q398 189 386 165T345 123T264 102L315 62Z" />
<glyph unicode="&#xa8;" horiz-adv-x="300" d="M505 532Q476 532 461 548T446 589Q446 613 461 626T502 640Q527 640 543 626T559 589Q559 568 547 550T505 532ZM309 532Q284 532 268 546T252 583Q252 605 265 622T307 640Q337 640 350 624T364 585Q364 562 348
547T309 532Z" />
<glyph unicode="&#xa9;" horiz-adv-x="802" d="M401 571Q472 571 534 545T642 473T715 364T742 230Q742 159 716 97T643 -11T534 -84T401 -111Q329 -111 267 -85T159 -13T86 96T60 230Q60 302 86 364T158 472T267 545T401 571ZM410 453Q457 453 488 443T554 410Q550
383 549 357T547 303Q540 299 527 298T504 296Q502 323 492 349T458 391T392 408Q354 408 332 385T299 324T289 239Q289 193 302 152T344 84T419 57Q448 57 479 67T539 108Q545 103 549 98T556 84Q530 46 491 26T393 5Q345 5 300 30T226 104T197 228Q197 296 224
346T299 425T410 453ZM401 528Q338 528 284 506T190 442T126 347T103 230Q103 146 142 79T249 -28T401 -67Q464 -67 518 -45T613 18T676 113T699 230Q699 293 677 347T613 442T518 505T401 528Z" />
<glyph unicode="&#xaa;" horiz-adv-x="435" d="M285 359Q275 362 268 370T261 396Q261 407 262 415T265 431Q261 420 254 409T235 386Q222 375 202 368T155 360Q50 360 50 444Q50 486 77 511T152 551T255 574Q255 615 252 630T238 656Q221 678 192 678Q171 678
159 665T140 631T132 591Q119 591 104 592T78 598Q80 618 79 640T74 680Q105 697 141 707T216 717Q252 717 274 709T312 685Q330 666 337 641T345 561V481Q345 450 352 438T390 425Q391 415 390 404T384 384Q362 383 335 377T285 359ZM183 414Q207 414 231 437T255
514V537Q227 533 202 526T160 504T143 461Q143 436 155 425T183 414Z" />
<glyph unicode="&#xab;" horiz-adv-x="510" d="M215 417Q227 416 235 412T250 401Q233 380 213 355T176 305T146 264Q168 225 193 188T243 117Q242 107 237 98T223 83Q179 128 140 165T60 240Q60 249 61 257T66 274Q108 311 143 345T215 417ZM368 413Q378 412
386 409T402 398Q379 365 358 332T316 267Q335 230 356 191T398 116Q395 106 390 100T375 88Q335 135 305 169T239 240Q239 251 241 259T245 273Q280 311 309 344T368 413Z" />
<glyph unicode="&#xac;" horiz-adv-x="550" d="M497 348L487 298Q377 298 273 298T53 297Q53 308 56 324T63 348H497ZM446 338L497 348V116Q486 109 473 106T446 102V338Z" />
<glyph unicode="&#xad;" horiz-adv-x="419" d="M359 294Q359 278 356 261T346 229Q319 229 281 229T202 228T124 227T60 225Q60 242 64 261T76 294H359Z" />
<glyph unicode="&#xae;" horiz-adv-x="495" d="M248 398Q196 398 153 422T85 489T60 585Q60 638 85 680T152 748T248 773Q301 773 343 748T410 681T435 585Q435 532 410 490T343 423T248 398ZM248 434Q292 434 326 454T379 508T399 585Q399 628 379 662T325 717T248
737Q205 737 171 717T116 663T96 585Q96 543 116 509T170 454T248 434ZM294 484Q285 504 274 523T247 559L224 560V485Q205 481 186 485V682Q204 687 222 689T253 691Q291 691 307 677T324 633Q324 609 310 586T256 563L276 569Q293 552 307 532T332 489Q316 481
294 484ZM243 584Q263 584 274 593T286 624Q286 648 275 657T248 666Q242 666 236 665T224 662V585Q229 584 234 584T243 584Z" />
<glyph unicode="&#xaf;" horiz-adv-x="300" d="M224 585Q224 591 226 606T233 631H588Q588 621 586 610T579 588Q563 588 511 588T385 588T224 585Z" />
<glyph unicode="&#xb0;" horiz-adv-x="384" d="M190 700Q255 700 289 666T324 579Q324 527 288 491T190 454Q129 454 95 489T60 578Q60 613 76 640T122 684T190 700ZM184 662Q161 662 146 643T130 597Q130 551 152 523T204 494Q225 494 239 512T254 568Q254 612
235 637T184 662Z" />
<glyph unicode="&#xb1;" horiz-adv-x="550" d="M53 41Q53 52 56 67T63 90H497Q497 75 496 64T487 42Q466 42 444 42T396 43T344 43T285 43Q222 43 170 43T53 41ZM91 274Q91 285 94 300T101 323H459Q459 308 458 297T450 275Q418 276 395 276T345 275T277 275Q246
275 201 275T91 274ZM250 123Q250 153 250 175T251 217T252 256T252 298Q252 323 252 345T252 396T251 473Q262 480 273 481T300 483V133Q296 130 287 128T268 124T250 123Z" />
<glyph unicode="&#xb2;" horiz-adv-x="370" d="M49 408Q44 416 42 424T40 441Q72 472 101 497T148 539Q183 571 199 598T215 662Q215 690 200 707T164 724Q139 724 129 702T111 625Q100 625 86 626T62 631Q64 655 64 683T61 734Q92 752 120 759T189 767Q213 767
238 759T279 730T296 676Q296 637 281 611T233 556Q215 540 193 520T145 478H225Q249 478 264 490T280 534Q291 534 300 533T317 530Q317 504 318 480T325 428Q321 420 314 414T293 408Q271 408 236 409T165 410Q128 410 97 409T49 408Z" />
<glyph unicode="&#xb3;" horiz-adv-x="369" d="M137 288Q92 288 68 300T35 320Q40 330 45 336T58 347Q65 341 83 335T131 328Q155 328 180 340T222 378T239 438Q239 476 217 502T150 529Q143 529 138 529T128 526Q122 531 118 536T111 552Q153 605 179 638T226
698H164Q131 698 119 687T91 638Q82 638 72 640T54 647Q58 678 59 706T61 759Q78 758 108 758T184 758Q228 758 256 758T298 759Q303 750 304 743T306 724Q281 697 250 659T187 579Q222 582 253 568T304 523T324 448Q324 405 302 369T237 310T137 288Z" />
<glyph unicode="&#xb4;" horiz-adv-x="300" d="M102 531Q93 530 84 531T66 537Q90 587 105 629T131 709Q153 717 171 719T205 721Q214 720 221 718T234 714Q201 676 166 627T102 531Z" />
<glyph unicode="&#xb5;" horiz-adv-x="589" d="M170 107V-40Q170 -84 173 -114T184 -167Q160 -186 147 -201T113 -242Q106 -239 101 -233T93 -220Q95 -205 97 -188T100 -147T102 -85V180L170 107ZM423 -9Q414 -6 406 4T398 40Q398 53 399 66T402 95T409 136H482Q482
113 486 98T504 74T549 65Q549 55 548 44T543 22Q528 22 505 18T458 7T423 -9ZM392 330Q392 365 380 382T317 401Q317 412 318 420T324 438Q363 440 400 448T460 467Q469 464 475 455T482 423V133L403 96Q393 70 370 47Q344 21 315 9T249 -4Q179 -4 141 34T102
174V325Q102 360 92 377T36 396Q36 407 37 415T43 433Q74 435 110 445T170 467Q179 464 185 455T192 423V196Q192 146 201 115T229 71T282 57Q309 57 334 75T376 131T392 228V330Z" />
<glyph unicode="&#xb6;" horiz-adv-x="540" d="M398 -249V648L412 634Q381 639 356 640T301 641Q237 641 199 628T144 584T127 496Q127 447 147 416T199 370T268 355H301V321Q288 318 278 317T254 316Q187 316 138 332T63 387T36 493Q36 546 61 587T142 653T287
678Q334 678 368 677T439 676Q456 676 478 676T521 678Q521 667 520 657T515 636Q486 635 472 626T453 599T448 550V-239Q436 -245 424 -247T398 -249ZM287 -249V652L337 656V-239Q324 -245 313 -247T287 -249Z" />
<glyph unicode="&#xb7;" horiz-adv-x="236" d="M117 204Q90 204 75 219T60 257Q60 280 77 297T121 314Q147 314 161 297T176 262Q176 232 158 218T117 204Z" />
<glyph unicode="&#xb8;" horiz-adv-x="300" d="M91 -242Q87 -235 86 -226T84 -210Q114 -210 138 -196T163 -155Q163 -130 145 -116T98 -101Q91 -95 86 -86T80 -63L130 16H180L132 -50Q172 -57 195 -81T219 -141Q219 -174 198 -196T147 -230T91 -242Z" />
<glyph unicode="&#xb9;" horiz-adv-x="308" d="M54 407Q54 418 55 428T58 448Q88 448 100 462T113 509V659Q113 689 101 704T58 719Q56 729 55 739T54 761Q65 760 83 760T122 759T155 758Q168 758 186 758T222 759T254 761Q254 750 253 740T250 719Q220 719 208
704T195 659V509Q195 477 207 463T250 448Q254 429 254 407Q239 408 222 408T187 409T155 410Q140 410 123 410T88 409T54 407Z" />
<glyph unicode="&#xba;" horiz-adv-x="418" d="M132 554Q132 505 142 471T171 417T217 398Q252 398 270 433T289 525Q289 597 264 637T202 677Q167 677 150 643T132 554ZM40 535Q40 590 62 630T123 694T210 717Q293 717 336 668T379 539Q379 458 333 408T208 357Q129
357 85 405T40 535Z" />
<glyph unicode="&#xbb;" horiz-adv-x="518" d="M147 91Q138 96 132 104T120 119Q140 150 159 182T198 249Q182 279 156 322T108 400Q116 407 126 410T147 414Q167 392 187 370T229 327T273 284Q276 277 277 270T278 253Q244 213 212 173T147 91ZM302 87Q294 92
288 100T279 116Q304 148 327 180T373 249Q360 270 342 297T303 352T265 404Q273 411 283 414T302 418Q326 395 350 373T400 329T452 285Q456 278 457 270T458 253Q418 213 379 171T302 87Z" />
<glyph unicode="&#xbc;" horiz-adv-x="796" d="M210 730Q224 726 228 718T233 690V398Q233 365 239 349T261 328T308 320Q311 311 312 301T313 279Q293 280 271 280T227 280T183 281Q152 281 117 281T53 279Q53 290 54 300T57 320Q88 322 106 327T133 349T142
398V589Q142 617 136 630T109 649T40 654Q40 665 41 675T45 696Q95 700 135 708T210 730ZM193 -8Q179 -3 169 4T153 18L665 714Q676 711 687 704T705 688L193 -8ZM531 -3Q531 8 532 23T535 42Q570 44 585 56T600 111V375H627L478 171L469 191H729Q741 191 748 189T761
181Q754 168 750 154T743 119Q656 119 597 118T498 116T428 111Q410 131 410 160Q444 202 482 249T558 347T630 449Q639 450 647 450T665 448T682 443V111Q682 80 687 66T703 48T732 42Q734 36 735 22T737 -3Q726 -2 708 -2T670 -1T635 0Q619 0 599 0T560 -1T531
-3Z" />
<glyph unicode="&#xbd;" horiz-adv-x="927" d="M210 730Q224 726 228 718T233 690V398Q233 365 239 349T261 328T308 320Q311 311 312 301T313 279Q293 280 271 280T227 280T183 281Q152 281 117 281T53 279Q53 290 54 300T57 320Q88 322 106 327T133 349T142
398V589Q142 617 136 630T109 649T40 654Q40 665 41 675T45 696Q95 700 135 708T210 730ZM193 -8Q179 -3 169 4T153 18L665 714Q676 711 687 704T705 688L193 -8ZM578 -2Q565 11 565 38Q602 83 627 112T673 165T719 217Q745 246 757 271T769 326Q769 361 753 379T704
397Q682 397 669 387T647 355T633 294Q618 294 605 295T580 301Q584 329 584 358T579 418Q613 435 647 442T720 449Q771 449 803 438T852 404T868 346Q868 307 847 275T780 198Q751 170 731 151T694 112T652 64L655 87H764Q791 87 805 91T827 110T838 153Q850 154
864 153T889 146Q886 101 887 73T895 20Q891 9 881 4T859 -2Q855 -2 840 -2T799 -1T739 0Q704 0 670 0T578 -2Z" />
<glyph unicode="&#xbe;" horiz-adv-x="808" d="M148 274Q99 274 71 284T30 306Q31 316 35 326T46 343Q59 334 81 328T131 321Q181 321 213 343T246 406Q246 442 220 461T158 480Q144 480 132 476Q126 483 121 494T116 514Q151 552 185 591T242 660L266 644H155Q123
644 110 635T83 592Q72 592 60 594T40 603Q46 632 47 663T48 727Q69 726 106 725T182 724Q235 724 268 725T319 727Q325 719 328 708T331 686Q301 652 263 607T192 525L177 541Q219 546 257 536T320 498T345 423Q345 356 292 315T148 274ZM205 -8Q191 -3 181 4T165
18L677 714Q688 711 699 704T717 688L205 -8ZM543 -3Q543 8 544 23T547 42Q582 44 597 56T612 111V375H639L490 171L481 191H741Q753 191 760 189T773 181Q766 168 762 154T755 119Q668 119 609 118T510 116T440 111Q422 131 422 160Q456 202 494 249T570 347T642
449Q651 450 659 450T677 448T694 443V111Q694 80 699 66T715 48T744 42Q746 36 747 22T749 -3Q738 -2 720 -2T682 -1T647 0Q631 0 611 0T572 -1T543 -3Z" />
<glyph unicode="&#xbf;" horiz-adv-x="537" d="M263 -256Q192 -256 147 -223T102 -128Q102 -89 116 -58T152 0T196 54T232 114T247 189Q247 201 244 222T236 257Q245 262 253 263T272 265Q288 254 303 220T318 143Q318 103 305 74T273 22T236 -22T204 -66T191
-119Q191 -162 215 -188T272 -215Q297 -215 314 -202T343 -161T360 -86Q374 -86 390 -88T417 -96Q414 -131 414 -156T417 -213Q392 -229 356 -242T263 -256ZM265 468Q297 468 315 450T333 404Q333 376 313 356T260 336Q229 336 212 356T194 398Q194 434 215 451T265
468Z" />
<glyph unicode="&#xc0;" horiz-adv-x="704" d="M358 682L596 136Q613 99 624 79T646 51T673 40Q677 27 678 18T679 -3Q669 -2 648 -2T604 -1T565 0Q553 0 537 0T504 -1T474 -2T452 -3Q452 9 453 20T459 40Q500 45 507 58T495 118L356 443Q343 474 333 498T309
559H314Q302 521 293 495T274 444L160 147Q138 88 146 66T196 40Q200 31 201 20T203 -3Q192 -2 176 -2T143 -1T108 0Q83 0 61 -1T25 -3Q25 7 26 18T32 39Q50 43 62 53T85 85T112 147L319 678Q329 680 337 681T358 682ZM449 265L458 220Q391 220 315 219T176 216L192
265H449ZM332 732Q301 772 275 802T221 860Q238 869 262 871T311 872Q324 841 338 807T372 737Q363 733 354 733T332 732Z" />
<glyph unicode="&#xc1;" horiz-adv-x="704" d="M358 682L596 136Q613 99 624 79T646 51T673 40Q677 27 678 18T679 -3Q669 -2 648 -2T604 -1T565 0Q553 0 537 0T504 -1T474 -2T452 -3Q452 9 453 20T459 40Q500 45 507 58T495 118L356 443Q343 474 333 498T309
559H314Q302 521 293 495T274 444L160 147Q138 88 146 66T196 40Q200 31 201 20T203 -3Q192 -2 176 -2T143 -1T108 0Q83 0 61 -1T25 -3Q25 7 26 18T32 39Q50 43 62 53T85 85T112 147L319 678Q329 680 337 681T358 682ZM449 265L458 220Q391 220 315 219T176 216L192
265H449ZM346 732Q333 732 324 732T306 737Q323 772 337 806T362 871Q374 874 386 876T410 878Q436 878 457 870Q430 838 404 805T346 732Z" />
<glyph unicode="&#xc2;" horiz-adv-x="704" d="M358 682L596 136Q613 99 624 79T646 51T673 40Q677 27 678 18T679 -3Q669 -2 648 -2T604 -1T565 0Q553 0 537 0T504 -1T474 -2T452 -3Q452 9 453 20T459 40Q500 45 507 58T495 118L356 443Q343 474 333 498T309
559H314Q302 521 293 495T274 444L160 147Q138 88 146 66T196 40Q200 31 201 20T203 -3Q192 -2 176 -2T143 -1T108 0Q83 0 61 -1T25 -3Q25 7 26 18T32 39Q50 43 62 53T85 85T112 147L319 678Q329 680 337 681T358 682ZM449 265L458 220Q391 220 315 219T176 216L192
265H449ZM202 728Q194 733 191 744T186 762Q220 784 258 814T326 874Q334 876 344 877T361 878Q385 850 418 818T491 754Q486 746 477 740T457 731Q429 748 397 767T335 800Q321 794 295 780T243 752T202 728Z" />
<glyph unicode="&#xc3;" horiz-adv-x="704" d="M358 682L596 136Q613 99 624 79T646 51T673 40Q677 27 678 18T679 -3Q669 -2 648 -2T604 -1T565 0Q553 0 537 0T504 -1T474 -2T452 -3Q452 9 453 20T459 40Q500 45 507 58T495 118L356 443Q343 474 333 498T309
559H314Q302 521 293 495T274 444L160 147Q138 88 146 66T196 40Q200 31 201 20T203 -3Q192 -2 176 -2T143 -1T108 0Q83 0 61 -1T25 -3Q25 7 26 18T32 39Q50 43 62 53T85 85T112 147L319 678Q329 680 337 681T358 682ZM449 265L458 220Q391 220 315 219T176 216L192
265H449ZM396 748Q378 748 361 753T328 765T296 777T261 783Q242 783 225 775T190 751Q183 756 180 764T177 782Q206 820 234 833T288 847Q314 847 336 839T378 822T419 813Q434 813 448 819T475 839Q480 838 488 835T501 825Q479 784 452 766T396 748Z" />
<glyph unicode="&#xc4;" horiz-adv-x="704" d="M358 682L596 136Q613 99 624 79T646 51T673 40Q677 27 678 18T679 -3Q669 -2 648 -2T604 -1T565 0Q553 0 537 0T504 -1T474 -2T452 -3Q452 9 453 20T459 40Q500 45 507 58T495 118L356 443Q343 474 333 498T309
559H314Q302 521 293 495T274 444L160 147Q138 88 146 66T196 40Q200 31 201 20T203 -3Q192 -2 176 -2T143 -1T108 0Q83 0 61 -1T25 -3Q25 7 26 18T32 39Q50 43 62 53T85 85T112 147L319 678Q329 680 337 681T358 682ZM449 265L458 220Q391 220 315 219T176 216L192
265H449ZM438 732Q409 732 394 748T379 789Q379 813 394 826T435 840Q460 840 476 826T492 789Q492 768 480 750T438 732ZM242 732Q217 732 201 746T185 783Q185 805 198 822T240 840Q270 840 283 824T297 785Q297 762 281 747T242 732Z" />
<glyph unicode="&#xc5;" horiz-adv-x="704" d="M358 682L596 136Q613 99 624 79T646 51T673 40Q677 27 678 18T679 -3Q669 -2 648 -2T604 -1T565 0Q553 0 537 0T504 -1T474 -2T452 -3Q452 9 453 20T459 40Q500 45 507 58T495 118L356 443Q343 474 333 498T309
559H314Q302 521 293 495T274 444L160 147Q138 88 146 66T196 40Q200 31 201 20T203 -3Q192 -2 176 -2T143 -1T108 0Q83 0 61 -1T25 -3Q25 7 26 18T32 39Q50 43 62 53T85 85T112 147L319 678Q329 680 337 681T358 682ZM449 265L458 220Q391 220 315 219T176 216L192
265H449ZM335 723Q299 723 272 743T244 797Q244 832 272 854T342 876Q377 876 405 859T434 803Q434 769 406 746T335 723ZM344 754Q359 754 371 765T383 795Q383 812 372 830T335 848Q318 848 307 836T296 801Q296 781 308 768T344 754Z" />
<glyph unicode="&#xc6;" horiz-adv-x="911" d="M288 341H606Q646 341 668 350T698 378T707 421Q722 425 732 426T756 428Q756 418 756 399T755 357T754 317Q754 299 754 277T755 234T756 203Q743 203 732 203T710 208Q708 234 700 254T669 286T598 298Q508 298
446 298T340 296T263 293L288 341ZM461 540Q461 564 461 581T464 620T471 676H555V138Q555 96 563 76T588 51T625 45V0Q589 0 557 0T496 0T441 -1T390 -2Q390 9 391 20T397 40Q423 44 436 51T455 79T461 138V540ZM517 676Q613 676 691 676T815 678Q818 644 823
599T836 521Q831 517 824 514T808 510T791 509Q789 540 775 569T727 617T627 636H517V676ZM483 676Q472 646 465 628T448 593T422 546Q394 498 362 442T298 330T240 228T199 155Q176 111 172 87T180 53T216 38Q220 29 221 19T223 -3Q200 -1 172 -1T118 0Q102 0
84 0T51 -1T25 -3Q25 7 26 18T32 39Q48 41 62 49T95 81T140 152L374 556Q397 595 388 612T330 635Q326 644 325 655T324 678Q350 678 380 678T438 677T483 676ZM552 45H651Q714 45 746 59T795 102T826 171Q841 167 851 162T870 147Q859 113 852 73T839 -2Q808 -2
772 -2T696 -1T620 0T552 0V45Z" />
<glyph unicode="&#xc7;" horiz-adv-x="653" d="M353 -9Q260 -9 189 35T76 159T35 343Q35 429 63 493T138 600T245 664T369 685Q432 685 484 672T591 633Q584 598 582 559T580 478Q567 473 555 471T527 469Q525 540 506 578T454 630T377 644Q314 644 269 621T196
560T154 472T140 370Q140 281 170 209T258 94T395 52Q443 52 493 68T585 111Q591 106 596 97T603 80Q544 34 487 13T353 -9ZM299 -242Q295 -235 294 -226T292 -210Q322 -210 346 -196T371 -155Q371 -130 353 -116T306 -101Q299 -95 294 -86T288 -63L338 16H388L340
-50Q380 -57 403 -81T427 -141Q427 -174 406 -196T355 -230T299 -242Z" />
<glyph unicode="&#xc8;" horiz-adv-x="601" d="M56 679Q71 678 93 678T141 677T188 676T224 676V138Q224 101 231 81T258 53T315 45V0Q287 0 251 0T177 0T107 -1T56 -3Q56 11 57 21T61 40Q88 42 103 50T124 78T130 138V549Q130 583 124 601T103 627T61 636Q58
644 57 655T56 679ZM516 171Q531 167 541 162T560 147Q549 113 542 73T529 -2Q510 -1 478 -1T404 -1T315 0V45H321Q393 45 429 59T484 102T516 171ZM446 450Q445 425 445 396T444 341Q444 315 444 283T446 225Q433 225 422 226T400 230Q396 282 373 300T287 319H215V362H287Q349
362 373 378T398 443Q411 447 422 448T446 450ZM505 679Q507 657 510 628T517 571T526 521Q518 514 507 512T481 509Q479 540 465 569T417 617T317 636H203L224 676Q303 676 359 676T452 678T505 679ZM281 732Q250 772 224 802T170 860Q187 869 211 871T260 872Q273
841 287 807T321 737Q312 733 303 733T281 732Z" />
<glyph unicode="&#xc9;" horiz-adv-x="601" d="M56 679Q71 678 93 678T141 677T188 676T224 676V138Q224 101 231 81T258 53T315 45V0Q287 0 251 0T177 0T107 -1T56 -3Q56 11 57 21T61 40Q88 42 103 50T124 78T130 138V549Q130 583 124 601T103 627T61 636Q58
644 57 655T56 679ZM516 171Q531 167 541 162T560 147Q549 113 542 73T529 -2Q510 -1 478 -1T404 -1T315 0V45H321Q393 45 429 59T484 102T516 171ZM446 450Q445 425 445 396T444 341Q444 315 444 283T446 225Q433 225 422 226T400 230Q396 282 373 300T287 319H215V362H287Q349
362 373 378T398 443Q411 447 422 448T446 450ZM505 679Q507 657 510 628T517 571T526 521Q518 514 507 512T481 509Q479 540 465 569T417 617T317 636H203L224 676Q303 676 359 676T452 678T505 679ZM295 732Q282 732 273 732T255 737Q272 772 286 806T311 871Q323
874 335 876T359 878Q385 878 406 870Q379 838 353 805T295 732Z" />
<glyph unicode="&#xca;" horiz-adv-x="601" d="M56 679Q71 678 93 678T141 677T188 676T224 676V138Q224 101 231 81T258 53T315 45V0Q287 0 251 0T177 0T107 -1T56 -3Q56 11 57 21T61 40Q88 42 103 50T124 78T130 138V549Q130 583 124 601T103 627T61 636Q58
644 57 655T56 679ZM516 171Q531 167 541 162T560 147Q549 113 542 73T529 -2Q510 -1 478 -1T404 -1T315 0V45H321Q393 45 429 59T484 102T516 171ZM446 450Q445 425 445 396T444 341Q444 315 444 283T446 225Q433 225 422 226T400 230Q396 282 373 300T287 319H215V362H287Q349
362 373 378T398 443Q411 447 422 448T446 450ZM505 679Q507 657 510 628T517 571T526 521Q518 514 507 512T481 509Q479 540 465 569T417 617T317 636H203L224 676Q303 676 359 676T452 678T505 679ZM151 728Q143 733 140 744T135 762Q169 784 207 814T275 874Q283
876 293 877T310 878Q334 850 367 818T440 754Q435 746 426 740T406 731Q378 748 346 767T284 800Q270 794 244 780T192 752T151 728Z" />
<glyph unicode="&#xcb;" horiz-adv-x="601" d="M56 679Q71 678 93 678T141 677T188 676T224 676V138Q224 101 231 81T258 53T315 45V0Q287 0 251 0T177 0T107 -1T56 -3Q56 11 57 21T61 40Q88 42 103 50T124 78T130 138V549Q130 583 124 601T103 627T61 636Q58
644 57 655T56 679ZM516 171Q531 167 541 162T560 147Q549 113 542 73T529 -2Q510 -1 478 -1T404 -1T315 0V45H321Q393 45 429 59T484 102T516 171ZM446 450Q445 425 445 396T444 341Q444 315 444 283T446 225Q433 225 422 226T400 230Q396 282 373 300T287 319H215V362H287Q349
362 373 378T398 443Q411 447 422 448T446 450ZM505 679Q507 657 510 628T517 571T526 521Q518 514 507 512T481 509Q479 540 465 569T417 617T317 636H203L224 676Q303 676 359 676T452 678T505 679ZM387 732Q358 732 343 748T328 789Q328 813 343 826T384 840Q409
840 425 826T441 789Q441 768 429 750T387 732ZM191 732Q166 732 150 746T134 783Q134 805 147 822T189 840Q219 840 232 824T246 785Q246 762 230 747T191 732Z" />
<glyph unicode="&#xcc;" horiz-adv-x="354" d="M130 549Q130 583 124 601T103 627T61 636Q58 644 57 655T56 679Q75 678 94 678T135 677T177 676Q199 676 219 676T258 677T298 679Q298 666 297 655T293 636Q267 635 252 627T230 601T224 549V127Q224 94 230 76T251
50T293 40Q296 32 297 22T298 -3Q268 -1 237 -1T177 0Q148 0 115 0T56 -3Q56 11 57 21T61 40Q88 42 103 49T124 75T130 127V549ZM170 732Q139 772 113 802T59 860Q76 869 100 871T149 872Q162 841 176 807T210 737Q201 733 192 733T170 732Z" />
<glyph unicode="&#xcd;" horiz-adv-x="354" d="M130 549Q130 583 124 601T103 627T61 636Q58 644 57 655T56 679Q75 678 94 678T135 677T177 676Q199 676 219 676T258 677T298 679Q298 666 297 655T293 636Q267 635 252 627T230 601T224 549V127Q224 94 230 76T251
50T293 40Q296 32 297 22T298 -3Q268 -1 237 -1T177 0Q148 0 115 0T56 -3Q56 11 57 21T61 40Q88 42 103 49T124 75T130 127V549ZM184 732Q171 732 162 732T144 737Q161 772 175 806T200 871Q212 874 224 876T248 878Q274 878 295 870Q268 838 242 805T184 732Z"
/>
<glyph unicode="&#xce;" horiz-adv-x="354" d="M130 549Q130 583 124 601T103 627T61 636Q58 644 57 655T56 679Q75 678 94 678T135 677T177 676Q199 676 219 676T258 677T298 679Q298 666 297 655T293 636Q267 635 252 627T230 601T224 549V127Q224 94 230 76T251
50T293 40Q296 32 297 22T298 -3Q268 -1 237 -1T177 0Q148 0 115 0T56 -3Q56 11 57 21T61 40Q88 42 103 49T124 75T130 127V549ZM326 710Q316 715 310 724T302 744Q332 771 362 803T419 868Q432 870 439 871T453 873Q477 840 505 805T564 732Q559 725 549 720T528
713Q504 735 477 756T425 794Q397 774 373 753T326 710Z" />
<glyph unicode="&#xcf;" horiz-adv-x="354" d="M130 549Q130 583 124 601T103 627T61 636Q58 644 57 655T56 679Q75 678 94 678T135 677T177 676Q199 676 219 676T258 677T298 679Q298 666 297 655T293 636Q267 635 252 627T230 601T224 549V127Q224 94 230 76T251
50T293 40Q296 32 297 22T298 -3Q268 -1 237 -1T177 0Q148 0 115 0T56 -3Q56 11 57 21T61 40Q88 42 103 49T124 75T130 127V549ZM356 737Q331 737 315 751T299 785Q299 806 312 822T354 839Q384 839 397 824T411 787Q411 765 395 751T356 737ZM512 738Q483 738
468 753T453 791Q453 814 468 826T509 839Q534 839 550 826T566 791Q566 771 554 755T512 738Z" />
<glyph unicode="&#xd0;" horiz-adv-x="730" d="M56 -3Q56 11 57 21T61 40Q88 42 103 50T124 78T131 138V549Q131 583 125 601T104 627T62 636Q59 644 58 655T57 679Q73 678 97 678T148 677T197 676Q226 676 256 677T315 678Q368 678 422 671T525 644T612 588T673
495T695 355Q695 274 675 216T622 119T547 56T464 20T382 4T315 0Q287 0 251 0T177 0T107 -1T56 -3ZM315 45Q375 45 425 59T513 107T571 198T592 340Q592 421 568 478T502 571T408 623T299 640Q277 640 251 637T217 628L225 654V138Q225 101 232 81T258 53T315
45ZM49 312Q49 323 52 339T59 363H188H224H361Q361 348 359 336T351 313Q327 314 307 314T268 314T222 314H187Q164 314 145 314T103 314T49 312Z" />
<glyph unicode="&#xd1;" horiz-adv-x="742" d="M594 -6L126 605Q112 623 99 628T61 636Q58 647 57 659T56 679Q66 678 78 678T104 677T130 676Q149 676 166 677T197 679L596 150L594 -6ZM56 -3Q56 10 57 20T61 40Q88 40 103 53T124 98T130 187V610H181V187Q181
131 187 99T208 53T250 40Q253 31 254 21T255 -3Q240 -2 223 -2T188 -1T156 0Q142 0 123 0T87 -1T56 -3ZM594 -6L586 94V494Q586 549 580 579T559 623T517 636Q514 653 513 661T512 679Q527 678 543 678T575 677T606 676Q627 676 654 677T701 679Q701 669 700 658T696
636Q674 636 661 623T643 580T637 494V0Q629 -3 617 -4T594 -6ZM433 748Q415 748 398 753T365 765T333 777T298 783Q279 783 262 775T227 751Q220 756 217 764T214 782Q243 820 271 833T325 847Q351 847 373 839T415 822T456 813Q471 813 485 819T512 839Q517 838
525 835T538 825Q516 784 489 766T433 748Z" />
<glyph unicode="&#xd2;" horiz-adv-x="731" d="M365 -9Q266 -9 192 37T77 162T35 340Q35 417 60 480T131 589T236 660T365 685Q461 685 535 642T653 521T696 340Q696 266 672 203T604 92T499 18T365 -9ZM385 40Q450 40 496 76T568 175T593 314Q593 404 561 477T472
594T344 637Q285 637 239 604T165 509T138 367Q138 304 154 245T201 140T279 67T385 40ZM359 732Q328 772 302 802T248 860Q265 869 289 871T338 872Q351 841 365 807T399 737Q390 733 381 733T359 732Z" />
<glyph unicode="&#xd3;" horiz-adv-x="731" d="M365 -9Q266 -9 192 37T77 162T35 340Q35 417 60 480T131 589T236 660T365 685Q461 685 535 642T653 521T696 340Q696 266 672 203T604 92T499 18T365 -9ZM385 40Q450 40 496 76T568 175T593 314Q593 404 561 477T472
594T344 637Q285 637 239 604T165 509T138 367Q138 304 154 245T201 140T279 67T385 40ZM373 732Q360 732 351 732T333 737Q350 772 364 806T389 871Q401 874 413 876T437 878Q463 878 484 870Q457 838 431 805T373 732Z" />
<glyph unicode="&#xd4;" horiz-adv-x="731" d="M365 -9Q266 -9 192 37T77 162T35 340Q35 417 60 480T131 589T236 660T365 685Q461 685 535 642T653 521T696 340Q696 266 672 203T604 92T499 18T365 -9ZM385 40Q450 40 496 76T568 175T593 314Q593 404 561 477T472
594T344 637Q285 637 239 604T165 509T138 367Q138 304 154 245T201 140T279 67T385 40ZM229 728Q221 733 218 744T213 762Q247 784 285 814T353 874Q361 876 371 877T388 878Q412 850 445 818T518 754Q513 746 504 740T484 731Q456 748 424 767T362 800Q348 794
322 780T270 752T229 728Z" />
<glyph unicode="&#xd5;" horiz-adv-x="731" d="M365 -9Q266 -9 192 37T77 162T35 340Q35 417 60 480T131 589T236 660T365 685Q461 685 535 642T653 521T696 340Q696 266 672 203T604 92T499 18T365 -9ZM385 40Q450 40 496 76T568 175T593 314Q593 404 561 477T472
594T344 637Q285 637 239 604T165 509T138 367Q138 304 154 245T201 140T279 67T385 40ZM423 748Q405 748 388 753T355 765T323 777T288 783Q269 783 252 775T217 751Q210 756 207 764T204 782Q233 820 261 833T315 847Q341 847 363 839T405 822T446 813Q461 813
475 819T502 839Q507 838 515 835T528 825Q506 784 479 766T423 748Z" />
<glyph unicode="&#xd6;" horiz-adv-x="731" d="M365 -9Q266 -9 192 37T77 162T35 340Q35 417 60 480T131 589T236 660T365 685Q461 685 535 642T653 521T696 340Q696 266 672 203T604 92T499 18T365 -9ZM385 40Q450 40 496 76T568 175T593 314Q593 404 561 477T472
594T344 637Q285 637 239 604T165 509T138 367Q138 304 154 245T201 140T279 67T385 40ZM465 732Q436 732 421 748T406 789Q406 813 421 826T462 840Q487 840 503 826T519 789Q519 768 507 750T465 732ZM269 732Q244 732 228 746T212 783Q212 805 225 822T267 840Q297
840 310 824T324 785Q324 762 308 747T269 732Z" />
<glyph unicode="&#xd7;" horiz-adv-x="550" d="M455 22Q406 77 355 133T252 244T148 355T43 465Q51 476 64 482T93 489L508 46Q500 35 486 29T455 22ZM96 22Q80 22 65 26T42 41L457 498Q472 494 484 489T504 472Q466 432 414 376T304 257T193 132T96 22Z" />
<glyph unicode="&#xd8;" horiz-adv-x="731" d="M365 -9Q266 -9 192 37T77 162T35 340Q35 417 60 480T131 589T236 660T365 685Q461 685 535 642T653 521T696 340Q696 266 672 203T604 92T499 18T365 -9ZM385 40Q450 40 496 76T568 175T593 314Q593 404 561 477T472
594T344 637Q285 637 239 604T165 509T138 367Q138 304 154 245T201 140T279 67T385 40ZM538 612L604 701Q619 701 632 698T655 685L575 579L538 612ZM170 63L98 -29Q84 -29 72 -23T54 -7L133 92L170 63ZM171 135L520 593L548 550L199 94L171 135Z" />
<glyph unicode="&#xd9;" horiz-adv-x="675" d="M570 269Q570 183 559 133T513 48Q485 20 444 6T351 -9Q258 -9 205 18T129 100T106 231V549Q106 585 102 602T85 626T47 636Q44 647 43 658T42 679Q62 678 94 677T158 676Q173 676 189 676T220 676T249 677T274 679Q274
669 273 658T269 636Q240 634 225 628T205 604T200 549V245Q200 189 215 143T267 71T370 44Q395 44 425 52T476 82Q492 98 501 119T514 174T519 261V509Q519 557 514 583T495 622T450 636Q447 651 446 660T445 679Q457 678 473 678T506 677T539 676Q562 676 588
677T634 679Q634 672 633 663T629 636Q606 634 593 623T575 585T570 509V269ZM353 732Q322 772 296 802T242 860Q259 869 283 871T332 872Q345 841 359 807T393 737Q384 733 375 733T353 732Z" />
<glyph unicode="&#xda;" horiz-adv-x="675" d="M570 269Q570 183 559 133T513 48Q485 20 444 6T351 -9Q258 -9 205 18T129 100T106 231V549Q106 585 102 602T85 626T47 636Q44 647 43 658T42 679Q62 678 94 677T158 676Q173 676 189 676T220 676T249 677T274 679Q274
669 273 658T269 636Q240 634 225 628T205 604T200 549V245Q200 189 215 143T267 71T370 44Q395 44 425 52T476 82Q492 98 501 119T514 174T519 261V509Q519 557 514 583T495 622T450 636Q447 651 446 660T445 679Q457 678 473 678T506 677T539 676Q562 676 588
677T634 679Q634 672 633 663T629 636Q606 634 593 623T575 585T570 509V269ZM367 732Q354 732 345 732T327 737Q344 772 358 806T383 871Q395 874 407 876T431 878Q457 878 478 870Q451 838 425 805T367 732Z" />
<glyph unicode="&#xdb;" horiz-adv-x="675" d="M570 269Q570 183 559 133T513 48Q485 20 444 6T351 -9Q258 -9 205 18T129 100T106 231V549Q106 585 102 602T85 626T47 636Q44 647 43 658T42 679Q62 678 94 677T158 676Q173 676 189 676T220 676T249 677T274 679Q274
669 273 658T269 636Q240 634 225 628T205 604T200 549V245Q200 189 215 143T267 71T370 44Q395 44 425 52T476 82Q492 98 501 119T514 174T519 261V509Q519 557 514 583T495 622T450 636Q447 651 446 660T445 679Q457 678 473 678T506 677T539 676Q562 676 588
677T634 679Q634 672 633 663T629 636Q606 634 593 623T575 585T570 509V269ZM223 728Q215 733 212 744T207 762Q241 784 279 814T347 874Q355 876 365 877T382 878Q406 850 439 818T512 754Q507 746 498 740T478 731Q450 748 418 767T356 800Q342 794 316 780T264
752T223 728Z" />
<glyph unicode="&#xdc;" horiz-adv-x="675" d="M570 269Q570 183 559 133T513 48Q485 20 444 6T351 -9Q258 -9 205 18T129 100T106 231V549Q106 585 102 602T85 626T47 636Q44 647 43 658T42 679Q62 678 94 677T158 676Q173 676 189 676T220 676T249 677T274 679Q274
669 273 658T269 636Q240 634 225 628T205 604T200 549V245Q200 189 215 143T267 71T370 44Q395 44 425 52T476 82Q492 98 501 119T514 174T519 261V509Q519 557 514 583T495 622T450 636Q447 651 446 660T445 679Q457 678 473 678T506 677T539 676Q562 676 588
677T634 679Q634 672 633 663T629 636Q606 634 593 623T575 585T570 509V269ZM459 732Q430 732 415 748T400 789Q400 813 415 826T456 840Q481 840 497 826T513 789Q513 768 501 750T459 732ZM263 732Q238 732 222 746T206 783Q206 805 219 822T261 840Q291 840
304 824T318 785Q318 762 302 747T263 732Z" />
<glyph unicode="&#xdd;" horiz-adv-x="630" d="M365 264V163Q365 110 370 86T391 53T442 40Q445 31 446 20T448 -3Q415 -2 382 -1T321 0Q299 0 273 0T223 -1T185 -2Q185 9 186 20T191 40Q227 43 244 50T266 80T271 150V264H365ZM357 244H279L105 578Q89 609 74
622T31 637Q27 648 26 658T25 678Q39 678 56 678T91 677T129 676Q148 676 173 676T223 676T263 678Q263 667 262 659T258 639Q219 635 214 618T230 557Q257 505 288 440T351 305H343Q375 376 403 436T455 542Q482 595 475 613T428 637Q425 648 423 657T421 678Q439
677 468 677T519 676Q542 676 565 676T605 678Q605 668 604 659T601 639Q574 632 550 607T500 531L357 244ZM349 732Q336 732 327 732T309 737Q326 772 340 806T365 871Q377 874 389 876T413 878Q439 878 460 870Q433 838 407 805T349 732Z" />
<glyph unicode="&#xde;" horiz-adv-x="587" d="M56 -3Q56 11 57 21T61 40Q88 42 103 49T124 75T130 127V549Q130 583 124 601T103 627T61 636Q58 644 57 655T56 679Q75 678 94 678T135 677T177 676Q199 676 219 676T258 677T298 679Q298 666 297 655T293 636Q267
635 252 627T230 601T224 549V147Q224 104 233 82T262 51T313 40Q316 32 317 22T318 -3Q302 -2 281 -2T236 -1T187 0Q156 0 120 0T56 -3ZM325 151Q304 151 287 154T255 161Q253 169 253 178T256 194Q269 191 282 190T311 189Q348 189 381 201T436 244T457 333Q457
407 416 454T286 502Q270 502 256 501T215 493L173 538Q191 538 219 538T279 539T340 540Q414 540 460 515T529 448T552 354Q552 307 527 260T451 182T325 151Z" />
<glyph unicode="&#xdf;" horiz-adv-x="598" d="M116 392Q104 397 79 400T36 404Q36 413 39 425T50 448H116V488Q116 547 136 589T188 660T257 701T330 715Q379 715 411 696T459 647T476 580Q476 543 465 519T436 477T402 446T374 417T362 381Q362 355 376 338T412
307T460 279T507 247T544 201T558 133Q558 105 546 80T513 36T466 5T410 -7Q364 -7 338 2T282 31Q284 47 284 65T285 102T283 138Q290 143 304 146T330 149Q336 85 354 57T416 28Q442 28 461 51T481 113Q481 146 461 166T411 201T352 234T302 277T282 345Q282 379
295 401T329 439T369 470T402 503T416 550Q416 579 401 604T358 644T297 660Q267 660 247 648T216 605T206 519V-2Q193 -1 175 -1T130 0Q104 0 81 0T42 -3Q42 11 43 21T47 40Q74 42 89 49T110 75T116 127V392Z" />
<glyph unicode="&#xe0;" horiz-adv-x="498" d="M343 -9Q332 -4 326 9T319 50Q319 59 320 71T324 94H326Q323 78 313 60T285 27Q268 12 242 3T179 -7Q116 -7 83 21T50 99Q50 138 68 165T116 211T180 241T248 258T306 268Q306 309 305 332T299 368T285 392Q273 407
258 414T223 422Q190 422 171 402T144 354T135 306Q124 306 108 307T83 313Q85 338 84 369T78 422Q119 443 164 455T248 467Q285 467 311 457T354 429Q380 404 388 364T396 256V146Q396 118 400 102T418 78T458 68Q458 58 457 46T452 22Q427 21 397 13T343 -9ZM207
48Q229 48 252 62T290 108T306 189V227Q281 224 253 219T201 202T162 172T147 119Q147 82 165 65T207 48ZM232 535Q198 589 168 629T105 704Q125 714 150 715T201 712Q214 669 231 626T272 537Q263 533 253 533T232 535Z" />
<glyph unicode="&#xe1;" horiz-adv-x="498" d="M343 -9Q332 -4 326 9T319 50Q319 59 320 71T324 94H326Q323 78 313 60T285 27Q268 12 242 3T179 -7Q116 -7 83 21T50 99Q50 138 68 165T116 211T180 241T248 258T306 268Q306 309 305 332T299 368T285 392Q273 407
258 414T223 422Q190 422 171 402T144 354T135 306Q124 306 108 307T83 313Q85 338 84 369T78 422Q119 443 164 455T248 467Q285 467 311 457T354 429Q380 404 388 364T396 256V146Q396 118 400 102T418 78T458 68Q458 58 457 46T452 22Q427 21 397 13T343 -9ZM207
48Q229 48 252 62T290 108T306 189V227Q281 224 253 219T201 202T162 172T147 119Q147 82 165 65T207 48ZM245 531Q236 530 227 531T209 537Q233 587 248 629T274 709Q296 717 314 719T348 721Q357 720 364 718T377 714Q344 676 309 627T245 531Z" />
<glyph unicode="&#xe2;" horiz-adv-x="498" d="M343 -9Q332 -4 326 9T319 50Q319 59 320 71T324 94H326Q323 78 313 60T285 27Q268 12 242 3T179 -7Q116 -7 83 21T50 99Q50 138 68 165T116 211T180 241T248 258T306 268Q306 309 305 332T299 368T285 392Q273 407
258 414T223 422Q190 422 171 402T144 354T135 306Q124 306 108 307T83 313Q85 338 84 369T78 422Q119 443 164 455T248 467Q285 467 311 457T354 429Q380 404 388 364T396 256V146Q396 118 400 102T418 78T458 68Q458 58 457 46T452 22Q427 21 397 13T343 -9ZM207
48Q229 48 252 62T290 108T306 189V227Q281 224 253 219T201 202T162 172T147 119Q147 82 165 65T207 48ZM92 517Q85 524 83 536T81 555Q119 584 161 624T238 705Q246 707 255 708T270 709Q297 672 334 629T416 541Q412 535 404 530T386 523Q354 546 316 573T246
618Q234 612 214 599T170 571T125 541T92 517Z" />
<glyph unicode="&#xe3;" horiz-adv-x="498" d="M343 -9Q332 -4 326 9T319 50Q319 59 320 71T324 94H326Q323 78 313 60T285 27Q268 12 242 3T179 -7Q116 -7 83 21T50 99Q50 138 68 165T116 211T180 241T248 258T306 268Q306 309 305 332T299 368T285 392Q273 407
258 414T223 422Q190 422 171 402T144 354T135 306Q124 306 108 307T83 313Q85 338 84 369T78 422Q119 443 164 455T248 467Q285 467 311 457T354 429Q380 404 388 364T396 256V146Q396 118 400 102T418 78T458 68Q458 58 457 46T452 22Q427 21 397 13T343 -9ZM207
48Q229 48 252 62T290 108T306 189V227Q281 224 253 219T201 202T162 172T147 119Q147 82 165 65T207 48ZM300 553Q284 553 267 559T233 574T199 589T162 596Q144 596 125 588T85 557Q73 566 73 587Q104 628 131 642T184 657Q208 657 230 647T273 627T317 616Q331
616 346 623T376 647Q381 647 390 645T404 636Q377 588 351 571T300 553Z" />
<glyph unicode="&#xe4;" horiz-adv-x="498" d="M343 -9Q332 -4 326 9T319 50Q319 59 320 71T324 94H326Q323 78 313 60T285 27Q268 12 242 3T179 -7Q116 -7 83 21T50 99Q50 138 68 165T116 211T180 241T248 258T306 268Q306 309 305 332T299 368T285 392Q273 407
258 414T223 422Q190 422 171 402T144 354T135 306Q124 306 108 307T83 313Q85 338 84 369T78 422Q119 443 164 455T248 467Q285 467 311 457T354 429Q380 404 388 364T396 256V146Q396 118 400 102T418 78T458 68Q458 58 457 46T452 22Q427 21 397 13T343 -9ZM207
48Q229 48 252 62T290 108T306 189V227Q281 224 253 219T201 202T162 172T147 119Q147 82 165 65T207 48ZM338 532Q309 532 294 548T279 589Q279 613 294 626T335 640Q360 640 376 626T392 589Q392 568 380 550T338 532ZM142 532Q117 532 101 546T85 583Q85 605
98 622T140 640Q170 640 183 624T197 585Q197 562 181 547T142 532Z" />
<glyph unicode="&#xe5;" horiz-adv-x="498" d="M343 -9Q332 -4 326 9T319 50Q319 59 320 71T324 94H326Q323 78 313 60T285 27Q268 12 242 3T179 -7Q116 -7 83 21T50 99Q50 138 68 165T116 211T180 241T248 258T306 268Q306 309 305 332T299 368T285 392Q273 407
258 414T223 422Q190 422 171 402T144 354T135 306Q124 306 108 307T83 313Q85 338 84 369T78 422Q119 443 164 455T248 467Q285 467 311 457T354 429Q380 404 388 364T396 256V146Q396 118 400 102T418 78T458 68Q458 58 457 46T452 22Q427 21 397 13T343 -9ZM207
48Q229 48 252 62T290 108T306 189V227Q281 224 253 219T201 202T162 172T147 119Q147 82 165 65T207 48ZM235 526Q197 526 168 550T138 614Q138 654 168 681T242 708Q279 708 309 687T340 621Q340 581 310 554T235 526ZM245 563Q261 563 273 576T286 611Q286 632
274 653T235 674Q216 674 205 659T193 618Q193 595 206 579T245 563Z" />
<glyph unicode="&#xe6;" horiz-adv-x="701" d="M394 230Q394 200 400 168T420 109T457 64T513 47Q562 47 591 66T636 108Q643 104 651 95T661 78Q628 33 586 14T491 -6Q442 -6 406 14T347 68T312 141T301 218V321Q301 372 276 397T217 422Q186 422 169 404T143
359T131 306Q121 306 104 307T79 313Q81 338 80 369T74 422Q115 442 156 454T249 467Q289 467 320 448T372 385H349Q368 416 392 433T443 459T497 467Q536 467 565 451T615 407T646 348T659 283Q658 273 654 263T643 245Q570 244 505 241T379 231L381 276Q422 281
466 284T562 288Q562 316 554 347T527 400T472 422Q432 422 413 385T394 287V230ZM310 224Q227 217 185 194T143 117Q143 89 153 74T179 53T209 47Q236 47 256 64T289 120T301 218L331 136Q331 96 313 64T259 13T172 -6Q115 -6 83 21T50 100Q50 148 76 179T143
228T228 255T308 269L310 224Z" />
<glyph unicode="&#xe7;" horiz-adv-x="447" d="M412 78Q385 35 345 13T248 -9Q197 -9 150 17T71 96T40 227Q40 287 64 342T134 432T248 467Q294 467 332 456T399 422Q395 393 394 365T392 308Q384 304 371 302T346 300Q340 358 312 389T240 420Q191 420 162 374T133
242Q133 192 149 148T198 76T276 48Q308 48 336 63T387 106Q395 102 402 95T412 78ZM201 -242Q197 -235 196 -226T194 -210Q224 -210 248 -196T273 -155Q273 -130 255 -116T208 -101Q201 -95 196 -86T190 -63L240 16H290L242 -50Q282 -57 305 -81T329 -141Q329
-174 308 -196T257 -230T201 -242Z" />
<glyph unicode="&#xe8;" horiz-adv-x="474" d="M252 -9Q181 -9 134 23T64 109T40 229Q40 293 65 347T136 434T247 467Q312 467 351 439T410 364T434 260Q430 240 419 226Q402 226 368 226T291 226T203 224T118 220V271H330Q330 337 306 378T238 419Q214 419 191
405T153 354T138 250Q138 201 150 155T194 78T284 47Q317 47 349 62T406 105Q414 101 421 92T430 74Q396 29 352 10T252 -9ZM236 535Q202 589 172 629T109 704Q129 714 154 715T205 712Q218 669 235 626T276 537Q267 533 257 533T236 535Z" />
<glyph unicode="&#xe9;" horiz-adv-x="474" d="M252 -9Q181 -9 134 23T64 109T40 229Q40 293 65 347T136 434T247 467Q312 467 351 439T410 364T434 260Q430 240 419 226Q402 226 368 226T291 226T203 224T118 220V271H330Q330 337 306 378T238 419Q214 419 191
405T153 354T138 250Q138 201 150 155T194 78T284 47Q317 47 349 62T406 105Q414 101 421 92T430 74Q396 29 352 10T252 -9ZM249 531Q240 530 231 531T213 537Q237 587 252 629T278 709Q300 717 318 719T352 721Q361 720 368 718T381 714Q348 676 313 627T249 531Z"
/>
<glyph unicode="&#xea;" horiz-adv-x="474" d="M252 -9Q181 -9 134 23T64 109T40 229Q40 293 65 347T136 434T247 467Q312 467 351 439T410 364T434 260Q430 240 419 226Q402 226 368 226T291 226T203 224T118 220V271H330Q330 337 306 378T238 419Q214 419 191
405T153 354T138 250Q138 201 150 155T194 78T284 47Q317 47 349 62T406 105Q414 101 421 92T430 74Q396 29 352 10T252 -9ZM96 517Q89 524 87 536T85 555Q123 584 165 624T242 705Q250 707 259 708T274 709Q301 672 338 629T420 541Q416 535 408 530T390 523Q358
546 320 573T250 618Q238 612 218 599T174 571T129 541T96 517Z" />
<glyph unicode="&#xeb;" horiz-adv-x="474" d="M252 -9Q181 -9 134 23T64 109T40 229Q40 293 65 347T136 434T247 467Q312 467 351 439T410 364T434 260Q430 240 419 226Q402 226 368 226T291 226T203 224T118 220V271H330Q330 337 306 378T238 419Q214 419 191
405T153 354T138 250Q138 201 150 155T194 78T284 47Q317 47 349 62T406 105Q414 101 421 92T430 74Q396 29 352 10T252 -9ZM342 532Q313 532 298 548T283 589Q283 613 298 626T339 640Q364 640 380 626T396 589Q396 568 384 550T342 532ZM146 532Q121 532 105
546T89 583Q89 605 102 622T144 640Q174 640 187 624T201 585Q201 562 185 547T146 532Z" />
<glyph unicode="&#xec;" horiz-adv-x="301" d="M37 -3Q37 7 38 18T42 40Q82 40 96 58T111 127V325Q111 349 107 364T86 388T36 396Q36 407 38 416T45 433Q60 433 87 438T141 451T179 467Q188 464 194 455T201 427V127Q201 77 214 59T260 40Q263 30 264 17T265
-3Q248 -2 229 -2T191 -1T152 0Q133 0 113 0T73 -1T37 -3ZM398 535Q364 589 334 629T271 704Q291 714 316 715T367 712Q380 669 397 626T438 537Q429 533 419 533T398 535Z" />
<glyph unicode="&#xed;" horiz-adv-x="301" d="M37 -3Q37 7 38 18T42 40Q82 40 96 58T111 127V325Q111 349 107 364T86 388T36 396Q36 407 38 416T45 433Q60 433 87 438T141 451T179 467Q188 464 194 455T201 427V127Q201 77 214 59T260 40Q263 30 264 17T265
-3Q248 -2 229 -2T191 -1T152 0Q133 0 113 0T73 -1T37 -3ZM155 531Q146 530 137 531T119 537Q143 587 158 629T184 709Q206 717 224 719T258 721Q267 720 274 718T287 714Q254 676 219 627T155 531Z" />
<glyph unicode="&#xee;" horiz-adv-x="301" d="M37 -3Q37 7 38 18T42 40Q82 40 96 58T111 127V325Q111 349 107 364T86 388T36 396Q36 407 38 416T45 433Q60 433 87 438T141 451T179 467Q188 464 194 455T201 427V127Q201 77 214 59T260 40Q263 30 264 17T265
-3Q248 -2 229 -2T191 -1T152 0Q133 0 113 0T73 -1T37 -3ZM298 518Q277 531 274 555Q304 588 334 627T391 705Q404 707 411 708T425 709Q449 669 477 627T536 539Q531 534 521 530T500 523Q476 550 449 578T397 625Q369 599 345 572T298 518Z" />
<glyph unicode="&#xef;" horiz-adv-x="301" d="M37 -3Q37 7 38 18T42 40Q82 40 96 58T111 127V325Q111 349 107 364T86 388T36 396Q36 407 38 416T45 433Q60 433 87 438T141 451T179 467Q188 464 194 455T201 427V127Q201 77 214 59T260 40Q263 30 264 17T265
-3Q248 -2 229 -2T191 -1T152 0Q133 0 113 0T73 -1T37 -3ZM328 532Q303 532 287 546T271 583Q271 605 284 622T326 640Q356 640 369 624T383 585Q383 562 367 547T328 532ZM484 533Q455 533 440 548T425 589Q425 613 440 626T481 640Q506 640 522 626T538 589Q538
568 526 551T484 533Z" />
<glyph unicode="&#xf0;" horiz-adv-x="524" d="M258 -8Q158 -8 99 53T40 224Q40 299 68 353T147 437T266 467Q296 467 319 461T361 441L380 376Q362 395 328 407T262 419Q200 419 168 368T136 233Q136 140 172 90T266 39Q328 39 357 96T387 257Q387 359 359 439T272
578T125 671Q125 680 127 690T133 708Q160 708 185 710T235 717Q309 672 365 605T452 453T484 270Q484 140 426 66T258 -8ZM191 487Q185 498 180 514T176 537L455 676Q462 663 466 651T469 626Q427 606 395 591T334 561T271 529T191 487Z" />
<glyph unicode="&#xf1;" horiz-adv-x="597" d="M111 214V325Q111 349 106 364T85 387T36 396Q36 407 38 416T45 433Q76 435 116 445T179 467Q188 464 194 455T201 423L111 214ZM497 127Q497 75 511 58T556 40Q559 31 560 21T561 -3Q539 -1 511 -1T452 0Q432 0
410 0T369 -1T333 -3Q333 11 334 21T338 40Q374 40 390 58T407 127V279Q407 350 381 375T314 401Q288 401 262 385T219 332T201 234V127Q201 77 216 59T270 40Q273 31 274 21T275 -3Q261 -2 241 -2T199 -1T156 0Q136 0 114 0T72 -1T37 -3Q37 11 38 21T42 40Q81
40 96 58T111 127V325L201 423Q201 411 200 396T194 364Q197 369 200 375T209 390Q226 413 263 437T354 462Q392 462 424 447T477 396T497 299V127ZM361 553Q345 553 328 559T294 574T260 589T223 596Q205 596 186 588T146 557Q134 566 134 587Q165 628 192 642T245
657Q269 657 291 647T334 627T378 616Q392 616 407 623T437 647Q442 647 451 645T465 636Q438 588 412 571T361 553Z" />
<glyph unicode="&#xf2;" horiz-adv-x="532" d="M266 -9Q198 -9 147 20T68 103T40 229Q40 297 69 351T149 436T266 467Q337 467 387 437T465 354T492 229Q492 161 464 107T385 22T266 -9ZM274 39Q334 39 363 88T392 217Q392 279 374 324T324 394T256 419Q198 419
170 372T141 250Q141 183 157 136T204 64T274 39ZM256 535Q222 589 192 629T129 704Q149 714 174 715T225 712Q238 669 255 626T296 537Q287 533 277 533T256 535Z" />
<glyph unicode="&#xf3;" horiz-adv-x="532" d="M266 -9Q198 -9 147 20T68 103T40 229Q40 297 69 351T149 436T266 467Q337 467 387 437T465 354T492 229Q492 161 464 107T385 22T266 -9ZM274 39Q334 39 363 88T392 217Q392 279 374 324T324 394T256 419Q198 419
170 372T141 250Q141 183 157 136T204 64T274 39ZM269 531Q260 530 251 531T233 537Q257 587 272 629T298 709Q320 717 338 719T372 721Q381 720 388 718T401 714Q368 676 333 627T269 531Z" />
<glyph unicode="&#xf4;" horiz-adv-x="532" d="M266 -9Q198 -9 147 20T68 103T40 229Q40 297 69 351T149 436T266 467Q337 467 387 437T465 354T492 229Q492 161 464 107T385 22T266 -9ZM274 39Q334 39 363 88T392 217Q392 279 374 324T324 394T256 419Q198 419
170 372T141 250Q141 183 157 136T204 64T274 39ZM116 517Q109 524 107 536T105 555Q143 584 185 624T262 705Q270 707 279 708T294 709Q321 672 358 629T440 541Q436 535 428 530T410 523Q378 546 340 573T270 618Q258 612 238 599T194 571T149 541T116 517Z"
/>
<glyph unicode="&#xf5;" horiz-adv-x="532" d="M266 -9Q198 -9 147 20T68 103T40 229Q40 297 69 351T149 436T266 467Q337 467 387 437T465 354T492 229Q492 161 464 107T385 22T266 -9ZM274 39Q334 39 363 88T392 217Q392 279 374 324T324 394T256 419Q198 419
170 372T141 250Q141 183 157 136T204 64T274 39ZM324 553Q308 553 291 559T257 574T223 589T186 596Q168 596 149 588T109 557Q97 566 97 587Q128 628 155 642T208 657Q232 657 254 647T297 627T341 616Q355 616 370 623T400 647Q405 647 414 645T428 636Q401
588 375 571T324 553Z" />
<glyph unicode="&#xf6;" horiz-adv-x="532" d="M266 -9Q198 -9 147 20T68 103T40 229Q40 297 69 351T149 436T266 467Q337 467 387 437T465 354T492 229Q492 161 464 107T385 22T266 -9ZM274 39Q334 39 363 88T392 217Q392 279 374 324T324 394T256 419Q198 419
170 372T141 250Q141 183 157 136T204 64T274 39ZM362 532Q333 532 318 548T303 589Q303 613 318 626T359 640Q384 640 400 626T416 589Q416 568 404 550T362 532ZM166 532Q141 532 125 546T109 583Q109 605 122 622T164 640Q194 640 207 624T221 585Q221 562 205
547T166 532Z" />
<glyph unicode="&#xf7;" horiz-adv-x="550" d="M49 237Q49 248 52 264T59 288H501Q501 273 500 261T491 238Q452 238 426 238T380 239T337 239T285 239Q224 239 169 239T49 237ZM276 61Q254 61 240 75T225 109Q225 129 236 143T274 158Q301 158 313 145T325 109Q325
87 311 74T276 61ZM279 369Q251 369 238 384T225 424Q225 446 240 456T276 467Q296 467 311 456T326 424Q326 401 316 385T279 369Z" />
<glyph unicode="&#xf8;" horiz-adv-x="532" d="M266 -9Q198 -9 147 20T68 103T40 229Q40 297 69 351T149 436T266 467Q337 467 387 437T465 354T492 229Q492 161 464 107T385 22T266 -9ZM274 39Q334 39 363 88T392 217Q392 279 374 324T324 394T256 419Q198 419
170 372T141 250Q141 183 157 136T204 64T274 39ZM390 411L460 489Q475 489 488 486T512 474L434 387L390 411ZM142 57L65 -32Q50 -32 37 -28T18 -16L103 80L142 57ZM130 105L371 389L400 355L159 75L130 105Z" />
<glyph unicode="&#xf9;" horiz-adv-x="564" d="M225 -4Q158 -4 120 35T82 174V325Q82 360 72 377T16 396Q16 407 17 415T23 433Q54 435 90 445T150 467Q159 464 165 455T172 423V196Q172 129 190 93T255 57Q305 57 338 99T372 228V330Q372 365 360 382T297 401Q297
412 298 420T304 438Q343 440 380 448T440 467Q449 464 455 455T462 423V133L384 96Q379 83 370 71T350 47Q324 21 295 9T225 -4ZM404 -9Q394 -4 387 5T379 49Q379 60 380 80T389 136H462Q462 113 466 98T483 75T524 68Q524 58 523 46T518 22Q493 21 460 13T404
-9ZM256 535Q222 589 192 629T129 704Q149 714 174 715T225 712Q238 669 255 626T296 537Q287 533 277 533T256 535Z" />
<glyph unicode="&#xfa;" horiz-adv-x="564" d="M225 -4Q158 -4 120 35T82 174V325Q82 360 72 377T16 396Q16 407 17 415T23 433Q54 435 90 445T150 467Q159 464 165 455T172 423V196Q172 129 190 93T255 57Q305 57 338 99T372 228V330Q372 365 360 382T297 401Q297
412 298 420T304 438Q343 440 380 448T440 467Q449 464 455 455T462 423V133L384 96Q379 83 370 71T350 47Q324 21 295 9T225 -4ZM404 -9Q394 -4 387 5T379 49Q379 60 380 80T389 136H462Q462 113 466 98T483 75T524 68Q524 58 523 46T518 22Q493 21 460 13T404
-9ZM269 531Q260 530 251 531T233 537Q257 587 272 629T298 709Q320 717 338 719T372 721Q381 720 388 718T401 714Q368 676 333 627T269 531Z" />
<glyph unicode="&#xfb;" horiz-adv-x="564" d="M225 -4Q158 -4 120 35T82 174V325Q82 360 72 377T16 396Q16 407 17 415T23 433Q54 435 90 445T150 467Q159 464 165 455T172 423V196Q172 129 190 93T255 57Q305 57 338 99T372 228V330Q372 365 360 382T297 401Q297
412 298 420T304 438Q343 440 380 448T440 467Q449 464 455 455T462 423V133L384 96Q379 83 370 71T350 47Q324 21 295 9T225 -4ZM404 -9Q394 -4 387 5T379 49Q379 60 380 80T389 136H462Q462 113 466 98T483 75T524 68Q524 58 523 46T518 22Q493 21 460 13T404
-9ZM116 517Q109 524 107 536T105 555Q143 584 185 624T262 705Q270 707 279 708T294 709Q321 672 358 629T440 541Q436 535 428 530T410 523Q378 546 340 573T270 618Q258 612 238 599T194 571T149 541T116 517Z" />
<glyph unicode="&#xfc;" horiz-adv-x="564" d="M225 -4Q158 -4 120 35T82 174V325Q82 360 72 377T16 396Q16 407 17 415T23 433Q54 435 90 445T150 467Q159 464 165 455T172 423V196Q172 129 190 93T255 57Q305 57 338 99T372 228V330Q372 365 360 382T297 401Q297
412 298 420T304 438Q343 440 380 448T440 467Q449 464 455 455T462 423V133L384 96Q379 83 370 71T350 47Q324 21 295 9T225 -4ZM404 -9Q394 -4 387 5T379 49Q379 60 380 80T389 136H462Q462 113 466 98T483 75T524 68Q524 58 523 46T518 22Q493 21 460 13T404
-9ZM362 532Q333 532 318 548T303 589Q303 613 318 626T359 640Q384 640 400 626T416 589Q416 568 404 550T362 532ZM166 532Q141 532 125 546T109 583Q109 605 122 622T164 640Q194 640 207 624T221 585Q221 562 205 547T166 532Z" />
<glyph unicode="&#xfd;" horiz-adv-x="541" d="M379 298Q405 362 392 385T334 417Q330 428 329 438T327 460Q350 459 374 459T426 458Q454 458 479 458T526 460Q526 450 526 439T520 417Q502 413 490 403T466 372T439 313L292 -37Q264 -105 242 -147T200 -211T161
-241T118 -249Q88 -249 71 -241T43 -226Q39 -211 40 -189T44 -153Q61 -156 77 -157T108 -159Q137 -159 163 -145T209 -100Q223 -79 251 -18T310 124L379 298ZM262 -21Q238 32 212 90T161 203T119 294Q96 344 81 369T52 404T21 417Q18 426 17 437T15 460Q44 459
73 459T128 458Q154 458 192 458T261 460Q261 447 260 437T254 417Q200 408 192 386T211 307Q225 278 243 238T278 157T307 85L262 -21ZM300 531Q291 530 282 531T264 537Q288 587 303 629T329 709Q351 717 369 719T403 721Q412 720 419 718T432 714Q399 676 364
627T300 531Z" />
<glyph unicode="&#xfe;" horiz-adv-x="572" d="M36 -245Q36 -231 37 -221T41 -202Q68 -200 83 -193T104 -167T110 -115V575Q110 599 106 614T85 638T35 646Q35 657 37 666T44 683Q59 683 86 688T140 701T178 717Q187 714 193 705T200 677V416Q200 398 198 386T194
362L200 306V-95Q200 -138 209 -160T238 -191T289 -202Q292 -210 293 -220T294 -245Q279 -244 259 -244T215 -243T168 -242Q133 -242 95 -242T36 -245ZM283 -9Q255 -9 234 -4T186 9V86Q206 65 229 51T288 37Q309 37 333 45T381 75T418 134T433 232Q433 285 419
323T379 383T321 404Q292 404 264 386T218 325T200 213L171 319Q184 351 193 368T208 393Q217 408 236 425T284 455T345 467Q404 467 445 444T509 374T532 254Q532 180 501 120T414 26T283 -9Z" />
<glyph unicode="&#xff;" horiz-adv-x="541" d="M379 298Q405 362 392 385T334 417Q330 428 329 438T327 460Q350 459 374 459T426 458Q454 458 479 458T526 460Q526 450 526 439T520 417Q502 413 490 403T466 372T439 313L292 -37Q264 -105 242 -147T200 -211T161
-241T118 -249Q88 -249 71 -241T43 -226Q39 -211 40 -189T44 -153Q61 -156 77 -157T108 -159Q137 -159 163 -145T209 -100Q223 -79 251 -18T310 124L379 298ZM262 -21Q238 32 212 90T161 203T119 294Q96 344 81 369T52 404T21 417Q18 426 17 437T15 460Q44 459
73 459T128 458Q154 458 192 458T261 460Q261 447 260 437T254 417Q200 408 192 386T211 307Q225 278 243 238T278 157T307 85L262 -21ZM393 532Q364 532 349 548T334 589Q334 613 349 626T390 640Q415 640 431 626T447 589Q447 568 435 550T393 532ZM197 532Q172
532 156 546T140 583Q140 605 153 622T195 640Q225 640 238 624T252 585Q252 562 236 547T197 532Z" />
<glyph unicode="&#x2013;" horiz-adv-x="566" d="M506 288Q506 273 504 260T495 235Q442 235 395 235T300 235T194 234T60 232Q60 246 63 262T71 288H506Z" />
<glyph unicode="&#x2014;" horiz-adv-x="1024" d="M964 286Q964 271 962 258T953 234Q655 234 435 234T60 231Q60 242 63 260T71 286H964Z" />
<glyph unicode="&#x2018;" horiz-adv-x="242" d="M94 467Q77 474 69 492T60 539Q60 594 79 635T134 717Q145 717 156 714T174 704Q149 669 142 651T135 607Q135 586 146 573T182 557Q182 547 181 529T174 497Q152 493 132 486T94 467Z" />
<glyph unicode="&#x2019;" horiz-adv-x="242" d="M148 715Q165 708 173 690T182 643Q182 588 163 547T108 465Q97 465 86 468T68 478Q93 513 100 531T107 575Q107 596 96 609T60 625Q60 635 61 653T68 685Q90 689 110 696T148 715Z" />
<glyph unicode="&#x201a;" horiz-adv-x="242" d="M148 98Q165 91 173 73T182 26Q182 -29 163 -70T108 -152Q97 -152 86 -149T68 -139Q93 -104 100 -86T107 -42Q107 -21 96 -8T60 8Q60 18 61 36T68 68Q90 72 110 79T148 98Z" />
<glyph unicode="&#x201c;" horiz-adv-x="386" d="M94 467Q79 477 70 495T60 543Q60 587 80 632T133 715Q141 716 153 713T172 705Q156 683 145 655T133 607Q133 588 142 574T177 558Q178 545 176 526T169 496Q127 489 94 467ZM242 470Q226 480 217 498T208 546Q208
590 228 633T280 713Q289 714 300 711T319 703Q304 681 292 654T280 607Q280 588 290 574T326 558Q327 545 325 528T318 499Q297 495 277 488T242 470Z" />
<glyph unicode="&#x201d;" horiz-adv-x="386" d="M292 717Q307 707 316 689T326 641Q326 597 306 552T253 469Q245 468 233 471T214 479Q230 501 241 529T253 577Q253 596 244 610T209 626Q208 639 210 658T217 688Q259 695 292 717ZM144 714Q160 704 169 686T178
638Q178 594 158 551T106 471Q97 470 86 473T67 481Q82 503 94 530T106 577Q106 596 96 610T60 626Q59 639 61 656T68 685Q89 689 109 696T144 714Z" />
<glyph unicode="&#x201e;" horiz-adv-x="386" d="M292 99Q307 89 316 71T326 23Q326 -21 306 -66T253 -149Q245 -150 233 -147T214 -139Q230 -117 241 -89T253 -41Q253 -22 244 -8T209 8Q208 21 210 40T217 70Q259 77 292 99ZM144 96Q160 86 169 68T178 20Q178
-24 158 -67T106 -147Q97 -148 86 -145T67 -137Q82 -115 94 -88T106 -41Q106 -22 96 -8T60 8Q59 21 61 38T68 67Q89 71 109 78T144 96Z" />
<glyph unicode="&#x2022;" horiz-adv-x="338" d="M171 151Q133 151 109 166T72 207T60 260Q60 304 91 332T171 361Q206 361 230 347T266 309T278 259Q278 213 250 182T171 151Z" />
<glyph unicode="&#x2039;" horiz-adv-x="356" d="M214 418Q224 417 232 414T248 403Q233 387 214 361T177 309T151 267Q168 235 195 192T244 117Q244 107 239 98T228 83Q184 128 141 169T60 240Q60 249 61 257T66 274Q107 308 144 345T214 418Z" />
<glyph unicode="&#x203a;" horiz-adv-x="361" d="M145 87Q137 92 131 100T122 116Q147 148 170 180T216 249Q203 270 185 297T146 352T108 404Q116 411 126 414T145 418Q169 395 193 373T243 329T295 285Q299 278 300 270T301 253Q261 213 222 171T145 87Z" />
</font>
</defs>
</svg>
