<?xml version="1.0" standalone="no"?>
<!DOCTYPE svg PUBLIC "-//W3C//DTD SVG 1.1//EN" "http://www.w3.org/Graphics/SVG/1.1/DTD/svg11.dtd">
<svg xmlns="http://www.w3.org/2000/svg">
<defs >
<font id="VollkornSC" horiz-adv-x="653" ><font-face
    font-family="Vollkorn SC"
    units-per-em="1000"
    panose-1="0 0 8 0 0 0 0 0 0 0"
    ascent="952"
    descent="-441"
    alphabetic="0" />
<glyph unicode=" " glyph-name="space" horiz-adv-x="200" />
<glyph unicode="!" glyph-name="exclam" horiz-adv-x="411" d="M261 483T246 246Q216 236 169 236Q152 474 121 678Q153 682 193 693T259 716Q273 712 279 703T285 677Q285 672 283 656Q261 483 246 246ZM290 39T267 16T206 -8Q168 -8 146 13T124 72Q124 108 148
130T212 152Q246 152 268 129T290 77Q290 39 267 16Z" />
<glyph unicode="&quot;" glyph-name="quotedbl" horiz-adv-x="381" d="M166 658Q159 614 148 499L142 442Q127 442 109 445T85 453Q78 594 60 690Q106 696 143 716Q155 713 162 702T168 678L166 658ZM320 663Q314 617 303 490L299 441Q258 441 239 451L237 477Q233
550 229 597T217 690Q262 697 295 716Q321 710 321 678L320 663Z" />
<glyph unicode="#" glyph-name="numbersign" horiz-adv-x="610" d="M469 437L436 269H548Q548 230 534 197H439H422L382 -9Q334 -6 316 14L352 197Q245 197 203 196L163 -9Q142 -7 124 0T97 18L132 196L78 195Q39 195 24 194Q24 240 38 269H146L179 436Q137 436
73 434Q73 476 87 509H193L234 716Q256 714 274 708T300 692L264 509H413L453 716Q474 715 493 709T519 694L483 509H585Q585 466 572 437H496H469ZM399 437H250L217 269H366L399 437Z" />
<glyph unicode="$" glyph-name="dollar" horiz-adv-x="576" d="M521 84T470 43T319 -6Q319 -66 320 -100Q302 -100 283 -97T254 -88V-6Q203 -5 159 4T66 32Q77 88 77 163Q108 173 159 173Q164 122 187 96T254 63V191Q174 219 128 256T81 359Q81 427 129 463T262
505V598Q300 598 327 586Q327 530 326 505Q370 503 410 494T474 473L473 440Q473 390 480 360Q466 351 444 347T401 342Q383 417 326 435V319Q386 300 425 282T493 232T521 152Q521 84 470 43ZM196 380T213 366T262 340V441Q231 439 214 428T196 399Q196 380 213
366ZM355 65T374 77T394 108Q394 127 375 141T318 169V61Q355 65 374 77Z" />
<glyph unicode="%" glyph-name="percent" horiz-adv-x="863" d="M169 -5T154 5T131 30L678 686Q697 684 714 677T742 657L189 -7Q169 -5 154 5ZM195 359T159 380T105 437T87 512Q87 556 106 594T164 654T256 677Q303 677 337 655T388 598T406 526Q406 480 387
442T332 382T246 359Q195 359 159 380ZM273 419T290 444T308 513Q308 559 290 588T244 618Q220 618 203 591T186 524Q186 478 204 449T252 419Q273 419 290 444ZM565 -8T529 13T475 70T457 145Q457 189 476 227T534 287T626 310Q673 310 707 288T758 231T776 159Q776
113 757 75T702 15T616 -8Q565 -8 529 13ZM643 52T660 77T678 146Q678 192 660 221T614 251Q590 251 573 224T556 157Q556 111 574 82T622 52Q643 52 660 77Z" />
<glyph unicode="&amp;" glyph-name="ampersand" horiz-adv-x="704" d="M572 97T591 91T650 83Q650 42 640 7Q605 7 559 3T480 -7Q468 7 431 44Q396 18 354 6T254 -7Q154 -7 104 31T53 138Q53 196 88 235T191 302Q165 338 155 365T145 415Q145 469 192 500T342
531Q431 531 497 507Q490 469 490 428Q490 415 492 385Q449 375 407 375Q403 423 386 446T333 469Q309 469 296 458T282 425Q282 403 297 377T346 310Q394 254 476 178Q498 211 507 237Q510 246 510 254Q510 269 497 276T454 289Q446 314 446 341Q478 339 548 339Q603
339 638 341Q638 312 632 289Q602 282 591 272T568 234Q550 194 518 141Q530 130 547 117Q572 97 591 91ZM349 55T389 85Q309 163 260 218Q247 232 230 253Q195 223 195 174Q195 121 226 88T306 55Q349 55 389 85Z" />
<glyph unicode="&apos;" glyph-name="quotesingle" horiz-adv-x="229" d="M169 676T167 664Q160 623 155 564T146 440Q107 440 85 453Q80 577 60 690Q83 692 105 699T141 716Q167 710 169 678Q169 676 167 664Z" />
<glyph unicode="(" glyph-name="parenleft" horiz-adv-x="325" d="M213 622T185 515T156 254Q156 94 188 -32T284 -260Q264 -273 231 -271Q142 -166 89 -36T35 240Q35 383 82 500T226 741Q254 742 278 723Q213 622 185 515Z" />
<glyph unicode=")" glyph-name="parenright" horiz-adv-x="325" d="M195 619T242 504T290 257Q290 100 237 -32T94 -271Q60 -273 42 -260Q110 -149 139 -34T169 242Q169 398 141 511T48 723Q69 741 99 741Q195 619 242 504Z" />
<glyph unicode="*" glyph-name="asterisk" horiz-adv-x="479" d="M344 636T404 659Q418 625 418 582Q418 571 416 547Q344 562 266 569Q298 524 357 450Q309 411 252 405Q245 468 226 552Q188 506 139 433Q86 467 70 514Q126 541 198 586Q140 609 60 631Q67 657
81 681T114 722Q157 675 220 621Q222 646 222 693Q222 742 220 768Q248 769 277 763T327 746Q295 691 262 614Q344 636 404 659Z" />
<glyph unicode="+" glyph-name="plus" horiz-adv-x="550" d="M507 266T505 251T495 221Q415 222 311 222V14Q301 8 280 5T237 2Q239 68 239 222Q174 222 42 220Q42 266 54 292H239Q239 404 238 492Q254 499 269 501T311 504V292H507Q507 266 505 251Z" />
<glyph unicode="," glyph-name="comma" horiz-adv-x="291" d="M231 -18T201 -79T121 -186Q103 -185 87 -179T62 -164Q128 -90 128 -39Q128 2 68 10Q68 61 80 101Q147 107 186 132Q210 124 220 104T231 42Q231 -18 201 -79Z" />
<glyph unicode="-" glyph-name="hyphen" horiz-adv-x="419" d="M359 253T346 218Q166 218 60 212Q60 232 64 257T77 301H359Q359 253 346 218Z" />
<glyph unicode="." glyph-name="period" horiz-adv-x="287" d="M103 -9T79 14T54 78Q54 117 81 141T150 166Q187 166 211 141T236 84Q236 43 211 17T145 -9Q103 -9 79 14Z" />
<glyph unicode="/" glyph-name="slash" horiz-adv-x="356" d="M76 -17T58 -9T31 11L264 525Q285 523 302 516T329 498L96 -18Q76 -17 58 -9Z" />
<glyph unicode="0" glyph-name="zero" horiz-adv-x="555" d="M163 -7T99 60T35 249Q35 371 99 437T278 504Q392 504 455 438T519 250Q519 127 456 60T277 -7Q163 -7 99 60ZM372 52T372 228Q372 333 345 389T267 445Q183 445 183 270Q183 165 210 109T287 52Q372
52 372 228Z" />
<glyph unicode="1" glyph-name="one" horiz-adv-x="435" d="M152 338T146 357T120 384T53 391Q53 431 60 455Q126 460 173 472T268 506Q285 501 291 488T298 446V177Q298 125 303 102T324 71T376 59Q382 31 382 -3Q316 0 216 0Q126 0 59 -3Q59 34 66 59Q104 62
121 70T145 102T152 177V293Q152 338 146 357Z" />
<glyph unicode="2" glyph-name="two" horiz-adv-x="475" d="M432 134T432 118Q432 68 439 31Q428 -3 388 -3L332 -2Q272 0 235 0Q200 0 132 -2L54 -3Q36 29 36 78L52 92Q99 133 128 159T186 219Q236 272 255 307T275 374Q275 409 257 426T206 444Q170 444 152
418T127 327Q82 325 44 341Q47 371 47 405Q47 439 44 466Q125 503 236 503Q329 503 374 476T420 389Q420 351 402 320T356 264T283 205Q216 153 184 122H285Q318 122 332 125T353 139T364 173L379 174Q413 174 434 166Q432 134 432 118Z" />
<glyph unicode="3" glyph-name="three" horiz-adv-x="460" d="M336 283T379 250T422 155Q422 78 360 36T187 -7Q131 -7 93 4T35 34Q36 49 42 64T59 91Q79 75 103 67T162 58Q210 58 244 81T278 142Q278 170 255 187T198 204Q177 204 167 201Q158 212 153 228T148
261Q236 347 270 387H197Q170 387 156 383T132 365T112 324Q68 324 48 340Q60 410 58 503Q172 500 227 500Q302 500 392 503Q410 473 409 437Q337 362 263 280Q336 283 379 250Z" />
<glyph unicode="4" glyph-name="four" horiz-adv-x="516" d="M387 128V113Q387 84 398 74T444 60Q449 41 449 -2Q412 0 288 0Q184 0 155 -2Q155 40 162 60Q214 64 233 76T253 117V128H173Q101 128 59 123Q33 169 32 218L277 504Q297 507 319 507Q354 507 387 500V236H439Q454
236 463 232T479 216Q465 174 465 128H387ZM260 224V396L112 224H260Z" />
<glyph unicode="5" glyph-name="five" horiz-adv-x="462" d="M323 303T376 265T430 161Q430 83 366 38T184 -7Q128 -7 92 1T36 29Q37 44 43 59T61 87Q96 59 158 59Q216 59 248 84T281 149Q281 182 253 200T176 219Q129 219 104 202Q74 200 57 222L96 505Q181 500
288 500Q334 500 336 542Q354 549 402 549Q396 494 396 397Q392 383 382 378T354 372Q289 372 232 371T142 367L130 289Q168 303 224 303Q323 303 376 265Z" />
<glyph unicode="6" glyph-name="six" horiz-adv-x="512" d="M382 325T429 284T476 172Q476 113 445 73T361 13T247 -7Q147 -7 91 46T35 203Q35 315 95 381T236 475T394 507Q400 500 404 487T408 460Q408 452 407 448Q310 437 259 403T190 309Q237 325 291 325Q382
325 429 284ZM298 61T316 86T334 154Q334 208 306 236T235 264Q206 264 180 254Q178 228 178 211Q178 61 262 61Q298 61 316 86Z" />
<glyph unicode="7" glyph-name="seven" horiz-adv-x="423" d="M118 22T118 41Q118 82 123 111T144 173Q185 260 287 379H199Q155 379 136 366T105 314Q54 314 32 327Q47 382 47 500L208 499L386 500Q394 489 398 470T404 433Q324 342 292 267T259 90Q259 55 264
0Q189 0 122 -8Q118 22 118 41Z" />
<glyph unicode="8" glyph-name="eight" horiz-adv-x="490" d="M389 255T420 221T451 136Q451 70 396 32T241 -7Q147 -7 93 28T39 124Q39 166 66 195T146 243Q105 269 81 300T57 374Q57 434 107 469T246 505Q330 505 379 475T429 395Q429 360 403 332T331 287Q389
255 420 221ZM211 454T197 443T182 412Q182 388 202 367T264 322Q304 340 304 389Q304 421 286 437T237 454Q211 454 197 443ZM284 52T302 65T321 102Q321 128 296 150T215 204Q168 181 168 131Q168 95 190 74T251 52Q284 52 302 65Z" />
<glyph unicode="9" glyph-name="nine" horiz-adv-x="512" d="M365 507T421 454T477 297Q477 185 417 119T276 25T118 -7Q112 0 108 13T104 40Q104 48 105 52Q202 63 253 97T322 191Q275 175 221 175Q130 175 83 216T36 328Q36 387 67 427T151 487T265 507Q365
507 421 454ZM306 236T332 246Q334 272 334 289Q334 439 250 439Q214 439 196 414T178 346Q178 293 206 265T277 236Q306 236 332 246Z" />
<glyph unicode=":" glyph-name="colon" horiz-adv-x="287" d="M104 287T82 308T60 367Q60 403 84 425T148 447Q183 447 205 424T227 372Q227 334 204 311T143 287Q104 287 82 308ZM104 7T82 28T60 87Q60 123 84 145T148 167Q183 167 205 144T227 92Q227 54 204
31T143 7Q104 7 82 28Z" />
<glyph unicode=";" glyph-name="semicolon" horiz-adv-x="297" d="M114 287T92 308T70 367Q70 403 94 425T158 447Q193 447 215 424T237 372Q237 334 214 311T153 287Q114 287 92 308ZM235 -18T205 -79T125 -186Q107 -185 91 -179T66 -164Q132 -90 132 -39Q132
2 72 10Q72 61 84 101Q151 107 190 132Q214 124 224 104T235 42Q235 -18 205 -79Z" />
<glyph unicode="&lt;" glyph-name="less" horiz-adv-x="550" d="M242 130T59 222Q57 236 57 243Q57 273 72 298L421 504Q441 499 456 488T486 459L141 260L465 90Q468 77 468 62Q468 22 453 4Q242 130 59 222Z" />
<glyph unicode="=" glyph-name="equal" horiz-adv-x="550" d="M51 352T64 379H499Q499 355 497 340T487 308Q407 309 282 309Q142 309 51 307Q51 352 64 379ZM50 176T63 202H500Q500 160 488 131Q408 132 282 132Q141 132 50 130Q50 176 63 202Z" />
<glyph unicode="&gt;" glyph-name="greater" horiz-adv-x="550" d="M488 276T488 264Q488 239 473 216Q384 170 309 126T113 7Q99 20 93 39T88 80L407 260L76 458Q97 497 134 509L485 286Q488 276 488 264Z" />
<glyph unicode="?" glyph-name="question" horiz-adv-x="537" d="M381 716T426 684T472 591Q472 544 453 513T393 441Q355 403 336 373T317 300Q317 265 330 224Q306 210 264 210Q242 223 227 259T211 335Q211 380 227 410T275 473Q301 501 314 523T327 575Q327
612 309 633T266 655Q237 655 221 626T195 523Q144 523 113 540Q116 578 116 612Q116 642 113 672Q199 716 297 716Q381 716 426 684ZM250 -9T226 14T201 78Q201 117 228 141T297 166Q334 166 358 141T383 84Q383 43 358 17T292 -9Q250 -9 226 14Z" />
<glyph unicode="@" glyph-name="at" horiz-adv-x="936" d="M787 44T800 17Q757 -32 673 -60T489 -88Q358 -88 271 -46T140 72T97 247Q97 341 145 417T286 538T504 583Q614 583 689 551T802 462T839 335Q839 255 808 193T725 96T611 62Q574 62 554 82T534 139V157Q510
111 474 87T391 62Q329 62 297 104T264 228Q264 287 289 334T356 407T449 433Q494 433 550 424Q607 424 640 433Q655 425 659 412T664 358V242Q664 199 666 180T674 154T693 147Q709 147 728 164T760 219T774 313Q774 373 744 422T651 499T492 528Q388 528 316
492T208 394T171 252Q171 174 207 110T317 8T502 -31Q580 -31 647 -11T762 52Q787 44 800 17ZM473 144T499 188T536 311Q537 327 537 358Q508 376 470 376Q442 376 427 367T405 333T398 257Q398 199 410 172T445 144Q473 144 499 188Z" />
<glyph unicode="A" glyph-name="A" horiz-adv-x="711" d="M695 32T695 -3Q647 0 557 0Q454 0 409 -3Q409 37 416 59Q440 64 451 71T462 93Q462 105 449 136L426 190Q293 190 182 183L169 150Q159 122 159 106Q159 65 207 59Q214 35 214 -3Q180 0 107 0Q45 0 17
-3Q17 34 25 59Q50 63 65 83T105 163L315 677Q329 680 343 681T375 682L604 169Q625 122 637 100T661 70T687 59Q695 32 695 -3ZM401 246L347 372Q321 431 300 500Q280 434 256 373L206 246H401Z" />
<glyph unicode="B" glyph-name="B" horiz-adv-x="673" d="M632 358T632 195Q632 105 564 53T350 0Q161 0 42 -3Q42 37 48 59Q76 61 90 69T110 99T116 165V517Q116 558 111 577T91 605T48 617Q42 641 42 679Q81 676 148 676Q207 676 242 677L339 678Q469 678 529
643T589 527Q589 465 549 422T436 369Q632 358 632 195ZM433 557T398 586T313 616Q291 616 269 608V380H303Q370 380 401 412T433 499Q433 557 398 586ZM402 60T432 92T462 183Q462 258 417 288T293 319H269V160Q269 118 277 97T303 68T349 60Q402 60 432 92Z"
/>
<glyph unicode="C" glyph-name="C" horiz-adv-x="642" d="M270 -9T195 35T77 159T35 342Q35 451 82 528T206 645T375 685Q486 685 595 633Q584 570 584 478Q561 466 506 466Q504 552 472 588T380 624Q286 624 241 551T196 368Q196 236 253 153T419 70Q459 70 502
83T586 120Q594 113 600 101T609 76Q559 35 501 13T367 -9Q270 -9 195 35Z" />
<glyph unicode="D" glyph-name="D" horiz-adv-x="735" d="M498 678T599 610T700 355Q700 207 635 129T488 25T328 0Q183 0 42 -3Q42 37 48 59Q76 61 90 69T110 99T116 165V517Q116 558 111 577T91 605T48 617Q42 641 42 679Q102 676 220 676Q252 676 269 677L331
678Q498 678 599 610ZM434 62T488 120T542 338Q542 487 481 553T324 619Q290 619 269 610V168Q269 125 276 103T300 71T352 62Q434 62 488 120Z" />
<glyph unicode="E" glyph-name="E" horiz-adv-x="626" d="M578 185T599 164Q579 103 568 -2Q468 0 328 0Q183 0 42 -3Q42 37 48 59Q76 61 90 69T110 99T116 165V517Q116 558 111 577T91 605T48 617Q42 636 42 679Q120 676 267 676Q471 676 542 679Q544 637 549
589T563 510Q533 495 487 495Q478 553 446 585T337 617H268V369H297Q351 369 370 384T391 444Q421 454 462 454Q458 388 458 340Q458 285 462 223Q416 223 393 231Q389 276 369 292T297 308H268V168Q268 125 275 103T300 71T352 62H364Q414 62 444 75T491 116T523
193Q578 185 599 164Z" />
<glyph unicode="F" glyph-name="F" horiz-adv-x="592" d="M268 617V340H316Q370 340 390 356T411 416Q440 426 481 426Q478 377 478 312Q478 242 481 194Q438 194 413 202Q409 248 389 264T316 280H268V175Q268 131 277 107T308 73T369 59Q376 39 376 -3Q324 0
214 0Q97 0 42 -3Q42 41 48 59Q76 61 90 69T110 98T116 160V517Q116 558 111 577T92 605T49 617Q42 639 42 679Q123 676 266 676Q476 676 545 679Q552 567 566 510Q538 495 490 495Q482 553 450 585T341 617H268Z" />
<glyph unicode="G" glyph-name="G" horiz-adv-x="713" d="M274 -9T197 33T77 156T35 345Q35 452 80 529T206 645T388 685Q454 685 516 671T625 635Q614 572 614 480Q586 468 536 468Q532 554 495 588T389 623Q324 623 280 588T216 495T195 368Q195 279 218 209T287
98T394 57Q436 57 458 67Q475 74 483 88T491 140V181Q491 219 486 236T465 259T414 267Q407 289 407 330Q457 327 538 327Q606 327 670 329Q670 290 664 267Q645 266 637 260T625 239T622 190V157Q622 126 625 108T638 68Q591 33 523 12T378 -9Q274 -9 197 33Z"
/>
<glyph unicode="H" glyph-name="H" horiz-adv-x="780" d="M665 119T670 99T690 70T732 59Q739 39 739 -3Q687 0 597 0Q500 0 438 -3Q438 35 446 59Q474 61 487 69T506 98T512 160V317Q340 317 268 308V160Q268 119 274 99T294 70T336 59Q342 38 342 -3Q291 0 200
0Q104 0 42 -3Q42 33 49 59Q77 61 91 69T110 98T116 160V517Q116 558 111 577T92 605T49 617Q42 639 42 679Q93 676 195 676Q282 676 342 679Q342 662 341 646T335 617Q307 614 293 606T274 578T268 517V380H512V517Q512 558 507 577T488 605T445 617Q438 639 438
679Q491 676 591 676Q679 676 739 679Q739 639 731 617Q703 614 690 606T671 578T665 517V160Q665 119 670 99Z" />
<glyph unicode="I" glyph-name="I" horiz-adv-x="384" d="M116 558T111 577T92 605T49 617Q42 639 42 679Q93 676 195 676Q282 676 342 679Q342 662 341 646T335 617Q307 614 293 606T274 578T268 517V160Q268 119 274 99T294 70T336 59Q342 38 342 -3Q291 0 200
0Q104 0 42 -3Q42 33 49 59Q77 61 91 69T110 98T116 160V517Q116 558 111 577Z" />
<glyph unicode="J" glyph-name="J" horiz-adv-x="365" d="M256 30T239 -36T170 -155T21 -249Q-2 -233 -7 -196Q32 -167 55 -136T91 -61T103 50V515Q103 557 98 577T78 606T36 617Q29 639 29 679Q65 676 179 676Q294 676 330 679Q330 640 322 617Q294 614 280 605T261
576T256 515V131Q256 30 239 -36Z" />
<glyph unicode="K" glyph-name="K" horiz-adv-x="727" d="M608 108T637 87T712 61Q712 19 703 0Q656 0 591 -2T492 -8Q452 68 392 157T268 313V160Q268 119 274 99T294 70T336 59Q342 38 342 -3Q291 0 200 0Q104 0 42 -3Q42 33 49 59Q77 61 91 69T110 98T116 160V517Q116
558 111 577T92 605T49 617Q42 639 42 679Q93 676 195 676Q282 676 342 679Q342 662 341 646T335 617Q307 614 293 606T274 578T268 517V367L427 529Q470 572 470 596Q470 615 441 617Q434 638 434 679Q469 676 542 676Q636 676 673 679Q673 663 671 646T664 617Q627
615 595 597T523 536L390 398Q468 312 572 161Q608 108 637 87Z" />
<glyph unicode="L" glyph-name="L" horiz-adv-x="605" d="M428 62T460 91T514 193Q569 185 591 164Q569 95 560 -2Q458 0 328 0Q183 0 42 -3Q42 37 48 59Q76 61 90 69T110 99T116 165V517Q116 557 111 577T91 605T48 617Q42 641 42 679Q120 676 192 676Q283 676
343 679Q343 636 336 617Q308 614 294 606T275 578T269 515V168Q269 125 276 103T300 71T352 62H364Q428 62 460 91Z" />
<glyph unicode="M" glyph-name="M" horiz-adv-x="968" d="M947 37T947 -3Q905 0 785 0Q730 0 646 -3Q646 26 653 59Q690 63 703 75T716 123Q716 134 712 180L680 486L484 -1Q464 -9 424 -9L203 484L176 215Q172 180 172 150Q172 100 187 81T238 59Q244 36 244
-3Q207 0 136 0Q90 0 21 -3Q21 32 28 59Q55 61 71 74T96 121T112 217L138 510Q140 536 140 546Q140 586 125 601T74 617Q67 639 67 679Q106 676 179 676Q253 676 288 679L500 193L683 679Q728 676 798 676Q864 676 907 679Q907 641 900 617Q864 617 848 600T832
540Q832 531 834 507L866 192Q872 136 879 110T900 73T941 60Q947 37 947 -3Z" />
<glyph unicode="N" glyph-name="N" horiz-adv-x="725" d="M653 676T690 679Q690 641 684 617Q659 615 646 603T628 562T623 474V0Q596 -8 553 -8L180 488V204Q180 146 186 116T207 74T254 59Q261 39 261 -3Q218 0 149 0Q71 0 33 -3Q33 39 40 59Q70 61 86 74T109
117T116 204V574L106 587Q95 602 82 608T40 617Q33 642 33 679Q69 676 140 676Q210 676 233 679L558 240V474Q558 532 552 561T530 602T480 617Q474 645 474 679Q518 676 589 676Q653 676 690 679Z" />
<glyph unicode="O" glyph-name="O" horiz-adv-x="748" d="M271 -9T195 35T77 159T35 341Q35 444 78 522T199 642T373 685Q473 685 550 643T670 525T713 348Q713 245 671 164T551 37T373 -9Q271 -9 195 35ZM466 56T509 130T553 325Q553 407 529 475T459 582T357
622Q283 622 239 554T195 366Q195 282 217 211T282 98T389 56Q466 56 509 130Z" />
<glyph unicode="P" glyph-name="P" horiz-adv-x="643" d="M387 297T418 332T449 446Q449 524 416 569T313 615Q293 615 268 608V175Q268 131 277 107T308 73T369 59Q376 39 376 -3Q324 0 213 0Q97 0 42 -3Q42 41 48 59Q76 61 90 69T110 98T116 160V517Q116 558
111 577T92 605T49 617Q42 639 42 679Q129 676 193 676L296 677Q322 678 358 678Q608 678 608 476Q608 407 580 352T498 264T367 232Q324 232 298 242Q296 258 296 264Q296 286 303 301Q319 297 339 297Q387 297 418 332Z" />
<glyph unicode="Q" glyph-name="Q" horiz-adv-x="748" d="M779 -127T769 -156Q686 -169 611 -203Q576 -191 553 -168T505 -107Q474 -62 448 -39T374 -9H373Q271 -9 195 35T77 159T35 341Q35 444 78 522T199 642T373 685Q473 685 550 643T670 525T713 348Q713 230
658 142T506 15Q534 6 556 -6T608 -38Q651 -66 681 -79T757 -92L777 -91Q779 -127 769 -156ZM195 282T217 211T282 98T389 56Q466 56 509 130T553 325Q553 407 529 475T459 582T357 622Q283 622 239 554T195 366Q195 282 217 211Z" />
<glyph unicode="R" glyph-name="R" horiz-adv-x="703" d="M609 95T627 80T686 62Q686 27 678 0Q541 0 484 -9Q456 43 426 113L415 138Q392 190 372 220T320 281L294 280L268 281V166Q268 121 273 99T290 69T325 59Q331 43 331 -3Q271 0 181 0Q99 0 42 -3Q42 35
48 59Q76 61 90 69T110 98T116 160V518Q116 559 111 579T91 607T48 618Q42 638 42 679Q135 676 190 676Q208 676 264 678Q334 680 380 680Q496 680 555 630T615 501Q615 423 573 373T460 304Q496 281 518 251T582 142Q609 95 627 80ZM369 343T412 379T455 483Q455
547 422 582T325 618Q293 618 268 610V347Q289 343 305 343Q369 343 412 379Z" />
<glyph unicode="S" glyph-name="S" horiz-adv-x="559" d="M210 -9T156 6T46 51Q58 113 58 208Q93 218 150 218Q155 130 182 94T276 58Q332 58 359 81T386 141Q386 169 370 189T328 224T257 260Q194 289 155 314T87 383T59 490Q59 586 121 635T284 685Q338 685
391 672T473 641Q473 546 480 498Q464 490 440 486T391 482Q377 561 350 591T276 621Q234 621 209 602T184 545Q184 515 202 493T248 454T324 416Q388 386 428 361T496 294T524 191Q524 101 460 46T273 -9Q210 -9 156 6Z" />
<glyph unicode="T" glyph-name="T" horiz-adv-x="659" d="M616 601T634 502Q604 489 554 489Q546 555 520 585T441 615H406V160Q406 118 413 98T438 70T495 59Q503 40 503 -3Q445 0 337 0Q211 0 150 -3Q150 32 159 59Q198 61 217 69T245 98T253 160V615H230Q171
615 145 586T104 489Q50 489 25 502Q34 545 40 593T46 679Q118 676 333 676Q512 676 618 679Q616 601 634 502Z" />
<glyph unicode="U" glyph-name="U" horiz-adv-x="687" d="M584 183T572 131T526 46Q468 -9 355 -9Q259 -9 203 17T123 96T99 235V514Q99 557 94 576T77 604T36 617Q30 643 30 679Q70 676 157 676Q277 676 324 679Q324 640 318 617Q288 613 275 605T257 577T252
514V251Q252 157 284 109T390 60Q416 60 442 70T485 100Q503 123 511 161T520 275V486Q520 536 514 562T494 601T452 617Q447 646 447 679Q484 676 551 676Q614 676 652 679Q652 643 646 617Q620 613 607 602T589 565T584 491V273Q584 183 572 131Z" />
<glyph unicode="V" glyph-name="V" horiz-adv-x="698" d="M645 676T681 679Q681 646 673 617Q646 611 629 588T589 508Q506 293 382 -1Q361 -8 314 -8Q202 292 109 499Q86 551 74 573T51 604T23 617Q15 641 17 679Q62 676 161 676Q257 676 309 679Q309 647 303
617Q275 614 263 607T251 582Q251 561 272 513Q347 330 393 187Q467 358 524 520Q534 550 534 567Q534 610 486 617Q479 641 480 679Q517 676 581 676Q645 676 681 679Z" />
<glyph unicode="W" glyph-name="W" horiz-adv-x="993" d="M936 676T976 679Q976 640 968 617Q950 611 938 598T914 556T885 473L740 -1Q729 -5 706 -7T663 -9Q591 194 491 448L335 -2Q313 -9 258 -9Q189 223 102 491Q81 550 71 574T52 605T23 615Q17 634 17 679Q65
676 160 676Q267 676 310 679Q310 645 303 617Q271 614 257 606T243 577Q243 556 261 506Q306 369 347 228L503 677Q524 684 569 684Q653 473 743 219L822 474Q837 524 837 552Q837 582 822 597T772 617Q764 638 764 679Q806 676 874 676Q936 676 976 679Z" />
<glyph unicode="X" glyph-name="X" horiz-adv-x="702" d="M673 38T673 -3Q630 0 515 0Q423 0 363 -2Q363 34 369 59Q389 62 398 66T407 83Q407 96 396 120T361 185L314 264L255 178Q213 115 213 92Q213 78 223 71T257 59Q263 35 263 -3Q212 0 144 0Q70 0 29 -3Q29
43 37 61Q74 70 105 95T175 175L278 321Q229 399 161 502Q128 553 111 575T81 604T50 616Q42 640 42 679Q94 676 211 676Q285 676 347 678Q347 649 341 617Q320 613 310 607T300 588Q300 569 333 516L396 419L449 502Q485 561 485 585Q485 599 475 606T444 617Q438
639 438 679Q487 676 552 676Q622 676 659 679Q659 641 653 617Q627 610 611 600T576 569T529 505L434 360Q466 309 530 204Q567 142 588 113T626 74T665 59Q673 38 673 -3Z" />
<glyph unicode="Y" glyph-name="Y" horiz-adv-x="632" d="M588 676T616 678Q616 648 609 618Q586 613 567 592T525 523L397 251V182Q397 129 403 106T427 73T486 59Q495 33 495 -3Q417 0 319 0Q258 0 170 -2Q159 -3 141 -3Q141 37 150 59Q195 63 213 71T238 102T244
177V254L93 558Q78 588 62 601T24 617Q17 639 17 678Q56 676 156 676Q273 676 309 678Q309 645 303 618Q264 612 264 586Q264 569 280 535Q328 434 371 327Q409 418 461 532Q476 562 476 581Q476 612 433 617Q425 646 425 678Q456 676 526 676Q588 676 616 678Z"
/>
<glyph unicode="Z" glyph-name="Z" horiz-adv-x="606" d="M532 188T561 169Q552 134 546 85T538 -3Q451 0 278 0Q135 0 57 -3Q42 20 42 51L80 115Q173 271 237 384T365 617H272Q234 617 211 606T173 566T145 479Q86 479 61 491Q72 530 77 581T83 678Q129 676 322
676Q465 676 530 678Q546 656 547 624Q393 329 229 60H317Q371 60 400 70T447 108T478 193Q532 188 561 169Z" />
<glyph unicode="[" glyph-name="bracketleft" horiz-adv-x="294" d="M71 741T131 741Q199 741 240 742Q247 730 249 715T252 679Q201 675 178 668T146 644T137 591V-123Q137 -156 146 -172T177 -195T241 -204Q248 -219 250 -233T252 -269Q178 -267 149 -267Q119
-267 35 -269V742Q71 741 131 741Z" />
<glyph unicode="\" glyph-name="backslash" horiz-adv-x="358" d="M27 512Q46 520 77 520Q89 520 94 519L327 -13Q314 -18 296 -20T261 -21L27 512Z" />
<glyph unicode="]" glyph-name="bracketright" horiz-adv-x="294" d="M175 -267T145 -267Q116 -267 42 -269Q42 -247 44 -233T53 -204Q96 -202 117 -196T147 -173T157 -123V591Q157 627 148 643T116 667T42 679Q42 723 53 742Q95 741 163 741Q223 741 259 742V-269Q175
-267 145 -267Z" />
<glyph unicode="_" glyph-name="underscore" horiz-adv-x="550" d="M23 -106T36 -81H527Q527 -125 514 -148Q439 -147 381 -147T262 -147L103 -148L23 -149Q23 -106 36 -81Z" />
<glyph unicode="`" glyph-name="grave" horiz-adv-x="300" d="M143 584T114 621T48 693Q105 718 182 715Q210 622 252 545Q227 532 177 534Q143 584 114 621Z" />
<glyph unicode="a" glyph-name="a" horiz-adv-x="655" d="M618 42T618 -2Q588 0 492 0Q383 0 354 -2Q354 36 360 60Q381 65 391 72T401 91Q401 102 394 116L383 139Q250 139 172 130L171 127Q164 113 164 99Q164 66 205 60Q211 36 211 -2Q173 0 115 0Q54 0 37
-2Q37 32 44 61Q65 64 78 78T112 134L291 500Q305 503 319 504T350 505L550 125Q570 86 582 74T612 60Q618 42 618 -2ZM359 190L316 281L307 301Q288 338 278 368Q271 346 252 304L242 283L200 190H359Z" />
<glyph unicode="b" glyph-name="b" horiz-adv-x="660" d="M512 267T555 233T599 141Q599 74 537 37T341 0Q231 0 181 0T101 -1Q89 -2 62 -2Q62 38 68 60Q93 62 105 68T122 92T127 145V356Q127 391 122 407T105 430T67 440Q62 467 62 502Q106 500 156 500L329 502Q452
502 507 473T563 388Q563 342 528 312T427 272Q512 267 555 233ZM413 401T387 420T314 440Q292 440 275 435V290H305Q361 290 387 308T413 363Q413 401 387 420ZM384 59T410 78T436 136Q436 182 399 202T296 223H275V137Q275 91 290 75T339 59Q384 59 410 78Z"
/>
<glyph unicode="c" glyph-name="c" horiz-adv-x="615" d="M539 421T539 354Q529 348 508 346T465 343Q462 445 359 445Q282 445 246 396T209 271Q209 180 257 124T398 67Q472 67 540 96Q557 81 562 52Q513 25 464 9T351 -7Q264 -7 197 26T92 117T55 252Q55 333
96 390T206 477T355 507Q452 507 549 468Q539 421 539 354Z" />
<glyph unicode="d" glyph-name="d" horiz-adv-x="700" d="M62 38T68 60Q93 62 105 68T122 92T127 145V356Q127 391 122 407T105 430T67 440Q62 467 62 502Q136 500 227 500Q254 500 268 501L323 502Q470 502 557 451T645 263Q645 107 541 54T320 0L62 -2Q62 38
68 60ZM387 59T418 70T471 123T494 249Q494 357 446 399T319 441Q292 441 275 435V150Q275 97 289 78T346 59Q387 59 418 70Z" />
<glyph unicode="e" glyph-name="e" horiz-adv-x="611" d="M514 158T534 151T565 133Q545 81 538 -1L320 0L62 -2Q62 38 68 60Q93 62 105 68T122 92T127 145V356Q127 391 122 407T105 430T67 440Q62 460 62 502Q158 500 275 500Q470 500 513 502Q518 414 532 370Q501
356 460 356Q453 399 426 419T332 440H275V273H303Q342 273 356 284T371 322Q395 332 435 332Q432 298 432 246Q432 189 435 159Q394 159 373 167Q370 194 356 203T303 213H275V150Q275 97 289 78T346 59H359Q417 59 444 81T490 160Q514 158 534 151Z" />
<glyph unicode="f" glyph-name="f" horiz-adv-x="582" d="M275 440V250H312Q357 250 374 262T392 302Q415 311 458 311Q455 277 455 223Q455 167 458 135Q417 135 393 143Q390 172 373 181T312 191H275V152Q275 104 294 84T365 60Q372 40 372 -2Q310 0 222 0Q132
0 62 -2Q62 41 67 60Q92 62 104 69T122 93T127 146V356Q127 391 123 407T107 430T69 440Q62 462 62 502Q162 500 275 500Q475 500 518 502Q523 414 537 368Q504 354 463 354Q456 398 429 419T335 440H275Z" />
<glyph unicode="g" glyph-name="g" horiz-adv-x="672" d="M266 -7T198 26T92 118T55 253Q55 336 97 393T209 478T364 506Q421 506 477 495T569 468Q560 424 560 353Q546 345 530 344T485 342Q479 444 363 444Q288 444 251 394T214 271Q214 174 255 116T372 57Q406
57 423 61Q435 64 440 74T445 111V134Q445 154 440 164T422 179T380 186Q374 212 374 247Q405 245 491 245Q578 245 609 247Q609 210 604 186Q581 184 575 176T568 142V122Q568 98 571 85T582 52Q541 25 482 9T357 -7Q266 -7 198 26Z" />
<glyph unicode="h" glyph-name="h" horiz-adv-x="749" d="M622 109T627 92T644 68T681 59Q688 41 688 -2Q630 0 558 0Q490 0 418 -2Q418 13 420 31T425 59Q446 61 456 67T471 91T475 145V231Q339 231 275 224V145Q275 109 279 92T293 68T326 59Q332 40 332 -2Q276
0 210 0Q136 0 62 -2Q62 13 64 31T69 59Q94 61 106 67T122 91T127 145V357Q127 392 123 408T107 430T69 441Q62 463 62 502Q120 500 204 500Q264 500 332 502Q332 461 325 441Q304 438 294 431T279 406T275 353V289H475V353Q475 388 471 405T457 429T424 441Q418
465 418 502Q474 500 551 500Q616 500 688 502Q688 464 681 441Q655 438 643 432T627 409T622 357V145Q622 109 627 92Z" />
<glyph unicode="i" glyph-name="i" horiz-adv-x="401" d="M62 39T69 60Q94 62 106 68T122 92T127 146V356Q127 391 123 407T107 430T69 440Q62 462 62 502Q120 500 204 500Q268 500 340 502Q340 461 333 440Q307 437 296 431T280 408T275 356V146Q275 110 279
93T296 69T333 60Q340 40 340 -2Q282 0 210 0Q136 0 62 -2Q62 39 69 60Z" />
<glyph unicode="j" glyph-name="j" horiz-adv-x="376" d="M256 26T240 -25T176 -115T41 -184Q18 -165 13 -123Q48 -104 68 -85T98 -34T108 50V353Q108 390 104 407T88 430T50 440Q43 462 43 502Q76 500 182 500Q287 500 321 502Q321 465 314 440Q288 438 276 430T260
404T256 353V101Q256 26 240 -25Z" />
<glyph unicode="k" glyph-name="k" horiz-adv-x="700" d="M570 89T598 77T665 60Q665 21 656 0Q615 0 554 -2T463 -7Q429 51 384 106T275 227V146Q275 110 279 93T296 69T333 60Q340 40 340 -2Q282 0 210 0Q136 0 62 -2Q62 39 69 60Q94 62 106 68T122 92T127 146V356Q127
391 123 407T107 430T69 440Q62 462 62 502Q120 500 204 500Q268 500 340 502Q340 461 333 440Q307 437 296 431T280 408T275 356V270L407 372Q449 404 449 423Q449 438 423 440Q417 460 417 502Q459 500 514 500Q591 500 635 502Q635 487 633 469T626 440Q597
439 569 426T502 386L399 301Q483 200 547 119Q570 89 598 77Z" />
<glyph unicode="l" glyph-name="l" horiz-adv-x="594" d="M411 59T438 82T485 161Q508 160 528 153T559 135Q541 88 532 -1L320 0L62 -2Q62 38 68 60Q93 62 105 68T122 92T127 145V356Q127 391 122 407T105 430T67 440Q62 467 62 502H86Q162 500 201 500Q270 500
340 502Q340 457 333 440Q307 437 296 431T280 408T275 356V150Q275 97 289 78T346 59H359Q411 59 438 82Z" />
<glyph unicode="m" glyph-name="m" horiz-adv-x="903" d="M862 32T862 -2Q814 0 710 0L632 -1Q611 -2 583 -2Q583 26 590 59Q623 63 634 71T645 106Q645 114 641 154L614 358L449 14Q428 7 404 7Q391 7 384 8L204 358L181 191Q178 158 178 135Q178 92 191 77T235
59Q241 37 241 -2Q199 0 145 0L81 -1Q64 -2 41 -2Q41 34 48 59Q82 61 98 88T122 187L144 352Q146 376 146 383Q146 418 133 429T88 440Q81 462 81 502Q129 500 188 500Q252 500 292 502L460 186L614 502L723 500Q776 500 826 502Q826 459 820 440Q788 440 774 427T760
381Q760 374 762 352L790 162Q796 115 802 95T819 69T856 59Q862 32 862 -2Z" />
<glyph unicode="n" glyph-name="n" horiz-adv-x="703" d="M598 500T642 502Q642 461 637 440Q613 436 602 428T587 400T582 334V1Q560 -7 515 -7L195 350V166Q195 123 200 102T220 73T262 60Q268 38 268 -2Q218 0 168 0Q104 0 62 -2Q62 38 68 60Q96 64 110 72T130
102T136 166V416L132 420Q123 430 111 434T68 440Q62 462 62 502Q104 500 163 500Q229 500 250 502L523 190V334Q523 378 518 398T498 427T452 440Q446 460 446 502Q496 500 552 500Q598 500 642 502Z" />
<glyph unicode="o" glyph-name="o" horiz-adv-x="710" d="M262 -9T195 23T92 113T55 250Q55 329 92 387T198 476T357 507Q446 507 513 477T618 390T655 256Q655 178 618 118T512 25T351 -9Q262 -9 195 23ZM428 52T464 102T500 240Q500 335 457 391T343 448Q279
448 245 401T210 267Q210 172 251 112T363 52Q428 52 464 102Z" />
<glyph unicode="p" glyph-name="p" horiz-adv-x="623" d="M373 218T399 244T425 325Q425 376 397 407T314 439Q296 439 275 433V152Q275 104 294 84T365 60Q372 40 372 -2Q310 0 222 0Q132 0 62 -2Q62 41 67 60Q92 62 104 69T122 93T127 146V356Q127 391 123 407T107
430T69 440Q62 462 62 502L138 501Q161 500 204 500Q247 500 272 501L371 502Q474 502 521 457T568 337Q568 285 544 244T472 178T362 154Q324 154 302 161Q300 169 300 183Q300 205 307 219Q315 217 323 217T335 218Q373 218 399 244Z" />
<glyph unicode="q" glyph-name="q" horiz-adv-x="710" d="M678 -98T668 -130Q598 -136 522 -167Q492 -156 473 -137T432 -87Q407 -51 387 -33T331 -9Q248 -5 186 28T89 118T55 250Q55 329 92 387T198 476T357 507Q446 507 513 477T618 390T655 256Q655 165 605
99T466 7Q488 -1 527 -23Q568 -45 598 -54T676 -62Q678 -98 668 -130ZM210 172T251 112T363 52Q428 52 464 102T500 240Q500 335 457 391T343 448Q279 448 245 401T210 267Q210 172 251 112Z" />
<glyph unicode="r" glyph-name="r" horiz-adv-x="675" d="M567 83T585 73T638 61Q638 30 630 0Q509 0 451 -7Q437 24 395 107Q377 143 361 161T326 192L299 191L272 192V143Q272 106 276 89T289 66T319 59Q325 42 325 -2Q257 0 188 0Q134 0 62 -2Q62 38 68 59Q93
61 105 68T122 92T127 146V357Q127 393 122 409T106 431T67 442Q62 461 62 503Q149 500 188 500Q231 500 277 503Q335 505 362 505Q477 505 529 465T582 357Q582 298 544 258T443 204Q471 197 490 179T550 106Q567 83 585 73ZM364 254T398 278T433 349Q433 393
405 417T321 441Q296 441 272 435V257Q287 254 305 254Q364 254 398 278Z" />
<glyph unicode="s" glyph-name="s" horiz-adv-x="576" d="M222 -7T171 2T66 32Q77 88 77 163Q108 173 159 173Q165 113 197 87T290 60Q339 60 366 73T394 108Q394 132 366 147T280 182Q217 204 178 222T110 275T81 359Q81 433 139 469T295 506Q347 506 396 497T474
473L473 440Q473 390 480 360Q466 351 444 347T401 342Q387 396 357 419T279 442Q241 442 219 431T196 399Q196 373 226 357T319 322Q383 302 423 284T492 234T521 152Q521 78 461 36T283 -7Q222 -7 171 2Z" />
<glyph unicode="t" glyph-name="t" horiz-adv-x="644" d="M581 470T585 430T598 357Q568 346 521 344Q513 395 492 416T427 438H397V146Q397 109 403 92T425 68T477 59Q485 42 485 -2Q417 0 330 0Q227 0 153 -2Q153 11 156 28T162 59Q198 61 216 68T241 92T249
146V438H226Q178 438 156 417T121 344Q69 344 45 356Q53 386 58 428T64 502Q131 500 325 500Q516 500 582 502Q581 470 585 430Z" />
<glyph unicode="u" glyph-name="u" horiz-adv-x="665" d="M256 -7T206 11T135 70T113 178V351Q113 388 109 405T93 429T56 440Q50 464 50 502Q98 500 165 500Q267 500 323 502Q323 463 318 440Q292 436 280 429T264 405T259 351V191Q259 119 286 88T377 57Q399
57 422 65T460 89Q475 104 482 133T489 216V339Q489 377 484 397T467 426T429 440Q424 466 424 502Q470 500 519 500Q564 500 610 502Q610 459 604 440Q571 436 560 418T549 348V206Q549 138 538 97T496 32Q446 -7 343 -7Q256 -7 206 11Z" />
<glyph unicode="v" glyph-name="v" horiz-adv-x="664" d="M587 500T627 502Q627 468 620 440Q580 434 548 364Q484 225 368 0Q357 -5 338 -6T301 -7Q223 156 119 350Q97 390 87 407T67 430T43 440Q37 458 37 502Q93 500 169 500Q256 500 305 502Q305 458 299 440Q277
437 268 431T258 412Q258 396 274 367Q329 268 375 159L396 200Q451 307 478 368Q488 391 488 407Q488 436 453 440Q447 460 447 502Q491 500 540 500Q587 500 627 502Z" />
<glyph unicode="w" glyph-name="w" horiz-adv-x="919" d="M835 500T883 502Q883 463 875 440Q851 432 837 412T802 334L684 0Q672 -3 650 -5T607 -7Q558 103 480 259Q477 265 460 298L329 -1Q306 -7 253 -7Q194 155 113 339Q90 391 82 407T66 429T43 437Q37 457
37 502Q65 500 170 500Q269 500 308 502Q308 469 302 440Q275 437 263 430T250 406Q250 389 267 352Q316 244 338 187L468 500Q490 506 531 506L566 436Q575 417 613 341T686 186L743 334Q756 369 756 391Q756 413 742 424T699 440Q691 462 691 502Q741 500 791
500Q835 500 883 502Z" />
<glyph unicode="x" glyph-name="x" horiz-adv-x="678" d="M629 32T629 -2Q577 0 484 0Q394 0 340 -2Q340 33 346 59Q362 60 370 64T379 78Q379 102 329 167L305 198L260 149Q237 122 227 107T216 82Q216 73 225 68T254 59Q260 35 260 -2Q200 0 152 0Q97 0 49 -2Q49
45 56 59Q86 67 114 88T184 152L269 240L166 360Q134 397 121 411T96 432T67 441Q60 464 60 502Q122 500 220 500Q286 500 342 502Q342 471 336 441Q308 438 308 421Q308 401 340 362Q370 327 384 311L424 359Q456 397 456 418Q456 439 422 441Q417 462 417 502Q475
500 520 500Q572 500 616 502Q616 464 610 441Q573 430 555 417T499 360L420 268Q489 187 510 160L534 130Q567 88 581 76T622 59Q629 32 629 -2Z" />
<glyph unicode="y" glyph-name="y" horiz-adv-x="605" d="M542 500T568 502Q568 465 561 440Q540 437 525 426T492 381L381 180V151Q381 113 386 96T408 71T461 60Q466 44 467 32T469 -2Q422 0 304 0Q252 0 172 -2L137 -3Q139 42 146 60Q188 63 204 69T226 94T232
154V179L103 396Q89 419 75 428T43 440Q37 460 37 502Q73 500 168 500Q273 500 306 502Q306 468 301 440Q268 436 268 414Q268 399 280 378Q310 327 354 243Q393 321 431 385Q441 403 441 415Q441 439 406 440Q398 467 398 502Q427 500 488 500Q542 500 568 502Z"
/>
<glyph unicode="z" glyph-name="z" horiz-adv-x="600" d="M503 160T536 140Q529 114 522 70T514 -2Q436 0 278 0Q173 0 77 -2Q62 20 62 56Q112 126 190 227Q203 245 253 310T346 440H272Q239 440 219 431T184 399T158 330Q104 330 78 341Q89 376 94 420T99 502Q142
500 316 500Q449 500 508 502Q522 473 523 445Q475 372 430 309T317 155L246 60H312Q359 60 385 68T428 98T456 163Q503 160 536 140Z" />
<glyph unicode="{" glyph-name="braceleft" horiz-adv-x="380" d="M211 -253T170 -196T128 -57Q128 -33 132 13Q133 24 134 40T135 78Q134 132 113 167T35 220Q35 256 40 268Q94 286 115 319T137 400Q137 430 132 470Q131 479 129 502T127 545Q127 594 141 630T196
698T315 748Q330 733 330 698Q282 682 264 651T246 576Q246 550 251 519T257 481Q269 417 269 387Q269 331 240 295T135 246Q210 231 239 194T270 99Q270 66 260 -2Q250 -70 250 -100Q250 -145 269 -175T336 -220Q339 -231 339 -240Q339 -261 326 -278Q211 -253
170 -196Z" />
<glyph unicode="}" glyph-name="braceright" horiz-adv-x="380" d="M41 -261T41 -240Q41 -231 44 -220Q93 -205 112 -174T131 -95Q131 -67 121 -3Q111 63 111 94Q111 153 140 192T245 246Q171 259 142 294T112 383Q112 416 124 484Q125 492 130 522T135 576Q135
620 117 651T50 698Q50 733 66 748Q143 729 184 698T239 631T253 545Q253 512 248 474Q244 428 244 407Q244 355 264 321T340 268Q345 256 345 220Q287 201 267 165T246 70Q246 40 249 8Q250 -2 251 -22T252 -57Q252 -140 211 -196T54 -278Q41 -261 41 -240Z" />
<glyph unicode="~" glyph-name="asciitilde" horiz-adv-x="550" d="M49 192T42 215Q110 335 188 335Q211 335 234 327T288 301Q318 285 338 277T379 269Q402 269 422 281T466 324Q478 321 489 313T508 294Q444 181 371 181Q347 181 327 190T274 217Q245 234 225
242T183 251Q128 251 80 178Q49 192 42 215Z" />
<glyph unicode="&#xa0;" glyph-name="uni00A0" horiz-adv-x="200" />
<glyph unicode="&#xa1;" glyph-name="exclamdown" horiz-adv-x="411" d="M121 420T144 443T205 467Q243 467 265 446T287 387Q287 351 263 329T199 307Q165 307 143 330T121 382Q121 420 144 443ZM150 -24T165 213Q195 223 242 223Q259 -15 290 -219Q258 -223
218 -234T152 -257Q138 -253 132 -244T126 -218Q126 -213 128 -197Q150 -24 165 213Z" />
<glyph unicode="&#xa2;" glyph-name="cent" horiz-adv-x="615" d="M523 31T484 16T398 -4L399 -98Q380 -98 359 -95T327 -87V-6Q246 -2 185 32T89 123T55 252Q55 328 92 383T190 470T327 506V651Q348 651 368 647T399 637L397 505Q472 499 549 468Q539 421 539
354Q529 348 508 346T465 343Q462 424 397 441V67H398Q472 67 540 96Q557 81 562 52Q523 31 484 16ZM209 200T239 149T327 78V442Q266 432 238 385T209 271Q209 200 239 149Z" />
<glyph unicode="&#xa3;" glyph-name="sterling" horiz-adv-x="566" d="M475 169T492 158T519 135Q463 54 447 -7Q421 -7 403 -4T364 5Q320 19 296 24T230 30Q152 30 99 -6Q73 12 63 47Q113 73 135 104T157 178Q157 195 154 210L65 207Q65 251 77 276H127Q112 305
105 324T98 372Q98 437 152 472T313 507Q428 507 478 484Q473 449 473 410Q473 385 474 373Q455 364 435 362T382 358Q376 406 359 425T302 444Q276 444 261 432T245 399Q245 382 252 369T273 335Q287 315 293 303T303 276H405Q405 233 393 208L296 211Q276 156
227 105Q261 127 286 137T334 148Q352 148 367 145T386 140Q408 134 416 134Q430 134 439 142T458 172Q475 169 492 158Z" />
<glyph unicode="&#xa5;" glyph-name="yen" horiz-adv-x="605" d="M542 500T568 502Q568 465 561 440Q540 437 525 426T492 381L441 288H503Q503 258 494 228L408 229L385 187H502Q502 170 499 155T491 126H382Q384 100 390 87T413 68T461 60Q466 44 467 32T469
-2Q422 0 304 0Q252 0 172 -2L137 -3Q139 42 146 60Q183 63 199 68T223 85T231 126H100Q100 166 109 187H227L202 229L100 228Q100 264 109 288H167L103 396Q89 419 75 428T43 440Q37 460 37 502Q73 500 168 500Q273 500 306 502Q306 468 301 440Q268 436 268 414Q268
399 280 378Q310 327 354 243Q393 321 431 385Q441 403 441 415Q441 439 406 440Q398 467 398 502Q427 500 488 500Q542 500 568 502Z" />
<glyph unicode="&#xa8;" glyph-name="dieresis" horiz-adv-x="300" d="M2 518T-20 537T-42 585Q-42 617 -23 638T35 660Q74 660 94 640T114 587Q114 557 92 538T37 518Q2 518 -20 537ZM228 518T207 538T185 593Q185 624 206 642T263 660Q297 660 319 641T342 593Q342
561 324 540T267 518Q228 518 207 538Z" />
<glyph unicode="&#xa9;" glyph-name="copyright" horiz-adv-x="809" d="M499 574T578 529T703 404T749 230Q749 136 703 57T578 -68T404 -114Q308 -114 230 -69T106 55T60 230Q60 325 105 404T230 528T404 574Q499 574 578 529ZM325 518T259 480T155 376T116 230Q116
150 154 84T258 -19T404 -57Q484 -57 550 -19T654 85T692 230Q692 310 654 376T550 480T404 518Q325 518 259 480ZM458 453T490 444T557 414Q550 372 550 300Q530 288 493 288Q488 338 468 366T404 395Q327 395 327 245Q327 170 353 121T435 72Q493 72 536 115Q545
109 551 98T559 73Q499 5 396 5Q344 5 299 31T227 107T200 228Q200 295 226 346T302 425T417 453Q458 453 490 444Z" />
<glyph unicode="&#xaa;" glyph-name="ordfeminine" horiz-adv-x="438" d="M398 430T398 420Q398 398 390 385Q328 383 272 359Q243 367 243 397Q243 405 248 432Q245 420 237 407T219 386Q190 360 143 360Q39 360 39 448Q39 507 90 536T237 581Q237 613 235 627T224
653Q211 672 186 672Q165 672 154 651T139 588Q94 588 69 596Q70 605 70 623Q70 652 65 679Q132 718 205 718Q252 718 278 709T323 681Q340 662 347 636T354 562V495Q354 469 357 458T368 441T397 435Q398 430 398 420ZM237 538Q194 530 174 516T154 468Q154 447
161 438T181 428Q203 428 220 452T237 520V538Z" />
<glyph unicode="&#xab;" glyph-name="guillemotleft" horiz-adv-x="507" d="M200 309T173 266Q213 183 264 115Q257 101 245 88T217 67Q175 112 136 152T60 225Q60 256 72 286Q145 348 212 416Q246 416 271 396Q200 309 173 266ZM390 297T368 258Q407 182 447
124Q442 112 427 98T394 74Q332 150 261 221Q261 255 271 285Q332 342 388 410Q428 405 449 387Q390 297 368 258Z" />
<glyph unicode="&#xad;" glyph-name="uni00AD" horiz-adv-x="419" d="M359 253T346 218Q166 218 60 212Q60 232 64 257T77 301H359Q359 253 346 218Z" />
<glyph unicode="&#xae;" glyph-name="registered" horiz-adv-x="537" d="M327 794T374 766T449 690T477 584Q477 526 450 479T375 404T270 376Q212 376 164 403T88 478T60 584Q60 642 87 690T163 766T269 794Q327 794 374 766ZM314 425T350 446T408 503T429 584Q429
629 408 666T351 724T269 745Q224 745 187 724T129 666T108 584Q108 540 129 504T187 446T269 425Q314 425 350 446ZM339 537T361 489Q340 482 322 482L308 483Q295 522 272 550L247 551V484Q231 482 223 482Q215 482 199 484V682Q233 692 271 692Q352 692 352
628Q352 605 342 588T309 562Q339 537 361 489ZM302 581T302 620Q302 660 270 660Q263 660 247 656V584Q259 581 269 581Q302 581 302 620Z" />
<glyph unicode="&#xaf;" glyph-name="overscore" horiz-adv-x="300" d="M-38 610T-29 631H337Q337 602 328 580Q141 580 -38 573Q-38 610 -29 631Z" />
<glyph unicode="&#xb0;" glyph-name="degree" horiz-adv-x="413" d="M353 510T312 471T204 432Q137 432 99 469T60 567Q60 624 100 661T204 699Q274 699 313 663T353 568Q353 510 312 471ZM152 541T171 512T217 483Q236 483 248 502T261 557Q261 600 245 625T199
650Q179 650 166 631T152 586Q152 541 171 512Z" />
<glyph unicode="&#xb4;" glyph-name="acute" horiz-adv-x="300" d="M100 530T81 534T49 544Q93 633 112 707Q147 720 201 720Q237 718 250 715Q178 629 119 530Q100 530 81 534Z" />
<glyph unicode="&#xb6;" glyph-name="paragraph" horiz-adv-x="590" d="M537 677T567 680Q567 644 559 617Q529 615 515 606T497 577T492 517V-235Q467 -248 426 -248V615Q401 619 375 621L376 -235Q351 -248 309 -248V301Q299 300 278 300Q156 300 97 342T37
486Q37 576 104 628T317 680Q350 680 402 678L467 677Q537 677 567 680ZM309 359V621Q242 617 214 588T186 493Q186 427 221 393T306 359H309Z" />
<glyph unicode="&#xb7;" glyph-name="middot" horiz-adv-x="287" d="M104 180T82 201T60 260Q60 296 84 318T148 340Q183 340 205 317T227 265Q227 227 204 204T143 180Q104 180 82 201Z" />
<glyph unicode="&#xb8;" glyph-name="cedilla" horiz-adv-x="300" d="M69 -226T69 -199Q101 -199 124 -186T147 -151Q147 -131 130 -119T86 -106Q68 -86 68 -63L126 16H190L143 -46Q184 -53 208 -78T232 -139Q232 -188 188 -215T77 -242Q69 -226 69 -199Z" />
<glyph unicode="&#xba;" glyph-name="ordmasculine" horiz-adv-x="437" d="M308 717T354 669T401 541Q401 456 351 407T215 357Q127 357 81 403T34 532Q34 619 86 668T219 717Q308 717 354 669ZM252 409T266 440T281 520Q281 590 261 629T210 668Q183 668 169
637T155 557Q155 491 173 450T226 409Q252 409 266 440Z" />
<glyph unicode="&#xbb;" glyph-name="guillemotright" horiz-adv-x="511" d="M295 171T338 241Q296 315 241 395Q252 404 268 409T301 415Q361 356 439 291Q451 268 451 232Q371 153 295 68Q265 83 250 114Q295 171 338 241ZM104 177T139 242Q109 304 57 386Q67
394 85 401T122 410Q180 345 239 291Q249 267 249 227Q185 156 119 75Q103 83 89 96T66 123Q104 177 139 242Z" />
<glyph unicode="&#xbf;" glyph-name="questiondown" horiz-adv-x="537" d="M287 467T311 444T336 380Q336 341 309 317T240 292Q203 292 179 317T154 374Q154 415 179 441T245 467Q287 467 311 444ZM156 -258T111 -226T65 -133Q65 -86 84 -55T144 17Q182 55 201
85T220 158Q220 193 207 234Q231 248 273 248Q295 235 310 199T326 123Q326 78 310 48T262 -15Q236 -43 223 -65T210 -117Q210 -154 228 -175T271 -197Q300 -197 316 -168T342 -65Q393 -65 424 -82Q421 -120 421 -154Q421 -184 424 -214Q338 -258 240 -258Q156
-258 111 -226Z" />
<glyph unicode="&#xc0;" glyph-name="Agrave" horiz-adv-x="711" d="M695 32T695 -3Q647 0 557 0Q454 0 409 -3Q409 37 416 59Q440 64 451 71T462 93Q462 105 449 136L426 190Q293 190 182 183L169 150Q159 122 159 106Q159 65 207 59Q214 35 214 -3Q180 0 107
0Q45 0 17 -3Q17 34 25 59Q50 63 65 83T105 163L315 677Q329 680 343 681T375 682L604 169Q625 122 637 100T661 70T687 59Q695 32 695 -3ZM401 246L347 372Q321 431 300 500Q280 434 256 373L206 246H401ZM266 807T215 858Q237 869 269 874T335 878Q362 806 400
746Q367 734 326 734Q266 807 215 858Z" />
<glyph unicode="&#xc1;" glyph-name="Aacute" horiz-adv-x="711" d="M695 32T695 -3Q647 0 557 0Q454 0 409 -3Q409 37 416 59Q440 64 451 71T462 93Q462 105 449 136L426 190Q293 190 182 183L169 150Q159 122 159 106Q159 65 207 59Q214 35 214 -3Q180 0 107
0Q45 0 17 -3Q17 34 25 59Q50 63 65 83T105 163L315 677Q329 680 343 681T375 682L604 169Q625 122 637 100T661 70T687 59Q695 32 695 -3ZM401 246L347 372Q321 431 300 500Q280 434 256 373L206 246H401ZM323 734T290 746Q328 815 349 872Q387 880 422 880Q459
880 481 873Q420 806 364 734Q323 734 290 746Z" />
<glyph unicode="&#xc2;" glyph-name="Acircumflex" horiz-adv-x="711" d="M695 32T695 -3Q647 0 557 0Q454 0 409 -3Q409 37 416 59Q440 64 451 71T462 93Q462 105 449 136L426 190Q293 190 182 183L169 150Q159 122 159 106Q159 65 207 59Q214 35 214 -3Q180
0 107 0Q45 0 17 -3Q17 34 25 59Q50 63 65 83T105 163L315 677Q329 680 343 681T375 682L604 169Q625 122 637 100T661 70T687 59Q695 32 695 -3ZM401 246L347 372Q321 431 300 500Q280 434 256 373L206 246H401ZM198 732T186 745T170 773Q263 830 316 879Q344
887 382 887Q432 833 519 769Q494 736 452 728Q393 765 333 790L309 778Q238 744 214 728Q198 732 186 745Z" />
<glyph unicode="&#xc3;" glyph-name="Atilde" horiz-adv-x="711" d="M695 32T695 -3Q647 0 557 0Q454 0 409 -3Q409 37 416 59Q440 64 451 71T462 93Q462 105 449 136L426 190Q293 190 182 183L169 150Q159 122 159 106Q159 65 207 59Q214 35 214 -3Q180 0 107
0Q45 0 17 -3Q17 34 25 59Q50 63 65 83T105 163L315 677Q329 680 343 681T375 682L604 169Q625 122 637 100T661 70T687 59Q695 32 695 -3ZM401 246L347 372Q321 431 300 500Q280 434 256 373L206 246H401ZM375 741T359 746T319 764Q299 774 287 779T258 784Q219
784 183 743Q158 766 157 799Q184 836 218 853T287 870Q308 870 325 864T367 847Q389 837 400 833T426 829Q460 829 484 863Q498 861 511 854T532 838Q507 790 473 766T397 741Q375 741 359 746Z" />
<glyph unicode="&#xc4;" glyph-name="Adieresis" horiz-adv-x="711" d="M695 32T695 -3Q647 0 557 0Q454 0 409 -3Q409 37 416 59Q440 64 451 71T462 93Q462 105 449 136L426 190Q293 190 182 183L169 150Q159 122 159 106Q159 65 207 59Q214 35 214 -3Q180 0
107 0Q45 0 17 -3Q17 34 25 59Q50 63 65 83T105 163L315 677Q329 680 343 681T375 682L604 169Q625 122 637 100T661 70T687 59Q695 32 695 -3ZM401 246L347 372Q321 431 300 500Q280 434 256 373L206 246H401ZM197 725T175 744T153 792Q153 824 172 845T230 867Q269
867 289 847T309 794Q309 764 287 745T232 725Q197 725 175 744ZM423 725T402 745T380 800Q380 831 401 849T458 867Q492 867 514 848T537 800Q537 768 519 747T462 725Q423 725 402 745Z" />
<glyph unicode="&#xc5;" glyph-name="Aring" horiz-adv-x="711" d="M695 32T695 -3Q647 0 557 0Q454 0 409 -3Q409 37 416 59Q440 64 451 71T462 93Q462 105 449 136L426 190Q293 190 182 183L169 150Q159 122 159 106Q159 65 207 59Q214 35 214 -3Q180 0 107
0Q45 0 17 -3Q17 34 25 59Q50 63 65 83T105 163L315 677Q329 680 343 681T375 682L604 169Q625 122 637 100T661 70T687 59Q695 32 695 -3ZM401 246L347 372Q321 431 300 500Q280 434 256 373L206 246H401ZM293 717T262 739T230 800Q230 840 263 864T349 888Q398
888 429 867T460 806Q460 767 427 742T340 717Q293 717 262 739ZM364 757T374 768T385 799Q385 819 374 835T341 852Q325 852 316 840T306 805Q306 783 317 770T348 757Q364 757 374 768Z" />
<glyph unicode="&#xc6;" glyph-name="AE" horiz-adv-x="961" d="M912 96T903 -2Q787 0 635 0Q456 0 387 -3Q387 36 395 59Q423 62 436 70T454 100T460 165V289Q340 286 277 280Q227 194 211 163Q189 122 189 99Q189 82 200 73T235 59Q244 38 244 -3Q198 0 131
0Q47 0 17 -3Q17 39 25 59Q56 63 76 80T128 152L350 535Q367 566 367 582Q367 597 354 605T314 616Q310 625 308 644T305 678Q409 676 491 676H581Q784 676 877 679Q878 638 884 592T898 510Q888 503 866 499T822 495Q813 553 781 585T672 617H613V347H642Q692
347 709 363T726 425Q757 435 797 435Q794 396 794 320Q794 241 797 202Q773 202 757 203T728 210Q726 242 719 258T694 283T638 291H613V168Q613 123 620 101T643 70T687 62H708Q754 62 780 74T823 114T859 193Q917 181 934 164Q912 96 903 -2ZM460 347V540Q460
573 463 609Q455 591 430 546Q399 492 315 347H460Z" />
<glyph unicode="&#xc7;" glyph-name="Ccedilla" horiz-adv-x="642" d="M404 -53T428 -78T452 -139Q452 -188 408 -215T297 -242Q289 -226 289 -199Q321 -199 344 -186T367 -151Q367 -131 350 -119T306 -106Q288 -86 288 -63L329 -7Q242 1 175 47T72 170T35 342Q35
451 82 528T206 645T375 685Q486 685 595 633Q584 570 584 478Q561 466 506 466Q504 552 472 588T380 624Q286 624 241 551T196 368Q196 236 253 153T419 70Q459 70 502 83T586 120Q594 113 600 101T609 76Q515 -1 392 -8L363 -46Q404 -53 428 -78Z" />
<glyph unicode="&#xc8;" glyph-name="Egrave" horiz-adv-x="626" d="M578 185T599 164Q579 103 568 -2Q468 0 328 0Q183 0 42 -3Q42 37 48 59Q76 61 90 69T110 99T116 165V517Q116 558 111 577T91 605T48 617Q42 636 42 679Q120 676 267 676Q471 676 542 679Q544
637 549 589T563 510Q533 495 487 495Q478 553 446 585T337 617H268V369H297Q351 369 370 384T391 444Q421 454 462 454Q458 388 458 340Q458 285 462 223Q416 223 393 231Q389 276 369 292T297 308H268V168Q268 125 275 103T300 71T352 62H364Q414 62 444 75T491
116T523 193Q578 185 599 164ZM223 807T172 858Q194 869 226 874T292 878Q319 806 357 746Q324 734 283 734Q223 807 172 858Z" />
<glyph unicode="&#xc9;" glyph-name="Eacute" horiz-adv-x="626" d="M578 185T599 164Q579 103 568 -2Q468 0 328 0Q183 0 42 -3Q42 37 48 59Q76 61 90 69T110 99T116 165V517Q116 558 111 577T91 605T48 617Q42 636 42 679Q120 676 267 676Q471 676 542 679Q544
637 549 589T563 510Q533 495 487 495Q478 553 446 585T337 617H268V369H297Q351 369 370 384T391 444Q421 454 462 454Q458 388 458 340Q458 285 462 223Q416 223 393 231Q389 276 369 292T297 308H268V168Q268 125 275 103T300 71T352 62H364Q414 62 444 75T491
116T523 193Q578 185 599 164ZM280 734T247 746Q285 815 306 872Q344 880 379 880Q416 880 438 873Q377 806 321 734Q280 734 247 746Z" />
<glyph unicode="&#xca;" glyph-name="Ecircumflex" horiz-adv-x="626" d="M578 185T599 164Q579 103 568 -2Q468 0 328 0Q183 0 42 -3Q42 37 48 59Q76 61 90 69T110 99T116 165V517Q116 558 111 577T91 605T48 617Q42 636 42 679Q120 676 267 676Q471 676 542
679Q544 637 549 589T563 510Q533 495 487 495Q478 553 446 585T337 617H268V369H297Q351 369 370 384T391 444Q421 454 462 454Q458 388 458 340Q458 285 462 223Q416 223 393 231Q389 276 369 292T297 308H268V168Q268 125 275 103T300 71T352 62H364Q414 62
444 75T491 116T523 193Q578 185 599 164ZM155 732T143 745T127 773Q220 830 273 879Q301 887 339 887Q389 833 476 769Q451 736 409 728Q350 765 290 790L266 778Q195 744 171 728Q155 732 143 745Z" />
<glyph unicode="&#xcb;" glyph-name="Edieresis" horiz-adv-x="626" d="M578 185T599 164Q579 103 568 -2Q468 0 328 0Q183 0 42 -3Q42 37 48 59Q76 61 90 69T110 99T116 165V517Q116 558 111 577T91 605T48 617Q42 636 42 679Q120 676 267 676Q471 676 542 679Q544
637 549 589T563 510Q533 495 487 495Q478 553 446 585T337 617H268V369H297Q351 369 370 384T391 444Q421 454 462 454Q458 388 458 340Q458 285 462 223Q416 223 393 231Q389 276 369 292T297 308H268V168Q268 125 275 103T300 71T352 62H364Q414 62 444 75T491
116T523 193Q578 185 599 164ZM154 725T132 744T110 792Q110 824 129 845T187 867Q226 867 246 847T266 794Q266 764 244 745T189 725Q154 725 132 744ZM380 725T359 745T337 800Q337 831 358 849T415 867Q449 867 471 848T494 800Q494 768 476 747T419 725Q380
725 359 745Z" />
<glyph unicode="&#xcc;" glyph-name="Igrave" horiz-adv-x="384" d="M116 558T111 577T92 605T49 617Q42 639 42 679Q93 676 195 676Q282 676 342 679Q342 662 341 646T335 617Q307 614 293 606T274 578T268 517V160Q268 119 274 99T294 70T336 59Q342 38 342
-3Q291 0 200 0Q104 0 42 -3Q42 33 49 59Q77 61 91 69T110 98T116 160V517Q116 558 111 577ZM113 807T62 858Q84 869 116 874T182 878Q209 806 247 746Q214 734 173 734Q113 807 62 858Z" />
<glyph unicode="&#xcd;" glyph-name="Iacute" horiz-adv-x="384" d="M116 558T111 577T92 605T49 617Q42 639 42 679Q93 676 195 676Q282 676 342 679Q342 662 341 646T335 617Q307 614 293 606T274 578T268 517V160Q268 119 274 99T294 70T336 59Q342 38 342
-3Q291 0 200 0Q104 0 42 -3Q42 33 49 59Q77 61 91 69T110 98T116 160V517Q116 558 111 577ZM170 734T137 746Q175 815 196 872Q234 880 269 880Q306 880 328 873Q267 806 211 734Q170 734 137 746Z" />
<glyph unicode="&#xce;" glyph-name="Icircumflex" horiz-adv-x="384" d="M53 721T38 753Q68 778 128 836L162 869Q208 879 228 879Q268 829 347 746Q335 732 314 722T273 710Q235 742 175 776Q126 745 90 709Q53 721 38 753ZM116 558T111 577T92 605T49 617Q42
639 42 679Q93 676 195 676Q282 676 342 679Q342 662 341 646T335 617Q307 614 293 606T274 578T268 517V160Q268 119 274 99T294 70T336 59Q342 38 342 -3Q291 0 200 0Q104 0 42 -3Q42 33 49 59Q77 61 91 69T110 98T116 160V517Q116 558 111 577Z" />
<glyph unicode="&#xcf;" glyph-name="Idieresis" horiz-adv-x="384" d="M62 722T41 740T19 786Q19 816 38 836T95 857Q134 857 153 838T173 787Q173 760 151 741T97 722Q62 722 41 740ZM252 722T231 741T210 793Q210 823 231 840T287 857Q321 857 343 839T365
793Q365 763 347 743T291 722Q252 722 231 741ZM116 558T111 577T92 605T49 617Q42 639 42 679Q93 676 195 676Q282 676 342 679Q342 662 341 646T335 617Q307 614 293 606T274 578T268 517V160Q268 119 274 99T294 70T336 59Q342 38 342 -3Q291 0 200 0Q104 0
42 -3Q42 33 49 59Q77 61 91 69T110 98T116 160V517Q116 558 111 577Z" />
<glyph unicode="&#xd0;" glyph-name="Eth" horiz-adv-x="735" d="M498 678T599 610T700 355Q700 207 635 129T488 25T328 0Q183 0 42 -3Q42 37 48 59Q76 61 90 69T110 99T116 165V304L44 302Q44 348 54 375H116V517Q116 558 111 577T91 605T48 617Q42 641 42 679Q102
676 220 676Q252 676 269 677L331 678Q498 678 599 610ZM434 62T488 120T542 338Q542 487 481 553T324 619Q290 619 269 610V375H384Q384 332 373 304Q331 305 269 305V168Q269 125 276 103T300 71T352 62Q434 62 488 120Z" />
<glyph unicode="&#xd1;" glyph-name="Ntilde" horiz-adv-x="725" d="M653 676T690 679Q690 641 684 617Q659 615 646 603T628 562T623 474V0Q596 -8 553 -8L180 488V204Q180 146 186 116T207 74T254 59Q261 39 261 -3Q218 0 149 0Q71 0 33 -3Q33 39 40 59Q70 61
86 74T109 117T116 204V574L106 587Q95 602 82 608T40 617Q33 642 33 679Q69 676 140 676Q210 676 233 679L558 240V474Q558 532 552 561T530 602T480 617Q474 645 474 679Q518 676 589 676Q653 676 690 679ZM397 741T381 746T341 764Q321 774 309 779T280 784Q241
784 205 743Q180 766 179 799Q206 836 240 853T309 870Q330 870 347 864T389 847Q411 837 422 833T448 829Q482 829 506 863Q520 861 533 854T554 838Q529 790 495 766T419 741Q397 741 381 746Z" />
<glyph unicode="&#xd2;" glyph-name="Ograve" horiz-adv-x="748" d="M271 -9T195 35T77 159T35 341Q35 444 78 522T199 642T373 685Q473 685 550 643T670 525T713 348Q713 245 671 164T551 37T373 -9Q271 -9 195 35ZM466 56T509 130T553 325Q553 407 529 475T459
582T357 622Q283 622 239 554T195 366Q195 282 217 211T282 98T389 56Q466 56 509 130ZM295 807T244 858Q266 869 298 874T364 878Q391 806 429 746Q396 734 355 734Q295 807 244 858Z" />
<glyph unicode="&#xd3;" glyph-name="Oacute" horiz-adv-x="748" d="M271 -9T195 35T77 159T35 341Q35 444 78 522T199 642T373 685Q473 685 550 643T670 525T713 348Q713 245 671 164T551 37T373 -9Q271 -9 195 35ZM466 56T509 130T553 325Q553 407 529 475T459
582T357 622Q283 622 239 554T195 366Q195 282 217 211T282 98T389 56Q466 56 509 130ZM352 734T319 746Q357 815 378 872Q416 880 451 880Q488 880 510 873Q449 806 393 734Q352 734 319 746Z" />
<glyph unicode="&#xd4;" glyph-name="Ocircumflex" horiz-adv-x="748" d="M271 -9T195 35T77 159T35 341Q35 444 78 522T199 642T373 685Q473 685 550 643T670 525T713 348Q713 245 671 164T551 37T373 -9Q271 -9 195 35ZM466 56T509 130T553 325Q553 407 529
475T459 582T357 622Q283 622 239 554T195 366Q195 282 217 211T282 98T389 56Q466 56 509 130ZM227 732T215 745T199 773Q292 830 345 879Q373 887 411 887Q461 833 548 769Q523 736 481 728Q422 765 362 790L338 778Q267 744 243 728Q227 732 215 745Z" />
<glyph unicode="&#xd5;" glyph-name="Otilde" horiz-adv-x="748" d="M271 -9T195 35T77 159T35 341Q35 444 78 522T199 642T373 685Q473 685 550 643T670 525T713 348Q713 245 671 164T551 37T373 -9Q271 -9 195 35ZM466 56T509 130T553 325Q553 407 529 475T459
582T357 622Q283 622 239 554T195 366Q195 282 217 211T282 98T389 56Q466 56 509 130ZM404 741T388 746T348 764Q328 774 316 779T287 784Q248 784 212 743Q187 766 186 799Q213 836 247 853T316 870Q337 870 354 864T396 847Q418 837 429 833T455 829Q489 829
513 863Q527 861 540 854T561 838Q536 790 502 766T426 741Q404 741 388 746Z" />
<glyph unicode="&#xd6;" glyph-name="Odieresis" horiz-adv-x="748" d="M271 -9T195 35T77 159T35 341Q35 444 78 522T199 642T373 685Q473 685 550 643T670 525T713 348Q713 245 671 164T551 37T373 -9Q271 -9 195 35ZM466 56T509 130T553 325Q553 407 529 475T459
582T357 622Q283 622 239 554T195 366Q195 282 217 211T282 98T389 56Q466 56 509 130ZM226 725T204 744T182 792Q182 824 201 845T259 867Q298 867 318 847T338 794Q338 764 316 745T261 725Q226 725 204 744ZM452 725T431 745T409 800Q409 831 430 849T487 867Q521
867 543 848T566 800Q566 768 548 747T491 725Q452 725 431 745Z" />
<glyph unicode="&#xd7;" glyph-name="multiply" horiz-adv-x="550" d="M447 402T319 260L512 52Q502 38 483 29T443 20Q344 131 273 209Q203 131 109 20Q88 19 67 26T36 45L227 258Q131 362 37 460Q51 474 69 482T105 491L273 310L440 496Q462 494 483 487T512
470Q447 402 319 260Z" />
<glyph unicode="&#xd8;" glyph-name="Oslash" horiz-adv-x="748" d="M667 543T690 482T713 348Q713 245 671 164T551 37T373 -9Q265 -9 187 40L132 -27Q108 -27 87 -21T55 -5L130 85Q84 132 60 197T35 341Q35 444 78 522T199 642T373 685Q483 685 565 634L616
700Q671 700 697 680L624 587Q667 543 690 482ZM283 622T239 554T195 366Q195 271 222 196L491 546Q466 582 432 602T357 622Q283 622 239 554ZM466 56T509 130T553 325Q553 407 529 473L260 124Q310 56 389 56Q466 56 509 130Z" />
<glyph unicode="&#xd9;" glyph-name="Ugrave" horiz-adv-x="687" d="M584 183T572 131T526 46Q468 -9 355 -9Q259 -9 203 17T123 96T99 235V514Q99 557 94 576T77 604T36 617Q30 643 30 679Q70 676 157 676Q277 676 324 679Q324 640 318 617Q288 613 275 605T257
577T252 514V251Q252 157 284 109T390 60Q416 60 442 70T485 100Q503 123 511 161T520 275V486Q520 536 514 562T494 601T452 617Q447 646 447 679Q484 676 551 676Q614 676 652 679Q652 643 646 617Q620 613 607 602T589 565T584 491V273Q584 183 572 131ZM307
807T256 858Q278 869 310 874T376 878Q403 806 441 746Q408 734 367 734Q307 807 256 858Z" />
<glyph unicode="&#xda;" glyph-name="Uacute" horiz-adv-x="687" d="M584 183T572 131T526 46Q468 -9 355 -9Q259 -9 203 17T123 96T99 235V514Q99 557 94 576T77 604T36 617Q30 643 30 679Q70 676 157 676Q277 676 324 679Q324 640 318 617Q288 613 275 605T257
577T252 514V251Q252 157 284 109T390 60Q416 60 442 70T485 100Q503 123 511 161T520 275V486Q520 536 514 562T494 601T452 617Q447 646 447 679Q484 676 551 676Q614 676 652 679Q652 643 646 617Q620 613 607 602T589 565T584 491V273Q584 183 572 131ZM364
734T331 746Q369 815 390 872Q428 880 463 880Q500 880 522 873Q461 806 405 734Q364 734 331 746Z" />
<glyph unicode="&#xdb;" glyph-name="Ucircumflex" horiz-adv-x="687" d="M584 183T572 131T526 46Q468 -9 355 -9Q259 -9 203 17T123 96T99 235V514Q99 557 94 576T77 604T36 617Q30 643 30 679Q70 676 157 676Q277 676 324 679Q324 640 318 617Q288 613 275
605T257 577T252 514V251Q252 157 284 109T390 60Q416 60 442 70T485 100Q503 123 511 161T520 275V486Q520 536 514 562T494 601T452 617Q447 646 447 679Q484 676 551 676Q614 676 652 679Q652 643 646 617Q620 613 607 602T589 565T584 491V273Q584 183 572
131ZM239 732T227 745T211 773Q304 830 357 879Q385 887 423 887Q473 833 560 769Q535 736 493 728Q434 765 374 790L350 778Q279 744 255 728Q239 732 227 745Z" />
<glyph unicode="&#xdc;" glyph-name="Udieresis" horiz-adv-x="687" d="M584 183T572 131T526 46Q468 -9 355 -9Q259 -9 203 17T123 96T99 235V514Q99 557 94 576T77 604T36 617Q30 643 30 679Q70 676 157 676Q277 676 324 679Q324 640 318 617Q288 613 275 605T257
577T252 514V251Q252 157 284 109T390 60Q416 60 442 70T485 100Q503 123 511 161T520 275V486Q520 536 514 562T494 601T452 617Q447 646 447 679Q484 676 551 676Q614 676 652 679Q652 643 646 617Q620 613 607 602T589 565T584 491V273Q584 183 572 131ZM238
725T216 744T194 792Q194 824 213 845T271 867Q310 867 330 847T350 794Q350 764 328 745T273 725Q238 725 216 744ZM464 725T443 745T421 800Q421 831 442 849T499 867Q533 867 555 848T578 800Q578 768 560 747T503 725Q464 725 443 745Z" />
<glyph unicode="&#xdd;" glyph-name="Yacute" horiz-adv-x="632" d="M588 676T616 678Q616 648 609 618Q586 613 567 592T525 523L397 251V182Q397 129 403 106T427 73T486 59Q495 33 495 -3Q417 0 319 0Q258 0 170 -2Q159 -3 141 -3Q141 37 150 59Q195 63 213
71T238 102T244 177V254L93 558Q78 588 62 601T24 617Q17 639 17 678Q56 676 156 676Q273 676 309 678Q309 645 303 618Q264 612 264 586Q264 569 280 535Q328 434 371 327Q409 418 461 532Q476 562 476 581Q476 612 433 617Q425 646 425 678Q456 676 526 676Q588
676 616 678ZM341 734T308 746Q346 815 367 872Q405 880 440 880Q477 880 499 873Q438 806 382 734Q341 734 308 746Z" />
<glyph unicode="&#xde;" glyph-name="Thorn" horiz-adv-x="641" d="M395 211T427 241T459 340Q459 404 425 443T324 482Q291 482 268 475V175Q268 131 277 107T308 73T369 59Q376 39 376 -3Q322 0 210 0Q107 0 42 -3Q42 33 49 59Q77 61 91 69T110 98T116 160V517Q116
558 111 577T92 605T49 617Q42 639 42 679Q93 676 195 676Q282 676 342 679Q342 662 341 646T335 617Q298 614 284 599T269 541Q337 543 388 543Q499 543 552 491T606 357Q606 300 579 253T499 178T374 150Q331 150 304 159Q302 171 302 178Q302 197 310 213Q322
211 347 211Q395 211 427 241Z" />
<glyph unicode="&#xdf;" glyph-name="germandbls" horiz-adv-x="723" d="M594 283T631 247T668 146Q668 70 613 32T453 -7Q403 -7 371 0T309 22Q320 62 320 131Q353 143 403 143Q404 105 410 88T427 66T461 61Q494 61 511 73T528 126Q528 184 490 209T370 239Q364
250 359 272T353 309Q413 358 466 436L436 437Q394 440 363 440Q326 440 305 431T274 395T263 314V-3Q236 0 179 0Q130 0 50 -2Q50 13 52 31T58 60Q83 62 94 68T110 91T115 143V305Q115 416 181 460T368 505Q387 505 421 503Q449 500 491 500Q530 500 613 505Q619
494 624 472T630 435Q590 363 525 297Q594 283 631 247Z" />
<glyph unicode="&#xe0;" glyph-name="agrave" horiz-adv-x="655" d="M618 42T618 -2Q588 0 492 0Q383 0 354 -2Q354 36 360 60Q381 65 391 72T401 91Q401 102 394 116L383 139Q250 139 172 130L171 127Q164 113 164 99Q164 66 205 60Q211 36 211 -2Q173 0 115
0Q54 0 37 -2Q37 32 44 61Q65 64 78 78T112 134L291 500Q305 503 319 504T350 505L550 125Q570 86 582 74T612 60Q618 42 618 -2ZM359 190L316 281L307 301Q288 338 278 368Q271 346 252 304L242 283L200 190H359ZM267 626T238 663T172 735Q229 760 306 757Q334
664 376 587Q351 574 301 576Q267 626 238 663Z" />
<glyph unicode="&#xe1;" glyph-name="aacute" horiz-adv-x="655" d="M618 42T618 -2Q588 0 492 0Q383 0 354 -2Q354 36 360 60Q381 65 391 72T401 91Q401 102 394 116L383 139Q250 139 172 130L171 127Q164 113 164 99Q164 66 205 60Q211 36 211 -2Q173 0 115
0Q54 0 37 -2Q37 32 44 61Q65 64 78 78T112 134L291 500Q305 503 319 504T350 505L550 125Q570 86 582 74T612 60Q618 42 618 -2ZM359 190L316 281L307 301Q288 338 278 368Q271 346 252 304L242 283L200 190H359ZM327 572T308 576T276 586Q320 675 339 749Q374
762 428 762Q464 760 477 757Q405 671 346 572Q327 572 308 576Z" />
<glyph unicode="&#xe2;" glyph-name="acircumflex" horiz-adv-x="655" d="M618 42T618 -2Q588 0 492 0Q383 0 354 -2Q354 36 360 60Q381 65 391 72T401 91Q401 102 394 116L383 139Q250 139 172 130L171 127Q164 113 164 99Q164 66 205 60Q211 36 211 -2Q173 0
115 0Q54 0 37 -2Q37 32 44 61Q65 64 78 78T112 134L291 500Q305 503 319 504T350 505L550 125Q570 86 582 74T612 60Q618 42 618 -2ZM359 190L316 281L307 301Q288 338 278 368Q271 346 252 304L242 283L200 190H359ZM163 564T152 578T138 606Q180 635 224 673T301
749Q331 759 364 759Q425 680 517 597Q493 568 454 561Q422 584 384 609T317 649Q292 635 247 606T177 558Q163 564 152 578Z" />
<glyph unicode="&#xe3;" glyph-name="atilde" horiz-adv-x="655" d="M618 42T618 -2Q588 0 492 0Q383 0 354 -2Q354 36 360 60Q381 65 391 72T401 91Q401 102 394 116L383 139Q250 139 172 130L171 127Q164 113 164 99Q164 66 205 60Q211 36 211 -2Q173 0 115
0Q54 0 37 -2Q37 32 44 61Q65 64 78 78T112 134L291 500Q305 503 319 504T350 505L550 125Q570 86 582 74T612 60Q618 42 618 -2ZM359 190L316 281L307 301Q288 338 278 368Q271 346 252 304L242 283L200 190H359ZM361 586T346 592T305 611Q284 623 269 629T237
635Q193 635 152 590Q128 611 127 643Q190 721 259 721Q279 721 295 715T336 696Q355 686 369 681T399 675Q436 675 465 712Q496 708 513 690Q482 636 450 611T381 586Q361 586 346 592Z" />
<glyph unicode="&#xe4;" glyph-name="adieresis" horiz-adv-x="655" d="M618 42T618 -2Q588 0 492 0Q383 0 354 -2Q354 36 360 60Q381 65 391 72T401 91Q401 102 394 116L383 139Q250 139 172 130L171 127Q164 113 164 99Q164 66 205 60Q211 36 211 -2Q173 0 115
0Q54 0 37 -2Q37 32 44 61Q65 64 78 78T112 134L291 500Q305 503 319 504T350 505L550 125Q570 86 582 74T612 60Q618 42 618 -2ZM359 190L316 281L307 301Q288 338 278 368Q271 346 252 304L242 283L200 190H359ZM172 560T150 579T128 627Q128 659 147 680T205
702Q244 702 264 682T284 629Q284 599 262 580T207 560Q172 560 150 579ZM398 560T377 580T355 635Q355 666 376 684T433 702Q467 702 489 683T512 635Q512 603 494 582T437 560Q398 560 377 580Z" />
<glyph unicode="&#xe5;" glyph-name="aring" horiz-adv-x="655" d="M618 42T618 -2Q588 0 492 0Q383 0 354 -2Q354 36 360 60Q381 65 391 72T401 91Q401 102 394 116L383 139Q250 139 172 130L171 127Q164 113 164 99Q164 66 205 60Q211 36 211 -2Q173 0 115 0Q54
0 37 -2Q37 32 44 61Q65 64 78 78T112 134L291 500Q305 503 319 504T350 505L550 125Q570 86 582 74T612 60Q618 42 618 -2ZM359 190L316 281L307 301Q288 338 278 368Q271 346 252 304L242 283L200 190H359ZM266 562T233 588T199 659Q199 704 234 733T324 762Q375
762 408 738T441 666Q441 621 406 592T315 562Q266 562 233 588ZM339 612T349 624T360 657Q360 679 349 697T317 716Q300 716 291 703T281 664Q281 642 292 627T324 612Q339 612 349 624Z" />
<glyph unicode="&#xe6;" glyph-name="ae" horiz-adv-x="907" d="M851 109T844 72T834 -1L594 0Q422 0 364 -3Q364 40 371 60Q395 62 407 68T423 92T428 145V207Q310 202 260 194L212 128Q195 107 195 90Q195 66 235 60Q243 40 243 -2Q189 0 142 0Q73 0 37 -2Q37
41 44 61Q72 64 90 74T134 112L327 379Q342 402 342 414Q342 426 331 432T297 440Q294 447 291 468T287 502Q379 500 458 500H551Q727 500 809 503Q810 467 815 431T828 368Q820 362 796 358T754 354Q746 399 719 419T625 440H576V262H596Q628 262 641 265T661
279T668 317Q696 328 734 328Q732 303 732 239Q732 172 734 149Q711 149 696 150T669 157Q667 183 661 193T641 207T594 210H576V150Q576 97 591 78T642 59H660Q698 59 719 67T756 97T788 161Q810 158 830 151T861 135Q851 109 844 72ZM428 262V400Q428 420 431
447Q415 420 404 404L307 262H428Z" />
<glyph unicode="&#xe7;" glyph-name="ccedilla" horiz-adv-x="615" d="M389 -53T413 -78T437 -139Q437 -188 393 -215T282 -242Q274 -226 274 -199Q306 -199 329 -186T352 -151Q352 -131 335 -119T291 -106Q273 -86 273 -63L315 -6Q237 1 178 35T87 126T55 252Q55
333 96 390T206 477T355 507Q452 507 549 468Q539 421 539 354Q529 348 508 346T465 343Q462 445 359 445Q282 445 246 396T209 271Q209 180 257 124T398 67Q472 67 540 96Q557 81 562 52Q518 28 475 13T378 -6L348 -46Q389 -53 413 -78Z" />
<glyph unicode="&#xe8;" glyph-name="egrave" horiz-adv-x="611" d="M514 158T534 151T565 133Q545 81 538 -1L320 0L62 -2Q62 38 68 60Q93 62 105 68T122 92T127 145V356Q127 391 122 407T105 430T67 440Q62 460 62 502Q158 500 275 500Q470 500 513 502Q518
414 532 370Q501 356 460 356Q453 399 426 419T332 440H275V273H303Q342 273 356 284T371 322Q395 332 435 332Q432 298 432 246Q432 189 435 159Q394 159 373 167Q370 194 356 203T303 213H275V150Q275 97 289 78T346 59H359Q417 59 444 81T490 160Q514 158 534
151ZM245 626T216 663T150 735Q207 760 284 757Q312 664 354 587Q329 574 279 576Q245 626 216 663Z" />
<glyph unicode="&#xe9;" glyph-name="eacute" horiz-adv-x="611" d="M514 158T534 151T565 133Q545 81 538 -1L320 0L62 -2Q62 38 68 60Q93 62 105 68T122 92T127 145V356Q127 391 122 407T105 430T67 440Q62 460 62 502Q158 500 275 500Q470 500 513 502Q518
414 532 370Q501 356 460 356Q453 399 426 419T332 440H275V273H303Q342 273 356 284T371 322Q395 332 435 332Q432 298 432 246Q432 189 435 159Q394 159 373 167Q370 194 356 203T303 213H275V150Q275 97 289 78T346 59H359Q417 59 444 81T490 160Q514 158 534
151ZM305 572T286 576T254 586Q298 675 317 749Q352 762 406 762Q442 760 455 757Q383 671 324 572Q305 572 286 576Z" />
<glyph unicode="&#xea;" glyph-name="ecircumflex" horiz-adv-x="611" d="M514 158T534 151T565 133Q545 81 538 -1L320 0L62 -2Q62 38 68 60Q93 62 105 68T122 92T127 145V356Q127 391 122 407T105 430T67 440Q62 460 62 502Q158 500 275 500Q470 500 513 502Q518
414 532 370Q501 356 460 356Q453 399 426 419T332 440H275V273H303Q342 273 356 284T371 322Q395 332 435 332Q432 298 432 246Q432 189 435 159Q394 159 373 167Q370 194 356 203T303 213H275V150Q275 97 289 78T346 59H359Q417 59 444 81T490 160Q514 158 534
151ZM141 564T130 578T116 606Q158 635 202 673T279 749Q309 759 342 759Q403 680 495 597Q471 568 432 561Q400 584 362 609T295 649Q270 635 225 606T155 558Q141 564 130 578Z" />
<glyph unicode="&#xeb;" glyph-name="edieresis" horiz-adv-x="611" d="M514 158T534 151T565 133Q545 81 538 -1L320 0L62 -2Q62 38 68 60Q93 62 105 68T122 92T127 145V356Q127 391 122 407T105 430T67 440Q62 460 62 502Q158 500 275 500Q470 500 513 502Q518
414 532 370Q501 356 460 356Q453 399 426 419T332 440H275V273H303Q342 273 356 284T371 322Q395 332 435 332Q432 298 432 246Q432 189 435 159Q394 159 373 167Q370 194 356 203T303 213H275V150Q275 97 289 78T346 59H359Q417 59 444 81T490 160Q514 158 534
151ZM150 560T128 579T106 627Q106 659 125 680T183 702Q222 702 242 682T262 629Q262 599 240 580T185 560Q150 560 128 579ZM376 560T355 580T333 635Q333 666 354 684T411 702Q445 702 467 683T490 635Q490 603 472 582T415 560Q376 560 355 580Z" />
<glyph unicode="&#xec;" glyph-name="igrave" horiz-adv-x="401" d="M62 39T69 60Q94 62 106 68T122 92T127 146V356Q127 391 123 407T107 430T69 440Q62 462 62 502Q120 500 204 500Q268 500 340 502Q340 461 333 440Q307 437 296 431T280 408T275 356V146Q275
110 279 93T296 69T333 60Q340 40 340 -2Q282 0 210 0Q136 0 62 -2Q62 39 69 60ZM147 626T118 663T52 735Q109 760 186 757Q214 664 256 587Q231 574 181 576Q147 626 118 663Z" />
<glyph unicode="&#xed;" glyph-name="iacute" horiz-adv-x="401" d="M62 39T69 60Q94 62 106 68T122 92T127 146V356Q127 391 123 407T107 430T69 440Q62 462 62 502Q120 500 204 500Q268 500 340 502Q340 461 333 440Q307 437 296 431T280 408T275 356V146Q275
110 279 93T296 69T333 60Q340 40 340 -2Q282 0 210 0Q136 0 62 -2Q62 39 69 60ZM207 572T188 576T156 586Q200 675 219 749Q254 762 308 762Q344 760 357 757Q285 671 226 572Q207 572 188 576Z" />
<glyph unicode="&#xee;" glyph-name="icircumflex" horiz-adv-x="401" d="M61 573T46 605Q78 638 151 726L170 749Q211 758 236 758Q280 690 355 594Q343 582 323 573T281 561Q231 614 183 650Q131 601 98 558Q61 573 46 605ZM62 39T69 60Q94 62 106 68T122 92T127
146V356Q127 391 123 407T107 430T69 440Q62 462 62 502Q120 500 204 500Q268 500 340 502Q340 461 333 440Q307 437 296 431T280 408T275 356V146Q275 110 279 93T296 69T333 60Q340 40 340 -2Q282 0 210 0Q136 0 62 -2Q62 39 69 60Z" />
<glyph unicode="&#xef;" glyph-name="idieresis" horiz-adv-x="401" d="M69 560T47 579T25 627Q25 659 44 680T101 702Q141 702 161 682T181 629Q181 599 159 580T104 560Q69 560 47 579ZM260 560T239 580T217 635Q217 666 238 684T295 702Q329 702 351 683T374
635Q374 603 356 582T299 560Q260 560 239 580ZM62 39T69 60Q94 62 106 68T122 92T127 146V356Q127 391 123 407T107 430T69 440Q62 462 62 502Q120 500 204 500Q268 500 340 502Q340 461 333 440Q307 437 296 431T280 408T275 356V146Q275 110 279 93T296 69T333
60Q340 40 340 -2Q282 0 210 0Q136 0 62 -2Q62 39 69 60Z" />
<glyph unicode="&#xf0;" glyph-name="eth" horiz-adv-x="700" d="M470 502T557 451T645 263Q645 107 541 54T320 0L62 -2Q62 38 68 60Q93 62 105 68T122 92T127 145V225Q106 225 64 223Q64 253 72 279H127V356Q127 391 122 407T105 430T67 440Q62 467 62 502Q136
500 227 500Q254 500 268 501L323 502Q470 502 557 451ZM387 59T418 70T471 123T494 249Q494 357 446 399T319 441Q292 441 275 435V279H359Q359 257 351 228H275V150Q275 97 289 78T346 59Q387 59 418 70Z" />
<glyph unicode="&#xf1;" glyph-name="ntilde" horiz-adv-x="703" d="M598 500T642 502Q642 461 637 440Q613 436 602 428T587 400T582 334V1Q560 -7 515 -7L195 350V166Q195 123 200 102T220 73T262 60Q268 38 268 -2Q218 0 168 0Q104 0 62 -2Q62 38 68 60Q96
64 110 72T130 102T136 166V416L132 420Q123 430 111 434T68 440Q62 462 62 502Q104 500 163 500Q229 500 250 502L523 190V334Q523 378 518 398T498 427T452 440Q446 460 446 502Q496 500 552 500Q598 500 642 502ZM399 586T384 592T343 611Q322 623 307 629T275
635Q231 635 190 590Q166 611 165 643Q228 721 297 721Q317 721 333 715T374 696Q393 686 407 681T437 675Q474 675 503 712Q534 708 551 690Q520 636 488 611T419 586Q399 586 384 592Z" />
<glyph unicode="&#xf2;" glyph-name="ograve" horiz-adv-x="710" d="M262 -9T195 23T92 113T55 250Q55 329 92 387T198 476T357 507Q446 507 513 477T618 390T655 256Q655 178 618 118T512 25T351 -9Q262 -9 195 23ZM428 52T464 102T500 240Q500 335 457 391T343
448Q279 448 245 401T210 267Q210 172 251 112T363 52Q428 52 464 102ZM302 626T273 663T207 735Q264 760 341 757Q369 664 411 587Q386 574 336 576Q302 626 273 663Z" />
<glyph unicode="&#xf3;" glyph-name="oacute" horiz-adv-x="710" d="M262 -9T195 23T92 113T55 250Q55 329 92 387T198 476T357 507Q446 507 513 477T618 390T655 256Q655 178 618 118T512 25T351 -9Q262 -9 195 23ZM428 52T464 102T500 240Q500 335 457 391T343
448Q279 448 245 401T210 267Q210 172 251 112T363 52Q428 52 464 102ZM362 572T343 576T311 586Q355 675 374 749Q409 762 463 762Q499 760 512 757Q440 671 381 572Q362 572 343 576Z" />
<glyph unicode="&#xf4;" glyph-name="ocircumflex" horiz-adv-x="710" d="M262 -9T195 23T92 113T55 250Q55 329 92 387T198 476T357 507Q446 507 513 477T618 390T655 256Q655 178 618 118T512 25T351 -9Q262 -9 195 23ZM428 52T464 102T500 240Q500 335 457
391T343 448Q279 448 245 401T210 267Q210 172 251 112T363 52Q428 52 464 102ZM198 564T187 578T173 606Q215 635 259 673T336 749Q366 759 399 759Q460 680 552 597Q528 568 489 561Q457 584 419 609T352 649Q327 635 282 606T212 558Q198 564 187 578Z" />
<glyph unicode="&#xf5;" glyph-name="otilde" horiz-adv-x="710" d="M262 -9T195 23T92 113T55 250Q55 329 92 387T198 476T357 507Q446 507 513 477T618 390T655 256Q655 178 618 118T512 25T351 -9Q262 -9 195 23ZM428 52T464 102T500 240Q500 335 457 391T343
448Q279 448 245 401T210 267Q210 172 251 112T363 52Q428 52 464 102ZM396 586T381 592T340 611Q319 623 304 629T272 635Q228 635 187 590Q163 611 162 643Q225 721 294 721Q314 721 330 715T371 696Q390 686 404 681T434 675Q471 675 500 712Q531 708 548 690Q517
636 485 611T416 586Q396 586 381 592Z" />
<glyph unicode="&#xf6;" glyph-name="odieresis" horiz-adv-x="710" d="M262 -9T195 23T92 113T55 250Q55 329 92 387T198 476T357 507Q446 507 513 477T618 390T655 256Q655 178 618 118T512 25T351 -9Q262 -9 195 23ZM428 52T464 102T500 240Q500 335 457 391T343
448Q279 448 245 401T210 267Q210 172 251 112T363 52Q428 52 464 102ZM207 560T185 579T163 627Q163 659 182 680T240 702Q279 702 299 682T319 629Q319 599 297 580T242 560Q207 560 185 579ZM433 560T412 580T390 635Q390 666 411 684T468 702Q502 702 524 683T547
635Q547 603 529 582T472 560Q433 560 412 580Z" />
<glyph unicode="&#xf7;" glyph-name="divide" horiz-adv-x="550" d="M243 363T225 381T206 434Q206 466 226 483T277 500Q306 500 325 484T345 440Q345 407 328 385T280 363Q243 363 225 381ZM37 244T40 264T48 299H513Q513 252 502 229Q394 231 285 231Q233 231
129 229L37 228Q37 244 40 264ZM246 26T227 45T207 93Q207 123 223 142T274 161Q310 161 327 143T344 93Q344 63 325 45T276 26Q246 26 227 45Z" />
<glyph unicode="&#xf8;" glyph-name="oslash" horiz-adv-x="710" d="M615 403T635 358T655 256Q655 178 618 118T512 25T351 -9Q266 -9 202 20L150 -41Q125 -41 105 -37T73 -24L143 56Q101 90 78 139T55 250Q55 329 92 387T198 476T357 507Q448 507 517 475L571
538Q594 538 615 533T650 518L578 436Q615 403 635 358ZM279 448T245 401T210 267Q210 205 229 154L447 403Q405 448 343 448Q279 448 245 401ZM428 52T464 102T500 240Q500 292 486 336L269 90Q309 52 363 52Q428 52 464 102Z" />
<glyph unicode="&#xf9;" glyph-name="ugrave" horiz-adv-x="665" d="M256 -7T206 11T135 70T113 178V351Q113 388 109 405T93 429T56 440Q50 464 50 502Q98 500 165 500Q267 500 323 502Q323 463 318 440Q292 436 280 429T264 405T259 351V191Q259 119 286 88T377
57Q399 57 422 65T460 89Q475 104 482 133T489 216V339Q489 377 484 397T467 426T429 440Q424 466 424 502Q470 500 519 500Q564 500 610 502Q610 459 604 440Q571 436 560 418T549 348V206Q549 138 538 97T496 32Q446 -7 343 -7Q256 -7 206 11ZM321 626T292 663T226
735Q283 760 360 757Q388 664 430 587Q405 574 355 576Q321 626 292 663Z" />
<glyph unicode="&#xfa;" glyph-name="uacute" horiz-adv-x="665" d="M256 -7T206 11T135 70T113 178V351Q113 388 109 405T93 429T56 440Q50 464 50 502Q98 500 165 500Q267 500 323 502Q323 463 318 440Q292 436 280 429T264 405T259 351V191Q259 119 286 88T377
57Q399 57 422 65T460 89Q475 104 482 133T489 216V339Q489 377 484 397T467 426T429 440Q424 466 424 502Q470 500 519 500Q564 500 610 502Q610 459 604 440Q571 436 560 418T549 348V206Q549 138 538 97T496 32Q446 -7 343 -7Q256 -7 206 11ZM381 572T362 576T330
586Q374 675 393 749Q428 762 482 762Q518 760 531 757Q459 671 400 572Q381 572 362 576Z" />
<glyph unicode="&#xfb;" glyph-name="ucircumflex" horiz-adv-x="665" d="M256 -7T206 11T135 70T113 178V351Q113 388 109 405T93 429T56 440Q50 464 50 502Q98 500 165 500Q267 500 323 502Q323 463 318 440Q292 436 280 429T264 405T259 351V191Q259 119 286
88T377 57Q399 57 422 65T460 89Q475 104 482 133T489 216V339Q489 377 484 397T467 426T429 440Q424 466 424 502Q470 500 519 500Q564 500 610 502Q610 459 604 440Q571 436 560 418T549 348V206Q549 138 538 97T496 32Q446 -7 343 -7Q256 -7 206 11ZM217 564T206
578T192 606Q234 635 278 673T355 749Q385 759 418 759Q479 680 571 597Q547 568 508 561Q476 584 438 609T371 649Q346 635 301 606T231 558Q217 564 206 578Z" />
<glyph unicode="&#xfc;" glyph-name="udieresis" horiz-adv-x="665" d="M256 -7T206 11T135 70T113 178V351Q113 388 109 405T93 429T56 440Q50 464 50 502Q98 500 165 500Q267 500 323 502Q323 463 318 440Q292 436 280 429T264 405T259 351V191Q259 119 286
88T377 57Q399 57 422 65T460 89Q475 104 482 133T489 216V339Q489 377 484 397T467 426T429 440Q424 466 424 502Q470 500 519 500Q564 500 610 502Q610 459 604 440Q571 436 560 418T549 348V206Q549 138 538 97T496 32Q446 -7 343 -7Q256 -7 206 11ZM226 560T204
579T182 627Q182 659 201 680T259 702Q298 702 318 682T338 629Q338 599 316 580T261 560Q226 560 204 579ZM452 560T431 580T409 635Q409 666 430 684T487 702Q521 702 543 683T566 635Q566 603 548 582T491 560Q452 560 431 580Z" />
<glyph unicode="&#xfd;" glyph-name="yacute" horiz-adv-x="605" d="M542 500T568 502Q568 465 561 440Q540 437 525 426T492 381L381 180V151Q381 113 386 96T408 71T461 60Q466 44 467 32T469 -2Q422 0 304 0Q252 0 172 -2L137 -3Q139 42 146 60Q188 63 204
69T226 94T232 154V179L103 396Q89 419 75 428T43 440Q37 460 37 502Q73 500 168 500Q273 500 306 502Q306 468 301 440Q268 436 268 414Q268 399 280 378Q310 327 354 243Q393 321 431 385Q441 403 441 415Q441 439 406 440Q398 467 398 502Q427 500 488 500Q542
500 568 502ZM355 572T336 576T304 586Q348 675 367 749Q402 762 456 762Q492 760 505 757Q433 671 374 572Q355 572 336 576Z" />
<glyph unicode="&#xfe;" glyph-name="thorn" horiz-adv-x="623" d="M373 175T399 196T426 258Q426 294 398 317T316 340Q291 340 275 336V152Q275 104 294 84T365 60Q372 40 372 -2Q308 0 218 0Q140 0 62 -2Q62 39 69 60Q94 62 106 68T122 92T127 146V356Q127
391 123 407T107 430T69 440Q62 462 62 502Q120 500 204 500Q268 500 340 502Q340 461 333 440Q306 437 294 430T278 403Q306 404 375 404Q474 404 521 366T568 266Q568 194 514 152T363 110Q320 110 301 116Q300 123 300 134Q300 156 308 174L336 175Q373 175
399 196Z" />
<glyph unicode="&#xff;" glyph-name="ydieresis" horiz-adv-x="605" d="M542 500T568 502Q568 465 561 440Q540 437 525 426T492 381L381 180V151Q381 113 386 96T408 71T461 60Q466 44 467 32T469 -2Q422 0 304 0Q252 0 172 -2L137 -3Q139 42 146 60Q188 63 204
69T226 94T232 154V179L103 396Q89 419 75 428T43 440Q37 460 37 502Q73 500 168 500Q273 500 306 502Q306 468 301 440Q268 436 268 414Q268 399 280 378Q310 327 354 243Q393 321 431 385Q441 403 441 415Q441 439 406 440Q398 467 398 502Q427 500 488 500Q542
500 568 502ZM200 560T178 579T156 627Q156 659 175 680T233 702Q272 702 292 682T312 629Q312 599 290 580T235 560Q200 560 178 579ZM426 560T405 580T383 635Q383 666 404 684T461 702Q495 702 517 683T540 635Q540 603 522 582T465 560Q426 560 405 580Z" />
<glyph unicode="&#x2013;" glyph-name="endash" horiz-adv-x="583" d="M523 251T509 225Q268 225 60 220Q60 240 64 261T74 296H523Q523 251 509 225Z" />
<glyph unicode="&#x2014;" glyph-name="emdash" horiz-adv-x="1042" d="M982 252T969 225Q341 225 60 221Q60 240 64 262T73 295H982Q982 252 969 225Z" />
<glyph unicode="&#x2018;" glyph-name="quoteleft" horiz-adv-x="283" d="M60 579T83 630T151 724Q188 724 211 707Q183 675 173 654T163 605Q163 584 177 573T223 557Q223 506 211 466Q145 461 105 435Q81 443 71 463T60 523Q60 579 83 630Z" />
<glyph unicode="&#x2019;" glyph-name="quoteright" horiz-adv-x="283" d="M223 580T200 529T132 435Q95 435 72 452Q100 484 110 505T120 554Q120 575 106 586T60 602Q60 653 72 693Q138 698 178 724Q202 716 212 696T223 636Q223 580 200 529Z" />
<glyph unicode="&#x201a;" glyph-name="quotesinglbase" horiz-adv-x="283" d="M223 -12T200 -63T132 -157Q95 -157 72 -140Q100 -108 110 -87T120 -38Q120 -17 106 -6T60 10Q60 61 72 101Q138 106 178 132Q202 124 212 104T223 44Q223 -12 200 -63Z" />
<glyph unicode="&#x201c;" glyph-name="quotedblleft" horiz-adv-x="460" d="M60 576T84 629T150 723Q184 724 210 708Q162 654 162 605Q162 584 174 572T215 557Q217 502 203 467Q145 462 105 435Q81 444 71 464T60 525Q60 576 84 629ZM243 578T265 628T328 718Q364
718 387 702Q341 650 341 605Q341 563 400 557Q401 510 388 468Q324 462 286 437Q262 446 253 466T243 527Q243 578 265 628Z" />
<glyph unicode="&#x201d;" glyph-name="quotedblright" horiz-adv-x="460" d="M400 584T376 531T310 437Q276 436 250 452Q298 506 298 555Q298 576 286 588T245 603Q243 658 257 693Q315 698 355 725Q379 716 389 696T400 635Q400 584 376 531ZM217 582T195 532T132
442Q96 442 73 458Q119 510 119 555Q119 597 60 603Q59 650 72 692Q136 698 174 723Q198 714 207 694T217 633Q217 582 195 532Z" />
<glyph unicode="&#x201e;" glyph-name="quotedblbase" horiz-adv-x="460" d="M400 -10T376 -63T310 -157Q276 -158 250 -142Q298 -88 298 -39Q298 -18 286 -6T245 9Q243 64 257 99Q315 104 355 131Q379 122 389 102T400 41Q400 -10 376 -63ZM217 -12T195 -62T132
-152Q96 -152 73 -136Q119 -84 119 -39Q119 3 60 9Q59 56 72 98Q136 104 174 129Q198 120 207 100T217 39Q217 -12 195 -62Z" />
<glyph unicode="&#x2022;" glyph-name="bullet" horiz-adv-x="395" d="M132 124T96 164T60 261Q60 316 99 352T200 388Q263 388 299 351T335 260Q335 200 299 162T200 124Q132 124 96 164Z" />
<glyph unicode="&#x2039;" glyph-name="guilsinglleft" horiz-adv-x="317" d="M206 319T173 258Q206 193 258 125Q252 111 237 95T207 71Q128 164 60 221Q60 237 63 255T70 286Q130 336 198 412Q214 411 232 404T260 389Q206 319 173 258Z" />
<glyph unicode="&#x203a;" glyph-name="guilsinglright" horiz-adv-x="328" d="M111 169T155 241Q120 308 57 395Q84 415 118 415Q178 356 256 291Q268 264 268 232Q177 143 112 68Q82 85 66 114Q111 169 155 241Z" />
</font>
</defs>
</svg>
