<?xml version="1.0" standalone="no"?>
<!DOCTYPE svg PUBLIC "-//W3C//DTD SVG 1.1//EN" "http://www.w3.org/Graphics/SVG/1.1/DTD/svg11.dtd">
<svg xmlns="http://www.w3.org/2000/svg">
<defs >
<font id="Vollkorn" horiz-adv-x="549" ><font-face
    font-family="Vollkorn Medium"
    units-per-em="1000"
    panose-1="0 0 0 0 0 0 0 0 0 0"
    ascent="952"
    descent="-441"
    alphabetic="0" />
<glyph unicode=" " horiz-adv-x="183" />
<glyph unicode="!" horiz-adv-x="416" d="M336 714Q352 709 355 696T350 656Q336 606 317 535T279 383T242 228Q228 227 214 228T189 235Q200 326 207 401T218 544T226 680Q252 685 284 694T336 714ZM180 -8Q148 -8 132 12T122 65Q127 88 144 103T187 118Q206
118 219 109T240 84T242 46Q238 22 222 7T180 -8Z" />
<glyph unicode="&quot;" horiz-adv-x="344" d="M213 714Q225 710 229 697T228 664Q216 629 203 581T173 467Q159 467 148 469T126 478Q135 533 141 587T148 692Q164 694 182 700T213 714ZM354 714Q366 710 370 697T369 664Q357 629 344 581T314 467Q300 467 289
469T267 478Q276 533 282 587T289 692Q305 694 323 700T354 714Z" />
<glyph unicode="#" horiz-adv-x="597" d="M379 -8Q359 -6 349 0T329 14L475 714Q492 712 504 707T524 694L379 -8ZM46 207Q46 220 49 235T59 265H545Q545 248 543 237T533 209H436Q318 209 241 209T117 208T46 207ZM168 -8Q151 -6 139 0T119 18L264 714Q280 713
292 708T313 692L168 -8ZM98 439Q98 453 100 467T110 497H586Q586 480 584 468T574 441H505Q411 441 338 441T207 441T98 439Z" />
<glyph unicode="$" horiz-adv-x="471" d="M210 -9Q158 -9 121 0T55 25T1 63Q12 98 20 133T31 204Q46 209 63 210T95 206Q90 121 116 83T216 44Q257 44 288 69T328 135Q335 177 318 206T270 258T203 306T136 359T90 431T85 533Q93 580 122 614T197 666T305 685Q359
685 399 672T465 638Q460 603 457 571T454 505Q425 494 390 499Q389 575 364 604T293 634Q247 634 219 613T183 544Q177 510 190 484T228 437T284 395T345 352T399 302T434 239T437 158Q428 108 396 71T315 12T210 -9ZM192 -92Q177 -91 163 -87T138 -73L221 362L269
333Q250 235 232 133T192 -92ZM277 333L229 362L303 750Q320 750 333 746T357 731Q333 618 314 522T277 333Z" />
<glyph unicode="%" horiz-adv-x="752" d="M161 -9Q147 -3 138 8T125 35L643 685Q675 669 681 640Q621 567 569 504T468 380T371 260T272 133T161 -9ZM549 -9Q475 -9 440 41T420 174Q432 235 475 272T578 309Q648 309 682 260T699 128Q686 67 645 29T549 -9ZM554
38Q578 38 597 61T624 124Q636 187 621 224T568 262Q542 262 523 239T495 177Q484 115 500 77T554 38ZM222 359Q149 359 113 409T94 542Q106 603 149 640T252 677Q322 677 355 628T373 496Q360 435 319 397T222 359ZM227 406Q252 406 271 429T298 492Q310 555 295
592T241 630Q216 630 197 607T169 545Q158 483 173 445T227 406Z" />
<glyph unicode="&amp;" horiz-adv-x="726" d="M364 717Q421 717 456 699T505 651T512 584Q503 538 480 507T425 455T357 417T284 383T215 344T161 288T130 205Q122 160 135 124T181 67T263 45Q314 45 362 59T451 102T520 169T558 257Q571 327 550 353T484 381Q478
402 481 424Q500 427 522 434T566 450T600 468Q640 453 651 414T651 312Q638 243 598 184T501 82T376 15T240 -9Q151 -9 100 20T33 98T26 202Q35 252 59 288T116 349T186 393T261 430T331 468T386 514T416 580Q424 623 407 645T352 668Q316 668 294 646T266 590Q262
569 264 543T281 482T323 397T401 276Q449 206 480 165T532 104T567 78T595 71Q608 71 619 76T644 95Q654 89 661 80T673 59Q661 40 644 24T606 0T557 -9Q537 -9 519 -5T482 11T438 48T382 114T306 219Q256 291 226 345T182 441T165 518T169 589Q175 621 196 650T259
698T364 717Z" />
<glyph unicode="&apos;" horiz-adv-x="203" d="M213 714Q225 710 229 697T228 664Q216 629 203 581T173 467Q159 467 148 469T126 478Q135 533 141 587T148 692Q164 694 182 700T213 714Z" />
<glyph unicode="(" horiz-adv-x="306" d="M318 741Q331 743 342 740T360 727Q303 666 263 600T197 456T154 281Q126 116 135 -20T190 -263Q182 -268 172 -270T150 -271Q104 -193 78 -105T46 77T56 262Q72 353 102 430T185 583T318 741Z" />
<glyph unicode=")" horiz-adv-x="301" d="M156 741Q227 608 251 484T252 232Q235 133 202 50T116 -111T-18 -271Q-30 -273 -41 -271T-60 -261Q1 -185 42 -111T112 45T157 229Q183 381 173 503T117 728Q125 735 135 738T156 741Z" />
<glyph unicode="*" horiz-adv-x="464" d="M359 662Q344 673 322 676T281 678Q281 638 279 605T273 535Q242 558 214 581T162 627Q146 615 137 599T123 559Q161 547 192 535T256 507Q225 486 194 466T134 430Q145 390 186 371Q209 403 230 428T277 480Q288 444
297 409T313 341Q334 342 353 351T386 373Q362 405 344 433T308 495Q345 493 382 491T454 484Q458 504 456 525T445 564Q408 552 375 544T305 528Q317 565 331 599T359 662Z" />
<glyph unicode="+" horiz-adv-x="550" d="M262 7Q247 3 232 5T205 15L298 502Q313 507 327 507T356 501Q330 378 307 255T262 7ZM43 236Q43 253 46 267T58 293H521Q522 279 519 265T508 239Q459 239 401 239T280 239T158 238T43 236Z" />
<glyph unicode="," horiz-adv-x="202" d="M109 116Q126 106 132 83T130 17Q121 -35 85 -88T-3 -181Q-17 -181 -26 -175T-41 -158Q-13 -131 8 -103T38 -51T38 -9T-4 16Q-4 34 0 54T14 86Q38 88 65 96T109 116Z" />
<glyph unicode="-" horiz-adv-x="371" d="M46 223Q48 248 52 264T64 296H336Q335 273 332 257T321 226Q272 226 202 226T46 223Z" />
<glyph unicode="." horiz-adv-x="203" d="M326 -10Q289 -10 269 14T258 78Q264 106 285 124T336 142Q357 142 373 131T398 101T402 55Q396 26 377 8T326 -10Z" />
<glyph unicode="/" horiz-adv-x="290" d="M327 717Q358 708 373 687Q335 615 298 547T225 410T154 273T84 135T12 -9Q-4 -5 -15 2T-34 23L327 717Z" />
<glyph unicode="0" horiz-adv-x="619" d="M289 -9Q204 -9 146 27T65 128T57 278Q71 348 112 399T213 478T346 506Q430 506 485 472T564 376T570 229Q557 158 518 105T420 21T289 -9ZM303 43Q357 43 399 84T457 208Q472 283 460 338T414 423T326 454Q266 454 224
412T168 294Q155 220 167 164T214 75T303 43Z" />
<glyph unicode="1" horiz-adv-x="388" d="M34 -3Q35 11 37 23T44 45Q71 49 85 56T108 82T122 135L166 366Q173 400 169 417T151 443T108 455Q106 466 106 478T107 503Q136 502 167 501T232 500Q266 500 298 501T362 503Q361 490 360 478T352 455Q327 451 313 443T290
416T274 362L231 135Q225 100 227 82T244 57T288 45Q290 35 291 23T290 -3Q258 -1 226 -1T162 0Q129 0 96 0T34 -3Z" />
<glyph unicode="2" horiz-adv-x="491" d="M288 506Q244 506 200 496T113 460Q112 428 106 394T90 329Q103 323 119 321T152 318Q162 367 177 397T214 441T261 455Q300 455 319 430T329 359Q322 320 295 284T221 212Q177 179 150 158T102 121T61 89T11 47Q9 33
11 21T19 -3Q70 -1 113 -1T203 0Q253 0 291 -1T346 -3Q368 -3 379 2T398 24Q398 51 401 85T411 152Q402 157 385 159T353 161Q344 122 333 110T301 98Q292 98 271 99T224 101Q203 101 182 101T139 98L145 90Q180 117 198 132T225 153T239 163T250 171T270 186T310
216Q353 247 380 272T423 322T443 377Q454 439 413 472T288 506Z" />
<glyph unicode="3" horiz-adv-x="487" d="M103 460Q102 426 96 392T79 329Q92 323 109 320T142 318Q158 395 187 425T253 455Q289 455 308 431T319 359Q309 302 264 262T143 200Q140 186 143 173T153 153Q236 154 268 116T288 15Q276 -44 229 -81T108 -118Q81
-118 60 -113T23 -101Q17 -104 12 -110T4 -125T0 -143Q35 -171 113 -171Q185 -171 244 -147T344 -79T399 24Q413 77 400 122T351 195T259 225L261 206Q320 233 354 259T407 312T431 365Q446 428 407 467T275 506Q225 506 182 494T103 460Z" />
<glyph unicode="4" horiz-adv-x="542" d="M245 -171Q228 -161 232 -133L261 20L270 59L296 209Q305 256 311 287T324 342T340 391L348 381Q330 354 304 321T246 250T183 177T120 108T65 53L73 90H299L346 95H435Q457 95 469 77Q461 61 455 41T444 0Q289 0 186
-1T26 -5Q17 8 13 23T10 56Q109 168 206 279T398 506Q414 506 429 504T455 496L337 -153Q287 -154 245 -171Z" />
<glyph unicode="5" horiz-adv-x="469" d="M65 240Q65 218 83 206Q151 203 197 179T263 114T273 25Q266 -16 241 -48T178 -99T90 -118Q68 -118 46 -114T4 -102Q-14 -117 -18 -144Q4 -158 32 -164T93 -171Q163 -171 224 -145T328 -72T383 43Q398 116 368 171T275
261T122 303L131 281L179 436L158 395Q209 399 266 399T387 400Q415 400 426 419Q428 452 432 485T445 546Q434 552 419 554T385 555Q381 534 368 517T319 500Q276 500 234 500T148 503L65 240Z" />
<glyph unicode="6" horiz-adv-x="547" d="M67 284Q88 388 151 465T307 588T512 638Q521 623 516 598Q359 569 278 490T174 290Q161 216 167 160T198 74T262 43Q302 43 332 76T372 166Q386 241 359 287T276 333Q242 333 216 326T163 300L175 348Q214 375 246 385T316
395Q409 395 454 337T480 183Q469 124 437 82T357 15T250 -9Q139 -9 90 69T67 284Z" />
<glyph unicode="7" horiz-adv-x="468" d="M451 503Q458 497 461 487T466 463Q413 388 377 336T317 247T278 184T252 135Q235 101 225 67T209 -9T200 -108Q178 -118 152 -135T111 -170Q98 -167 90 -155T81 -110Q81 -81 88 -50T114 21T167 117T255 248T384 426L398
400H239Q197 400 177 383T142 315Q124 314 109 316T80 326Q107 415 114 503Q157 501 208 501T296 500Q320 500 342 500T391 501T451 503Z" />
<glyph unicode="8" horiz-adv-x="523" d="M331 637Q395 637 432 617T484 563T491 490Q481 440 443 407T353 351L309 380Q344 401 364 424T391 483Q402 538 379 563T321 588Q292 588 270 572T238 523Q229 489 240 464T273 419T316 383Q341 366 369 343T420 287T453
217T450 129Q431 59 374 25T231 -9Q163 -9 117 11T50 71T43 170Q55 226 94 264T211 340L252 309Q204 283 179 252T146 176Q134 111 160 77T240 42Q277 42 303 60T340 122Q352 168 338 202T292 265T221 324Q194 345 169 371T132 433T130 512Q145 570 199 603T331
637Z" />
<glyph unicode="9" horiz-adv-x="544" d="M305 506Q378 506 424 471T486 371T484 217Q462 107 399 23T240 -112T25 -170Q21 -163 20 -153T19 -130Q107 -114 169 -82T274 -4T341 97T378 215Q398 330 372 392T290 454Q249 454 221 421T182 329Q174 284 179 243T209
175T282 149Q306 149 333 156T385 181L373 134Q339 108 306 97T235 86Q167 86 127 117T75 200T75 317Q93 404 152 455T305 506Z" />
<glyph unicode=":" horiz-adv-x="187" d="M318 20Q287 20 271 40T261 93Q266 116 283 131T326 146Q344 146 357 137T378 112T381 74Q376 50 360 35T318 20ZM120 311Q89 311 73 331T63 384Q68 407 85 422T128 437Q146 437 159 428T180 403T183 365Q178 341 162
326T120 311Z" />
<glyph unicode=";" horiz-adv-x="207" d="M110 116Q127 106 133 83T131 17Q122 -35 86 -88T-2 -181Q-16 -181 -25 -175T-40 -158Q-12 -131 9 -103T39 -51T39 -9T-3 16Q-3 34 1 54T15 86Q39 88 66 96T110 116ZM140 311Q109 311 93 331T83 384Q88 407 105 422T148
437Q166 437 179 428T200 403T203 365Q198 341 182 326T140 311Z" />
<glyph unicode="&lt;" horiz-adv-x="550" d="M421 14Q329 74 239 129T65 231Q64 247 68 262T83 290L475 505Q489 499 497 489T513 460L129 260L441 70Q442 56 437 40T421 14Z" />
<glyph unicode="=" horiz-adv-x="550" d="M43 142Q43 155 46 172T54 198H484Q484 181 482 169T473 143Q434 144 404 144T344 144T271 144Q227 144 193 144T123 144T43 142ZM76 311Q76 325 79 341T87 367H515Q515 350 513 338T505 312Q465 313 436 313T376 313T303
313Q260 313 226 313T156 313T76 311Z" />
<glyph unicode="&gt;" horiz-adv-x="550" d="M66 12Q59 23 58 40T61 75L454 270L450 248L113 472Q124 486 136 494T166 507L494 280Q495 250 475 225Q398 189 334 156T207 89T66 12Z" />
<glyph unicode="?" horiz-adv-x="525" d="M204 671Q225 687 265 700T352 714Q432 714 472 675T499 569Q491 531 471 503T424 450T370 401T323 346T294 274Q291 261 290 242T290 207Q280 202 270 200T248 198Q234 209 227 243T227 321Q235 360 252 389T290 440T332
483T368 525T389 576Q397 616 384 642T335 668Q314 668 296 655T263 614T233 538Q215 538 204 540T181 550Q193 588 197 612T204 671ZM229 -8Q198 -8 182 12T172 65Q176 88 194 102T237 117Q255 117 268 109T289 84T292 46Q287 21 271 7T229 -8Z" />
<glyph unicode="@" horiz-adv-x="822" d="M488 660Q604 660 681 616T792 489T804 290Q793 227 768 173T707 77T628 14T536 -9Q502 -9 485 7T465 47T466 99T480 151H471L540 353L530 456Q554 455 578 458T619 467Q627 464 631 456T635 428T625 372L576 153Q568
115 568 98T572 75T589 70Q625 70 657 96T712 171T746 283Q765 387 737 461T641 574T473 614Q381 614 304 571T175 452T105 271Q83 143 113 48T218 -99T407 -152Q490 -152 561 -124T690 -50Q701 -53 708 -60T717 -79Q661 -133 580 -167T392 -202Q261 -202 173 -145T48
17T36 261Q57 380 120 470T278 610T488 660ZM564 453L539 397Q524 405 505 408T467 412Q410 412 377 367T329 250Q311 168 319 124T357 80Q375 80 404 109T463 196T512 336L531 416L575 409L522 195H498Q479 142 447 95T376 20T295 -9Q265 -9 245 5T215 46T205
114T215 207Q230 282 268 340T363 433T489 467Q510 467 530 463T564 453Z" />
<glyph unicode="A" horiz-adv-x="691" d="M-28 -3Q-28 10 -26 22T-19 45Q-1 51 13 61T43 94T82 155Q117 214 153 275T225 401T300 534T381 676Q392 680 403 681T426 682Q453 590 477 499T525 318T569 142Q578 103 586 84T604 57T628 45Q631 34 631 22T631 -3Q615
-1 593 -1T549 0T513 0Q500 0 485 0T454 0T421 -1T389 -3Q389 10 391 22T398 45Q441 51 452 66T452 127Q434 204 415 280T374 432Q365 464 360 492T349 558H360Q343 520 328 491T294 427Q256 356 217 286T135 144Q114 109 110 89T116 60T152 45Q154 34 155 22T155
-3Q139 -1 123 -1T91 0T58 0Q32 0 13 0T-28 -3ZM155 205L178 260H438L442 211Q397 211 348 211T248 209T155 205Z" />
<glyph unicode="B" horiz-adv-x="618" d="M224 138Q217 97 220 78T242 53T293 47Q354 47 398 81T452 171Q469 257 430 292T282 327H240L249 378H295Q371 378 415 412T470 504Q483 568 451 599T356 631Q342 631 328 628T295 620L311 642L224 138ZM235 676Q272 676
312 677T390 679Q466 679 514 662T581 608T589 511Q579 456 533 416T416 366Q512 361 554 313T578 171Q568 119 533 81T440 21T301 0Q259 0 210 0T112 0T23 -3Q24 12 26 24T32 45Q63 50 78 59T101 89T115 151L184 546Q190 581 186 598T168 621T127 631Q124 642
124 654T125 679Q158 677 183 677T235 676Z" />
<glyph unicode="C" horiz-adv-x="632" d="M665 627Q652 593 645 556T632 475Q604 464 572 473Q580 541 568 576T528 625T458 638Q379 638 320 597T226 487T180 335Q172 261 188 198T250 96T373 57Q424 57 472 71T565 112Q574 104 577 93T582 69Q526 29 466 10T341
-9Q237 -9 170 36T75 159T59 333Q72 425 110 491T204 601T323 664T452 685Q515 685 565 671T665 627Z" />
<glyph unicode="D" horiz-adv-x="735" d="M397 679Q451 679 504 670T602 638T679 576T721 474T715 325Q703 255 675 202T605 110T513 47T405 12T284 0H173L182 50H295Q349 50 397 64T485 109T554 193T597 322Q614 412 603 472T558 567T478 616T376 631Q355 631
338 629T302 621L261 676Q294 676 328 677T397 679ZM125 679Q147 678 173 678T227 677T277 676T316 676L225 141Q219 102 221 83T241 57T295 50L284 0Q256 0 223 0T154 0T85 -1T23 -3Q24 10 26 23T32 45Q62 49 77 58T101 89T116 151L185 546Q191 581 187 598T168
621T127 631Q124 644 124 656T125 679Z" />
<glyph unicode="E" horiz-adv-x="592" d="M26 -3Q26 9 28 21T35 46Q64 49 79 58T103 89T117 151L184 534Q191 571 188 591T169 619T126 631Q124 642 124 653T125 679Q153 678 180 678T233 677T280 676T317 676L227 149Q220 106 223 85T244 57T298 50L285 0Q250
0 216 0T149 0T85 -1T26 -3ZM502 -3Q472 -1 439 -1T368 0T285 0L298 50H316Q374 50 407 64T460 108T501 179Q517 177 530 172T554 155Q538 123 524 83T502 -3ZM454 220Q438 222 425 224T402 233Q404 265 397 283T368 309T308 317H240L249 367H313Q372 367 398 383T432
446Q446 449 459 449T487 448Q481 423 476 398T465 334Q461 300 459 273T454 220ZM529 505Q528 547 520 574T482 613T390 626H285L315 676Q366 676 411 676T501 677T594 679Q589 641 587 596T587 513Q563 504 529 505Z" />
<glyph unicode="F" d="M226 149Q219 110 220 90T240 61T299 45Q302 35 302 24T302 -3Q264 -1 233 -1T165 0Q126 0 93 0T25 -3Q26 25 34 45Q64 50 79 58T101 86T115 142L183 533Q189 568 187 588T171 617T127 631Q125 642 125 654T125 679Q151 678 180 677T244
676T316 676L226 149ZM589 679Q584 641 582 596T581 513Q558 504 524 505Q523 547 514 574T477 613T385 626H284L314 676Q363 676 407 676T496 677T589 679ZM432 422Q446 425 459 425T486 424Q480 399 475 374T465 310Q460 276 458 249T453 195Q438 197 425 200T401
209Q404 257 385 275T307 293H227L235 341H312Q371 341 397 358T432 422Z" />
<glyph unicode="G" horiz-adv-x="688" d="M461 685Q537 685 592 671T693 627Q681 593 674 557T661 477Q646 471 631 470T599 473Q607 544 593 579T547 626T467 638Q385 638 324 599T227 492T181 335Q174 279 180 228T206 135T263 69T358 45Q386 45 408 48T453
60Q467 66 475 74T488 100T499 152Q509 208 509 233T492 268T439 279Q437 291 437 303T438 328Q472 326 503 326T565 325Q598 325 624 325T689 328Q688 314 686 302T679 279Q658 277 646 269T626 236T608 157Q602 119 601 100T605 64Q557 34 487 13T333 -9Q232
-9 167 35T74 156T59 333Q72 426 111 492T205 601T327 664T461 685Z" />
<glyph unicode="H" horiz-adv-x="764" d="M425 -3Q425 11 427 23T434 45Q461 49 475 56T498 82T513 135L583 542Q589 576 586 593T568 619T524 631Q523 642 523 654T523 679Q553 678 584 677T651 676Q684 676 716 677T781 679Q780 666 778 654T771 631Q746 627
731 619T708 593T693 538L623 135Q617 101 619 83T636 57T680 45Q682 35 683 23T682 -3Q649 -1 618 -1T554 0Q521 0 487 0T425 -3ZM26 -3Q26 11 28 23T36 45Q62 49 77 56T100 82T114 135L184 542Q190 576 187 593T169 619T126 631Q125 642 125 654T125 679Q154
678 186 677T252 676Q285 676 317 677T382 679Q381 666 380 654T372 631Q347 627 332 619T309 593T294 538L224 135Q218 101 221 83T238 57T281 45Q283 35 284 23T283 -3Q251 -1 220 -1T155 0Q122 0 88 0T26 -3ZM233 314L243 369H575L566 320Q535 320 491 320T400
320T309 318T233 314Z" />
<glyph unicode="I" horiz-adv-x="366" d="M184 542Q190 576 187 593T169 619T126 631Q125 642 125 654T125 679Q154 678 186 677T252 676Q285 676 317 677T382 679Q381 666 380 654T372 631Q347 627 332 619T309 593T294 538L224 135Q218 101 221 83T238 57T281
45Q283 35 284 23T283 -3Q251 -1 220 -1T155 0Q122 0 88 0T26 -3Q26 11 28 23T36 45Q62 49 77 56T100 82T114 135L184 542Z" />
<glyph unicode="J" horiz-adv-x="318" d="M108 679Q131 677 165 677T233 676Q261 676 282 676T323 677T366 679Q365 651 357 631Q331 627 316 619T292 591T276 534L204 121Q192 51 176 -3T132 -100T58 -179T-61 -249Q-70 -242 -73 -231T-79 -206Q-37 -179 -6 -146T47
-66T80 44L168 545Q173 576 171 593T155 618T110 631Q107 642 107 654T108 679Z" />
<glyph unicode="K" horiz-adv-x="662" d="M125 679Q154 678 186 677T252 676Q285 676 317 677T382 679Q381 666 380 654T372 631Q347 627 332 619T309 593T294 538L224 135Q218 101 220 83T234 57T271 45Q273 35 274 23T273 -3Q252 -2 233 -2T196 -1T155 0Q122
0 88 0T26 -3Q26 11 28 23T36 45Q63 48 78 56T100 83T114 138L184 542Q190 576 187 593T169 619T126 631Q125 642 125 654T125 679ZM483 679Q512 677 537 677T594 676Q614 676 630 676T663 677T698 679Q698 668 698 655T692 630Q664 627 643 620T597 595T534 543L340
363L343 383Q388 339 425 281T501 141Q516 106 529 94T558 81Q568 81 576 84T594 97Q604 91 612 81T624 59Q597 27 568 9T499 -9Q462 -7 439 13T398 83Q365 173 330 235T248 347L456 541Q491 574 503 592T510 618T486 631Q484 642 483 654T483 679Z" />
<glyph unicode="L" horiz-adv-x="560" d="M23 -3Q24 10 25 22T32 45Q61 48 76 57T100 89T114 151L183 546Q190 579 186 595T168 619T127 631Q124 642 124 654T125 679Q154 677 185 677T251 676Q284 676 321 676T389 678Q389 665 387 653T381 631Q350 627 333 618T307
589T292 532L224 141Q217 102 219 83T239 57T293 50H301Q353 50 385 62T441 104T486 180Q503 177 515 172T539 155Q524 124 510 83T487 -3Q466 -1 432 -1T360 0T284 0Q256 0 222 0T153 0T85 -1T23 -3Z" />
<glyph unicode="M" horiz-adv-x="897" d="M362 -9Q330 126 293 262T212 533H223Q210 474 195 415T165 301T138 201Q122 141 120 110T131 66T179 45Q181 34 181 22T181 -3Q152 -1 126 -1T78 0Q53 0 29 0T-28 -3Q-28 9 -26 21T-19 45Q7 52 22 65T51 109T80 194Q97
253 113 309T144 424T172 541Q180 577 179 595T164 620T123 631Q121 643 121 655T122 679Q138 678 153 677T182 676T208 676Q229 676 249 676T290 679Q334 538 372 397T444 116H422Q505 253 583 394T736 679Q761 677 778 677T812 676Q829 676 850 676T892 679Q892
666 891 654T884 631Q858 627 844 617T822 585T812 521Q806 421 800 333T787 169Q782 120 785 95T800 61T836 45Q838 34 838 22T838 -3Q814 -1 779 -1T708 0Q671 0 639 0T579 -3Q579 9 581 21T588 45Q621 50 638 61T662 98T674 168Q682 253 689 345T701 536H716Q644
401 567 264T409 -4Q397 -8 386 -8T362 -9Z" />
<glyph unicode="N" horiz-adv-x="681" d="M29 45Q55 50 72 62T100 103T119 179L195 611L249 610L176 188Q167 135 167 106T183 65T230 45Q233 34 233 23T232 -3Q201 -1 172 -1T121 0Q97 0 76 0T21 -3Q22 24 29 45ZM125 679Q142 678 159 677T195 676Q217 676 237
677T272 679Q345 551 416 415T553 147L508 -9Q431 148 352 297T186 598Q176 618 164 623T127 631Q124 642 124 654T125 679ZM532 679Q555 677 581 677T627 676Q651 676 679 676T729 679Q728 668 726 655T719 631Q697 624 683 610T660 567T642 484L557 -3Q547 -7
535 -8T508 -9L523 114L588 493Q597 545 595 573T578 613T533 631Q531 642 531 654T532 679Z" />
<glyph unicode="O" horiz-adv-x="741" d="M346 -9Q244 -9 174 39T74 173T66 371Q78 439 111 496T194 595T305 661T437 685Q536 685 607 641T710 511T718 302Q701 215 650 145T521 33T346 -9ZM362 40Q425 40 473 74T554 168T600 303Q618 401 599 475T534 593T420
636Q362 636 314 602T233 509T186 378Q173 309 178 248T205 141T267 67T362 40Z" />
<glyph unicode="P" horiz-adv-x="581" d="M26 -3Q27 11 29 23T35 46Q64 50 79 58T102 86T115 142L185 546Q191 576 188 593T170 619T127 631Q122 654 125 679Q146 678 172 677T225 676T271 676Q295 676 337 677T420 679Q530 679 577 619T604 451Q593 389 557 343T464
271T339 245Q318 245 303 248T277 257Q276 266 279 280T286 302Q295 299 306 298T332 296Q395 296 437 334T494 449Q510 534 481 582T368 630Q350 630 334 628T296 620L311 643L226 149Q219 110 221 90T241 61T299 45Q302 34 302 23T302 -3Q264 -1 233 -1T167 0Q127
0 94 0T26 -3Z" />
<glyph unicode="Q" horiz-adv-x="741" d="M346 -9Q244 -9 174 39T74 173T66 371Q78 439 111 496T194 595T305 661T437 685Q536 685 607 641T710 511T718 302Q701 215 650 145T521 33T346 -9ZM362 40Q425 40 473 74T554 168T600 303Q618 401 599 475T534 593T420
636Q362 636 314 602T233 509T186 378Q173 309 178 248T205 141T267 67T362 40ZM624 -219Q581 -219 549 -200T487 -130Q459 -81 426 -49T334 -9L427 15Q460 9 490 -6T551 -41T610 -90Q640 -117 655 -124T687 -130Q697 -129 705 -125T720 -114Q730 -119 738 -129T749
-152Q739 -166 721 -182T678 -208T624 -219Z" />
<glyph unicode="R" horiz-adv-x="658" d="M411 679Q478 679 526 657T596 593T606 490Q598 444 572 408T502 348T394 312L305 298Q288 297 273 297T246 299L252 353Q266 351 277 351T299 350Q354 350 393 367T456 415T489 487Q504 560 472 595T380 631Q363 631
342 628T303 620L312 646L223 131Q218 96 220 79T234 56T270 45Q272 34 272 22T272 -3Q246 -1 228 -1T192 0T150 0Q113 0 85 0T26 -3Q26 10 28 22T36 45Q64 48 79 57T101 86T115 142L185 546Q190 576 187 593T169 619T126 631Q124 642 124 654T125 679Q162 677
192 677T260 676Q297 676 340 677T411 679ZM378 336Q400 313 416 290T449 236T485 154Q501 114 516 98T546 81Q556 81 564 84T581 96Q591 90 599 81T612 59Q584 26 554 9T485 -9Q455 -9 436 6T403 49T377 120Q362 167 347 203T314 269T275 328L378 336Z" />
<glyph unicode="S" horiz-adv-x="471" d="M210 -9Q158 -9 121 0T55 25T1 63Q12 98 20 133T31 204Q46 209 63 210T95 206Q90 121 116 83T216 44Q257 44 288 69T328 135Q335 177 318 206T270 258T203 306T136 359T90 431T85 533Q93 580 122 614T197 666T305 685Q359
685 399 672T465 638Q460 603 457 571T454 505Q425 494 390 499Q389 575 364 604T293 634Q247 634 219 613T183 544Q177 510 190 484T228 437T284 395T345 352T399 302T434 239T437 158Q428 108 396 71T315 12T210 -9Z" />
<glyph unicode="T" horiz-adv-x="560" d="M252 631Q197 631 169 602T117 504Q100 504 87 507T63 519Q70 541 77 569T91 626T100 679Q130 678 169 677T257 676T357 676Q411 676 459 676T548 677T621 679Q615 643 612 601T609 515Q596 509 583 508T553 507Q551 575
532 603T451 631H252ZM302 648H413L323 132Q317 102 319 85T339 60T392 45Q394 34 395 22T394 -3Q363 -1 327 -1T255 0Q217 0 179 0T110 -3Q111 12 113 24T119 46Q154 51 172 59T199 87T214 142L302 648Z" />
<glyph unicode="U" horiz-adv-x="642" d="M307 -9Q177 -9 128 61T101 256L150 546Q157 578 155 595T142 619T108 631Q106 641 106 653T107 679Q143 677 169 677T227 676Q260 676 288 676T355 679Q354 666 353 655T345 631Q315 628 299 620T275 593T259 534L211
261Q192 148 226 98T331 48Q404 48 450 101T513 249L558 508Q566 553 565 576T550 610T507 631Q505 643 505 654T506 679Q538 677 562 677T606 676Q632 676 653 676T707 679Q707 666 705 654T697 631Q676 624 663 617T640 596T625 560T612 498L570 258Q553 166
520 107T435 20T307 -9Z" />
<glyph unicode="V" horiz-adv-x="660" d="M100 679Q124 678 144 677T184 676T222 676Q243 676 264 676T308 677T355 679Q355 668 353 655T345 630Q312 626 295 617T278 586T288 518Q313 425 336 329T382 127L366 136Q425 234 475 327T570 516Q589 557 594 578T587
611T541 631Q537 652 540 679Q562 677 584 677T635 676Q661 676 681 676T731 679Q730 654 721 631Q706 624 693 613T666 577T627 506Q564 381 496 256T350 0Q341 -5 328 -6T301 -6Q279 90 257 184T212 366T169 524Q158 567 149 588T130 618T101 631Q99 642 99 654T100
679Z" />
<glyph unicode="W" horiz-adv-x="964" d="M100 679Q126 678 147 677T187 676T219 676Q236 676 257 676T300 677T343 679Q343 666 342 654T335 630Q299 624 283 613T264 580T269 516Q278 461 289 396T310 264T329 133L307 135Q377 267 443 403T573 678Q594 686
622 683Q645 598 666 506T705 321T737 139L713 140Q759 229 799 317T876 494Q896 545 900 572T892 611T846 631Q842 653 845 679Q866 677 890 677T939 676Q965 676 990 676T1036 679Q1035 654 1026 631Q1009 624 996 610T966 567T925 480Q874 360 818 240T701 0Q691
-4 677 -5T650 -4Q637 82 620 176T582 363T538 540L562 539Q499 403 431 267T292 -1Q286 -4 277 -5T257 -6T240 -4Q219 148 197 281T155 522Q147 568 141 589T127 619T103 631Q100 642 100 654T100 679Z" />
<glyph unicode="X" horiz-adv-x="627" d="M312 -3Q312 10 314 22T322 46Q353 51 365 60T374 93T351 165Q329 222 303 280T249 399T190 522Q167 568 155 589T131 619T103 631Q100 643 100 655T102 679Q128 678 150 677T190 676T225 676Q245 676 265 676T309 677T358
679Q358 667 356 654T348 630Q298 622 291 601T312 521Q341 461 368 400T421 279T471 159Q491 112 504 90T532 60T567 45Q569 34 569 23T568 -3Q540 -1 518 -1T478 0T441 0Q420 0 397 0T351 0T312 -3ZM-15 -3Q-15 22 -5 45Q15 50 33 59T72 89T125 144Q169 193 210
244T290 346L319 299Q290 259 261 223T199 146Q162 100 165 77T199 45Q201 33 201 22T200 -3Q169 -1 144 -1T93 0Q64 0 39 0T-15 -3ZM382 320L350 361Q378 396 410 437T468 515Q497 557 504 580T503 615T471 631Q466 654 470 679Q494 677 516 677T560 676Q584 676
609 676T662 679Q662 668 660 655T652 631Q633 628 618 619T584 587T533 517Q496 465 459 416T382 320Z" />
<glyph unicode="Y" horiz-adv-x="586" d="M281 215Q257 299 230 378T172 536Q156 576 146 594T126 620T101 631Q99 643 99 654T100 679Q121 678 141 677T181 676T219 676Q238 676 259 676T304 677T353 679Q353 665 350 653T343 630Q295 623 283 607T286 551Q308
491 327 428T363 299L346 308Q384 361 418 415T488 530Q515 579 514 601T467 631Q463 652 466 679Q491 677 515 677T566 676Q590 676 611 676T657 679Q657 654 647 631Q636 627 625 620T598 595T559 539Q499 442 446 366T338 215H281ZM140 -3Q141 12 143 24T149
46Q184 52 202 60T229 88T244 142L269 282H379L353 132Q347 102 349 85T368 60T422 45Q424 34 425 22T424 -3Q393 -1 357 -1T285 0Q247 0 208 0T140 -3Z" />
<glyph unicode="Z" horiz-adv-x="545" d="M-10 -3Q-15 6 -18 17T-21 44Q62 145 140 244T295 444T445 649L462 627H310Q268 627 240 617T189 579T145 495Q107 498 85 516Q95 537 103 564T119 622T130 679Q169 678 205 677T279 676T362 676Q397 676 429 676T494
677T566 679Q580 662 580 632Q503 527 427 426T273 224T111 23L100 50H260Q304 50 334 55T385 73T422 112T456 180Q492 173 515 153Q506 132 498 106T482 52T469 -3Q422 -1 380 -1T297 0T212 0Q166 0 130 0T62 0T-10 -3Z" />
<glyph unicode="[" horiz-adv-x="294" d="M149 742Q174 741 210 741T282 740T344 742Q350 733 350 722T348 697Q296 693 267 686T225 661T204 605L74 -139Q68 -171 74 -188T105 -213T177 -222Q185 -244 176 -269Q161 -268 134 -268T76 -267T17 -267T-29 -269L149 742Z" />
<glyph unicode="\" horiz-adv-x="294" d="M94 708Q121 721 150 715L249 0Q238 -5 224 -7T194 -8Q180 111 164 230T130 470T94 708Z" />
<glyph unicode="]" horiz-adv-x="293" d="M146 -269Q119 -267 81 -267T5 -266T-57 -269Q-58 -257 -55 -244T-46 -222Q4 -220 31 -214T71 -192T89 -148L222 605Q228 643 222 661T190 686T113 697Q113 710 117 722T127 742Q154 741 190 741T262 740T324 742L146 -269Z" />
<glyph unicode="^" horiz-adv-x="493" d="M309 686Q323 695 338 696T364 694Q381 653 402 601T447 498T490 404Q482 399 468 396T442 394L334 645Q294 603 252 556T171 465T99 383Q79 399 77 430L309 686Z" />
<glyph unicode="_" horiz-adv-x="550" d="M-37 -145Q-37 -127 -35 -114T-25 -89H453Q453 -100 450 -117T441 -144Q386 -143 347 -143T273 -143T196 -143Q159 -143 125 -143T52 -144T-37 -145Z" />
<glyph unicode="`" horiz-adv-x="300" d="M256 706Q263 665 274 623T300 537Q291 533 277 533T252 539Q233 579 207 623T153 703Q175 711 203 712T256 706Z" />
<glyph unicode="a" horiz-adv-x="497" d="M431 467Q439 464 443 456T447 428T437 372L388 153Q377 98 377 83T394 67Q405 67 416 73T446 94Q453 87 458 78T466 58Q440 29 410 10T344 -9Q315 -9 300 4T280 38T276 80T283 121Q287 132 293 147T305 178T316 203L352
353L342 456Q366 455 390 458T431 467ZM375 453L350 397Q336 405 317 408T279 412Q221 412 188 367T141 250Q123 168 131 124T169 80Q186 80 216 109T275 196T324 336L343 416L387 409L334 195H310Q291 142 259 95T188 20T107 -9Q77 -9 57 5T27 46T16 114T27 207Q42
282 80 340T174 433T301 467Q321 467 342 463T375 453Z" />
<glyph unicode="b" horiz-adv-x="470" d="M223 710Q240 703 245 688T245 642Q232 572 223 522T207 437T192 374T177 320T159 263L109 78L167 -9Q113 -9 76 5T11 47Q25 68 39 114T63 217L118 530Q126 575 126 595T112 620T67 625Q66 636 67 648T74 669Q110 674
151 685T223 710ZM95 5L120 61Q134 53 153 50T191 46Q249 46 282 91T329 208Q347 290 339 334T301 378Q284 378 254 349T195 262T146 122L127 42L83 49L136 263H160Q180 317 211 363T282 438T363 467Q393 467 413 453T443 412T454 344T443 251Q429 177 391 118T296
25T169 -9Q149 -9 128 -5T95 5Z" />
<glyph unicode="c" horiz-adv-x="381" d="M152 -9Q103 -9 75 12T34 69T22 148T33 237Q43 284 63 325T112 399T181 449T275 467Q304 467 331 461T375 441Q366 416 361 388T352 333Q330 323 298 329Q302 376 290 395T251 414Q218 414 196 391T160 332T139 253Q134
221 132 188T135 128T158 83T206 66Q235 66 263 81T315 120Q324 113 328 104T336 83Q295 35 248 13T152 -9Z" />
<glyph unicode="d" horiz-adv-x="503" d="M349 -9Q312 -9 296 11T279 60T286 118Q289 129 294 145T305 176T316 201L348 403Q343 427 345 458T354 530Q361 577 361 596T348 620T302 625Q302 636 303 648T310 669Q329 671 358 677T414 692T459 710Q476 703 481
688T481 642L399 178Q391 128 388 104T388 74T399 67Q410 67 422 73T452 94Q460 87 465 78T473 58Q447 29 416 10T349 -9ZM375 453L350 397Q336 405 317 408T279 412Q221 412 188 367T141 250Q123 168 131 124T169 80Q186 80 216 109T275 196T324 336L343 416L387
409L334 195H310Q291 142 259 95T188 20T107 -9Q77 -9 57 5T27 46T16 114T27 207Q42 282 80 340T174 433T301 467Q321 467 342 463T375 453Z" />
<glyph unicode="e" horiz-adv-x="389" d="M147 -9Q100 -9 73 12T33 67T21 142T29 223Q46 305 82 359T167 440T266 467Q309 467 335 451T370 408T374 353Q367 321 342 294T281 245T205 212T126 198L129 241Q187 245 231 270T285 341Q291 372 280 392T244 413Q212
413 183 372T138 246Q131 204 132 163T149 95T204 68Q230 68 256 81T307 121Q315 113 320 105T327 83Q294 43 250 17T147 -9Z" />
<glyph unicode="f" horiz-adv-x="313" d="M370 714Q409 714 436 707T477 690Q471 674 465 655T456 615T451 575Q446 572 437 570T419 567T400 566Q399 599 393 620T373 652T340 663Q318 663 301 646T270 583T238 448Q217 340 204 257T183 126Q170 45 148 -23T96
-141T29 -220T-53 -248Q-76 -248 -100 -238T-145 -210Q-146 -193 -144 -175T-136 -143Q-113 -151 -85 -155T-25 -160Q-7 -160 6 -154T29 -128T48 -64T69 55Q81 136 92 232T125 454Q136 520 158 569T212 650T283 698T370 714ZM55 448H136L129 394Q108 397 86 400T43
403Q43 415 46 427T55 448ZM230 448H336Q336 436 334 424T328 402Q299 402 272 400T223 393L230 448Z" />
<glyph unicode="g" horiz-adv-x="467" d="M128 -248Q91 -248 58 -236T-5 -200Q-7 -181 -4 -164T5 -131Q32 -140 60 -147T118 -158T173 -162Q191 -162 204 -157T226 -133T245 -72T265 42Q270 68 280 103T305 176L315 204L350 388L331 455Q362 455 386 458T425 467Q436
461 439 449T437 406L387 118Q373 40 350 -27T293 -143T219 -220T128 -248ZM375 453L350 397Q336 405 317 408T279 412Q221 412 188 367T141 250Q123 168 131 124T169 80Q186 80 216 109T275 196T324 336L343 416L387 409L334 195H310Q291 142 259 95T188 20T107
-9Q77 -9 57 5T27 46T16 114T27 207Q42 282 80 340T174 433T301 467Q321 467 342 463T375 453Z" />
<glyph unicode="h" horiz-adv-x="524" d="M25 0L118 530Q126 575 126 595T112 620T67 625Q66 636 67 648T74 669Q110 674 151 685T223 710Q240 703 245 688T245 642Q232 571 223 521T207 434T192 371T178 318T160 262H178L132 0H25ZM376 467Q395 467 414 459T446
429T462 370T451 274L423 158Q414 114 410 95T409 71T420 66Q431 66 446 74T473 94Q481 87 486 78T493 57Q460 23 430 7T371 -9Q329 -9 314 11T301 68T315 155L340 266Q351 312 351 337T343 372T324 382Q306 382 282 364T232 311T185 227T152 118L146 228L185 311Q198
337 218 364T265 415T320 452T376 467Z" />
<glyph unicode="i" horiz-adv-x="262" d="M110 -9Q73 -9 56 10T37 62T48 141L85 276Q99 325 101 347T90 376T44 382Q43 394 44 405T51 426Q70 428 95 434T143 450T182 467Q211 454 218 425T210 337L158 145Q144 96 146 82T163 68Q172 68 184 74T211 94Q220 89
225 79T232 57Q202 26 171 9T110 -9ZM188 567Q160 567 147 585T139 631Q145 661 165 678T213 696Q241 696 255 678T263 629Q258 601 238 584T188 567Z" />
<glyph unicode="j" horiz-adv-x="245" d="M-98 -249Q-115 -234 -116 -208Q-47 -161 -8 -98T48 51L95 306Q101 338 100 354T85 376T40 382Q39 393 40 404T47 426Q67 428 93 434T143 449T183 467Q199 458 207 446T216 408T205 328L160 82Q147 16 127 -34T76 -124T2
-194T-98 -249ZM185 567Q157 567 144 585T136 631Q142 661 162 678T210 696Q238 696 252 678T260 629Q255 601 235 584T185 567Z" />
<glyph unicode="k" horiz-adv-x="486" d="M25 0L118 530Q126 575 126 595T112 620T67 625Q66 636 67 648T74 669Q110 674 151 685T223 710Q241 703 245 687T245 642Q232 564 222 513T205 427T190 366T173 309H174Q195 354 224 389T288 446T364 467Q416 467 440
435T456 359Q447 315 411 283T316 227T183 184L143 197L158 216Q240 234 288 262T346 336Q351 358 343 375T314 393Q291 393 263 370T209 307T168 212Q166 198 163 178T158 149L132 0H25ZM330 -9Q290 -9 271 15T230 81Q220 101 209 120T185 157T158 195L249 229Q266
213 277 199T302 166T334 114Q351 86 361 78T384 69Q397 69 407 75T432 95Q439 89 445 79T453 58Q428 32 398 12T330 -9Z" />
<glyph unicode="l" horiz-adv-x="265" d="M114 -9Q74 -9 56 13T39 75Q39 90 40 106T46 150T59 225T82 346T119 530Q127 574 127 594T113 620T67 625Q67 637 68 648T75 669Q94 671 123 677T179 692T224 710Q241 703 246 687T246 642Q226 530 206 424T165 218Q152
153 150 121T151 78T166 68Q175 68 187 74T214 94Q223 87 227 78T234 59Q209 30 177 11T114 -9Z" />
<glyph unicode="m" horiz-adv-x="802" d="M644 -9Q608 -9 593 8T579 62T593 155L615 253Q631 323 628 352T603 382Q581 382 547 353T481 266T431 118L409 0H303L348 220Q362 286 364 321T361 369T340 382Q317 382 284 352T220 263T172 118L149 0H42L96 286Q105
332 105 352T90 377T44 382Q44 393 45 405T51 426Q71 428 99 434T155 449T200 467Q217 461 222 446T223 402Q216 362 207 333T185 276H186L202 311Q214 335 234 362T280 413T335 451T392 466Q416 466 435 455T465 418T469 354Q466 337 461 317T447 276H448L464
310Q475 336 496 363T544 414T602 452T660 467Q714 467 732 414T727 268L699 158Q689 117 686 98T686 73T699 67Q712 67 723 73T752 94Q761 87 765 78T772 57Q740 23 709 7T644 -9Z" />
<glyph unicode="n" horiz-adv-x="541" d="M41 0L95 286Q103 332 103 352T90 377T44 382Q44 394 45 406T51 426Q70 428 99 434T156 449T201 467Q218 461 223 445T223 402Q216 361 207 333T186 278L170 118L147 0H41ZM394 467Q412 467 431 459T463 429T479 370T468
274L441 158Q431 114 428 95T427 71T438 66Q448 66 463 74T490 94Q499 87 504 78T511 57Q478 23 448 7T388 -9Q346 -9 331 11T318 68T332 155L357 266Q368 312 368 337T361 372T342 382Q324 382 300 364T250 311T203 227T170 118L163 228L202 311Q215 337 236 364T283
415T337 452T394 467Z" />
<glyph unicode="o" horiz-adv-x="479" d="M194 -9Q129 -9 89 22T33 108T31 230Q45 302 80 355T169 437T286 467Q349 467 389 438T445 356T450 236Q438 165 402 110T312 23T194 -9ZM207 43Q235 43 260 66T305 131T335 227Q350 309 333 362T271 415Q229 415 195
367T146 240Q135 182 139 138T160 68T207 43Z" />
<glyph unicode="p" horiz-adv-x="491" d="M2 -245L95 285Q103 330 103 350T89 375T44 381Q44 393 45 404T51 424Q70 426 98 432T153 448T198 465Q214 458 219 443T220 400Q217 381 212 361T201 322T188 284L176 253L137 25Q143 -1 142 -32T130 -123L108 -245H2ZM116
6L141 62Q156 54 175 50T213 46Q271 46 304 91T351 208Q369 291 361 335T323 379Q306 379 276 350T216 263T168 123L149 43L105 50L158 264H182Q202 318 233 364T303 439T385 468Q414 468 434 454T464 413T475 345T465 252Q450 177 412 118T317 26T191 -8Q171 -8
150 -4T116 6Z" />
<glyph unicode="q" horiz-adv-x="481" d="M350 388L301 467Q356 467 394 454T459 411Q446 390 432 344T407 241L322 -242H215L266 47Q271 74 282 109T306 180L315 208L350 388ZM375 453L350 397Q336 405 317 408T279 412Q221 412 188 367T141 250Q123 168 131
124T169 80Q186 80 216 109T275 196T324 336L343 416L387 409L334 195H310Q291 142 259 95T188 20T107 -9Q77 -9 57 5T27 46T16 114T27 207Q42 282 80 340T174 433T301 467Q321 467 342 463T375 453Z" />
<glyph unicode="r" horiz-adv-x="395" d="M198 467Q215 461 219 445T219 401Q215 376 204 342T175 267H177L196 308Q218 355 241 391T290 447T348 467Q377 467 399 450Q389 420 383 386T373 320Q362 315 347 312T315 311Q317 343 313 354T301 366Q291 366 274
349T233 288Q216 257 195 202T162 83L146 0H38L93 286Q102 332 102 352T89 377T44 382Q44 394 45 406T51 426Q71 428 99 434T154 449T198 467Z" />
<glyph unicode="s" horiz-adv-x="385" d="M233 467Q272 467 309 458T370 434Q353 382 351 321Q339 316 325 314T294 312Q293 370 277 393T226 416Q199 416 185 406T166 378Q161 357 172 338T204 301T248 263T290 220T319 167T322 100Q314 62 292 38T236 3T155
-9Q106 -9 68 3T8 30Q17 62 21 90T26 144Q52 155 83 153Q81 103 98 73T161 42Q189 42 204 53T223 80Q228 105 212 126T170 171T119 221T80 282T74 360Q81 396 101 419T155 455T233 467Z" />
<glyph unicode="t" horiz-adv-x="334" d="M159 -9Q113 -9 89 14T62 83T75 201L134 458Q145 504 151 538T159 594Q183 597 208 604T249 620Q260 616 263 604T264 565T249 491L183 209Q171 154 171 122T179 75T205 61Q221 61 240 73T275 103Q283 97 289 86T297 64Q283
47 261 30T212 2T159 -9ZM132 394Q111 397 89 400T46 403Q46 415 49 427T57 448H139L132 394ZM220 393L226 448H349Q349 436 348 424T341 402Q300 402 271 400T220 393Z" />
<glyph unicode="u" horiz-adv-x="533" d="M132 -9Q99 -9 82 10T59 62T59 136T75 221Q90 280 96 313T99 360T83 378T44 383Q44 393 45 405T51 426Q69 428 97 434T154 449T198 467Q209 460 215 451T220 420T209 353T180 228Q168 177 166 144T172 94T197 78Q217 78
248 107T312 195T361 348L382 458H488L440 209Q427 143 423 113T421 75T435 67Q452 67 481 95Q489 89 494 79T502 58Q477 29 445 10T382 -9Q349 -9 332 6T310 46T312 104Q314 116 318 128T328 152H326Q313 125 293 97T246 45T191 6T132 -9Z" />
<glyph unicode="v" horiz-adv-x="482" d="M400 468Q428 458 443 434T458 365Q458 324 435 273T356 153T200 -9Q186 -10 171 -7T145 2Q138 94 124 178T95 321Q85 357 73 370T21 382Q21 389 22 403T27 426Q46 428 67 435T109 450T141 467Q159 461 168 451T182 421T195
365Q206 313 215 259T230 156T239 67L227 72Q293 147 324 206T355 304Q355 343 340 360T290 381Q284 402 287 424Q307 429 329 437T370 453T400 468Z" />
<glyph unicode="w" horiz-adv-x="716" d="M141 467Q159 461 168 451T182 421T195 365Q206 313 215 259T230 156T239 67L224 72Q276 132 303 185T332 296T314 434Q355 444 379 467Q395 463 403 455T418 427T433 365Q446 315 456 261T475 157T487 67L472 73Q535
148 562 205T589 301Q589 341 573 359T522 381Q518 391 517 402T518 424Q538 429 559 436T601 452T630 467Q659 457 675 433T691 361Q691 322 671 272T600 154T453 -9Q438 -10 424 -7T398 2Q394 53 389 99T376 185T359 260L385 280Q376 237 363 203T328 135T276
68T200 -9Q186 -10 171 -7T145 2Q138 94 124 178T95 321Q85 357 73 370T21 382Q21 389 22 403T27 426Q46 428 67 435T109 450T141 467Z" />
<glyph unicode="x" horiz-adv-x="475" d="M178 467Q193 464 201 454T217 414Q225 382 232 352T246 295L261 261Q275 216 288 176T316 106Q327 82 336 75T357 68Q368 68 379 74T407 95Q415 87 419 78T427 58Q403 30 371 11T308 -9Q275 -9 257 3T227 41Q215 68 205
98T184 156L169 191Q159 225 150 259T132 324Q123 359 105 371T49 382Q48 395 49 406T55 426Q74 428 98 435T144 450T178 467ZM408 467Q426 467 439 463T463 450Q452 425 445 390T435 323Q413 311 384 314Q384 354 377 365T358 377Q345 377 330 360T299 315T270
255T247 193L212 232Q224 264 243 304T289 382T345 443T408 467ZM-3 129Q7 135 21 137T50 139Q51 106 57 97T73 88Q89 88 111 112T153 178T187 265L222 226Q211 194 191 154T146 76T90 15T27 -9Q9 -9 -1 -6T-22 5Q-17 21 -13 42T-6 86T-3 129Z" />
<glyph unicode="y" horiz-adv-x="470" d="M137 467Q153 462 162 454T177 429T189 378Q208 288 218 207T232 39L148 -97Q144 -12 136 65T117 207T92 321Q82 357 70 370T18 382Q17 395 18 406T24 426Q42 428 64 435T106 450T137 467ZM397 468Q425 458 438 437T451
387Q451 357 441 322T407 242T349 144T263 21Q200 -67 157 -120T83 -202T27 -239T-25 -248Q-50 -248 -74 -238T-119 -210Q-119 -193 -117 -175T-109 -143Q-86 -151 -59 -155T-7 -160Q16 -160 37 -152T85 -121T147 -54T231 62Q272 121 297 170T335 259T347 325Q347
348 334 363T287 381Q281 402 284 424Q304 429 326 437T367 453T397 468Z" />
<glyph unicode="z" horiz-adv-x="408" d="M5 -9Q-1 0 -4 12T-7 38Q98 128 177 214T304 371L306 364Q287 368 266 369T221 370Q185 370 165 365T130 347T101 309Q87 309 75 314T54 328Q71 358 82 391T99 458Q130 460 165 461T240 462Q278 462 314 461T380 458Q394
440 395 416Q362 360 315 299T213 177T98 64L104 80Q133 92 155 94T198 94T240 91Q273 91 286 102T315 145Q328 146 342 143T366 132Q356 106 348 74T337 12Q330 1 312 -4T251 -9Q200 -9 161 -5T83 0Q65 0 46 -2T5 -9Z" />
<glyph unicode="{" horiz-adv-x="348" d="M394 744Q398 736 399 725T398 704Q346 694 320 668T284 606T273 529T270 445T255 366T212 300T122 259Q169 245 191 220T219 162T218 90T201 12T181 -66T172 -137T186 -195T236 -234Q236 -245 233 -255T224 -273Q166
-254 137 -226T98 -162T90 -88T102 -8T118 71T125 142T108 201T53 241Q53 251 56 260T65 278Q108 292 130 316T162 372T174 440T179 513T189 585T219 652T283 707T394 744Z" />
<glyph unicode="|" horiz-adv-x="147" d="M-45 -246L139 711Q165 724 197 717Q145 467 100 230T11 -238Q-2 -245 -16 -246T-45 -246Z" />
<glyph unicode="}" horiz-adv-x="352" d="M128 743Q188 724 219 697T261 638T271 572T261 504T245 436T237 373T253 320T306 280Q309 272 308 263T305 243Q261 231 237 205T200 143T183 67T172 -17T157 -100T125 -175T63 -235T-40 -273Q-44 -262 -45 -253T-43
-233Q0 -226 24 -204T58 -150T72 -79T77 2T85 84T107 159T155 220T241 259Q185 274 163 301T139 362T149 436T173 515T189 590T177 656T113 705Q115 716 118 726T128 743Z" />
<glyph unicode="~" horiz-adv-x="550" d="M71 190Q60 196 54 202T45 219Q84 279 118 300T185 322Q211 322 235 313T284 292T331 271T380 262Q403 262 424 273T471 310Q482 309 490 305T505 292Q480 254 456 232T411 202T371 193Q346 193 323 203T276 225T230 248T181
258Q156 258 129 243T71 190Z" />
<glyph unicode="&#xa0;" horiz-adv-x="183" />
<glyph unicode="&#xa1;" horiz-adv-x="416" d="M80 -255Q64 -250 61 -237T66 -197Q80 -147 99 -76T137 76T174 231Q188 232 202 231T227 224Q216 133 209 58T198 -85T190 -221Q164 -226 132 -235T80 -255ZM236 467Q268 467 284 447T294 394Q289 371 272 356T229
341Q210 341 197 350T176 375T174 413Q178 437 194 452T236 467Z" />
<glyph unicode="&#xa2;" horiz-adv-x="381" d="M152 -9Q103 -9 75 12T34 69T22 148T33 237Q43 284 63 325T112 399T181 449T275 467Q304 467 331 461T375 441Q366 416 361 388T352 333Q330 323 298 329Q302 376 290 395T251 414Q218 414 196 391T160 332T139 253Q134
221 132 188T135 128T158 83T206 66Q235 66 263 81T315 120Q324 113 328 104T336 83Q295 35 248 13T152 -9ZM175 -136Q160 -135 146 -131T122 -117L262 614Q278 614 291 610T316 595Q293 493 274 403T238 227T207 53T175 -136Z" />
<glyph unicode="&#xa3;" horiz-adv-x="514" d="M341 -9Q312 -9 293 -1T257 19T216 39T156 48Q124 48 90 35T17 -9Q5 -1 -3 10T-16 36Q48 85 86 131T137 245Q143 280 139 308T126 365T113 426T116 506Q124 552 153 593T232 659T347 685Q395 685 432 674T499 642Q491
611 487 579T480 509Q465 505 449 506T419 511Q424 578 402 605T329 633Q291 633 261 607T224 536Q217 498 222 470T237 418T251 366T250 302Q246 275 236 249T210 197T169 143T112 84L105 90Q131 108 153 118T196 133T239 138Q274 138 298 126T342 103T378 91Q407
91 423 120Q436 118 447 110T462 92Q451 63 433 40T392 4T341 -9ZM381 341Q381 325 377 310T366 284Q335 284 301 284T231 284T160 284T94 283T37 281Q35 318 52 341H381Z" />
<glyph unicode="&#xa4;" horiz-adv-x="475" d="M259 432Q316 432 355 408T412 342T420 246Q407 170 353 123T224 76Q166 76 127 102T71 174T64 279Q76 348 129 390T259 432ZM249 386Q202 386 168 356T124 276Q112 209 142 165T233 121Q280 121 315 155T360 239Q372
304 342 345T249 386ZM425 73Q417 66 403 62T376 55L313 127L348 157L425 73ZM364 385L428 442Q441 439 453 432T471 416L396 354L364 385ZM57 422Q65 429 79 434T107 440L158 382L123 352L57 422ZM128 122L59 57Q47 58 34 64T13 80L95 152L128 122Z" />
<glyph unicode="&#xa5;" horiz-adv-x="586" d="M281 215Q257 299 230 378T172 536Q156 576 146 594T126 620T101 631Q99 643 99 654T100 679Q121 678 141 677T181 676T219 676Q238 676 259 676T304 677T353 679Q353 665 350 653T343 630Q295 623 283 607T286 551Q308
491 327 428T363 299L346 308Q384 361 418 415T488 530Q515 579 514 601T467 631Q463 652 466 679Q491 677 515 677T566 676Q590 676 611 676T657 679Q657 654 647 631Q636 627 625 620T598 595T559 539Q499 442 446 366T338 215H281ZM140 -3Q141 12 143 24T149
46Q184 52 202 60T229 88T244 142L269 282H379L353 132Q347 102 349 85T368 60T422 45Q424 34 425 22T424 -3Q393 -1 357 -1T285 0Q247 0 208 0T140 -3ZM90 189Q89 205 91 221T102 249H539Q538 234 534 219T521 192Q456 192 384 192T237 192T90 189ZM106 315Q105
332 109 348T121 375H306L332 318Q276 318 239 318T172 317T106 315ZM366 318L407 375H554Q555 360 552 345T540 318H366Z" />
<glyph unicode="&#xa6;" horiz-adv-x="149" d="M-45 -246L33 162Q62 175 91 166Q69 64 50 -37T11 -238Q-2 -245 -16 -246T-45 -246ZM66 330L139 711Q165 724 197 717Q176 619 158 524T124 334Q96 320 66 330Z" />
<glyph unicode="&#xa7;" horiz-adv-x="515" d="M330 715Q373 715 410 704T475 670Q470 637 467 606T463 541Q451 537 435 535T404 535Q403 587 393 615T362 653T314 664Q284 664 264 648T238 604Q230 568 248 540T297 488T365 438T431 382T476 310T480 212Q471
167 442 133T366 74T260 39L229 77Q263 84 293 100T344 141T371 195Q379 239 363 271T317 329T253 380T190 434T145 500T140 592Q148 628 173 655T238 699T330 715ZM37 256Q46 300 75 335T150 394T256 429L288 390Q254 384 224 368T173 327T146 273Q138 229 153
197T199 139T263 88T327 34T371 -33T376 -124Q370 -160 344 -188T278 -231T187 -247Q143 -247 107 -236T41 -203Q47 -170 50 -138T53 -73Q65 -68 81 -67T113 -67Q114 -120 124 -147T154 -185T203 -196Q233 -196 253 -180T279 -136Q286 -100 269 -72T219 -20T151
29T85 85T40 158T37 256Z" />
<glyph unicode="&#xa8;" horiz-adv-x="300" d="M552 527Q523 527 510 546T501 594Q507 622 524 634T564 646Q591 646 605 631T614 583Q604 527 552 527ZM385 527Q355 527 343 548T336 597Q342 620 356 633T395 646Q427 646 440 628T447 580Q442 556 426 542T385 527Z" />
<glyph unicode="&#xa9;" horiz-adv-x="739" d="M333 -112Q227 -112 155 -65T53 68T45 263Q65 358 115 427T240 534T408 572Q489 572 550 544T648 466T698 347T694 197Q675 100 625 31T500 -75T333 -112ZM338 -64Q462 -64 541 7T646 197Q666 289 644 363T561 481T402
525Q280 525 200 455T93 263Q73 169 95 95T180 -21T338 -64ZM310 13Q263 13 235 32T195 84T184 157T194 238Q205 281 224 319T272 387T340 433T432 450Q460 450 486 444T530 426Q521 403 516 377T507 326Q485 317 455 323Q458 365 447 383T408 401Q375 401 353
380T318 326T297 253Q292 224 290 194T294 138T316 97T363 81Q392 81 420 95T471 131Q479 124 483 116T491 98Q451 53 404 33T310 13Z" />
<glyph unicode="&#xaa;" horiz-adv-x="470" d="M421 717Q431 711 433 699T427 648L390 483Q383 447 384 439T394 430Q400 430 409 434T428 448Q435 443 440 431T446 409Q426 388 402 375T358 361Q332 361 320 372T304 400T304 437T314 472H308L361 632L353 709Q370
708 388 710T421 717ZM377 706L359 660Q349 664 335 667T306 670Q267 670 243 639T207 552Q195 495 199 468T221 440Q234 440 253 459T295 518T333 619L349 678L389 672L330 511Q317 476 293 441T239 384T174 361Q153 361 139 371T117 402T109 452T116 521Q128
578 156 622T227 691T321 717Q337 717 352 714T377 706Z" />
<glyph unicode="&#xab;" horiz-adv-x="442" d="M217 417Q230 417 241 411T257 397Q240 380 218 355T174 304T140 260Q147 241 159 213T184 159T206 116Q202 104 194 95T176 79Q144 124 111 163T48 235Q48 249 52 261T64 281Q107 317 144 348T217 417ZM384 411Q397
410 408 404T424 390Q407 372 388 349T350 302T318 260Q324 241 333 216T353 165T373 122Q369 110 362 101T344 85Q313 128 284 165T226 235Q226 249 230 261T241 281Q284 317 316 346T384 411Z" />
<glyph unicode="&#xac;" horiz-adv-x="550" d="M406 110L451 324L481 296Q376 296 277 296T66 294Q66 306 69 324T76 351H512L466 119Q439 104 406 110Z" />
<glyph unicode="&#xad;" horiz-adv-x="371" d="M46 223Q48 248 52 264T64 296H336Q335 273 332 257T321 226Q272 226 202 226T46 223Z" />
<glyph unicode="&#xae;" horiz-adv-x="512" d="M326 392Q272 392 228 417T158 486T132 585Q132 640 157 683T227 753T326 779Q380 779 424 753T493 684T518 585Q518 530 493 486T424 417T326 392ZM354 484Q348 506 340 525T317 563L348 573Q366 556 378 535T397
489Q378 481 354 484ZM326 431Q370 431 404 451T459 507T479 585Q479 629 459 664T404 719T326 739Q282 739 247 719T192 664T171 585Q171 542 191 507T247 452T326 431ZM246 485L277 682Q297 687 316 689T347 691Q386 691 401 677T411 632Q407 606 389 584T331
561L330 557H291L295 586Q303 585 309 584T322 583Q341 583 353 592T369 623Q373 646 363 655T338 664Q333 664 327 663T315 660L287 485Q266 481 246 485Z" />
<glyph unicode="&#xaf;" horiz-adv-x="300" d="M300 582Q300 589 302 605T309 631H659Q659 621 657 609T650 586Q552 586 464 586T300 582Z" />
<glyph unicode="&#xb0;" horiz-adv-x="390" d="M275 700Q341 700 374 663T397 564Q387 511 348 480T251 448Q185 448 152 487T130 593Q138 642 178 671T275 700ZM269 659Q246 659 229 642T206 595Q198 549 212 520T257 491Q280 491 297 511T320 563Q328 606 314
632T269 659Z" />
<glyph unicode="&#xb1;" horiz-adv-x="550" d="M227 133Q239 200 250 255T271 364T292 484Q306 489 320 489T348 488L283 136Q260 123 227 133ZM21 41Q21 58 23 72T31 95H464Q466 80 464 67T454 42Q430 42 407 42T360 43T310 43T252 43Q190 43 138 43T21 41ZM102
276Q102 294 105 308T112 330H472Q475 300 463 277Q431 278 408 278T358 277T290 277Q259 277 213 277T102 276Z" />
<glyph unicode="&#xb2;" horiz-adv-x="350" d="M284 762Q340 762 368 741T386 674Q380 640 356 616T276 555Q254 539 231 522T179 482L166 493H265Q287 493 298 495T315 506T326 533Q338 533 350 532T369 528Q364 499 361 475T358 431Q353 421 344 415T323 409Q296
409 262 409T195 410Q163 410 131 410T80 409Q75 418 75 429T76 455Q104 479 134 502T198 552Q231 577 249 595T276 629T288 662Q293 689 284 704T250 720Q226 720 210 702T177 629Q163 629 150 630T128 637Q134 655 139 682T145 728Q172 743 205 752T284 762Z"
/>
<glyph unicode="&#xb3;" horiz-adv-x="336" d="M153 291Q112 291 86 302T47 330Q48 337 52 344T64 357Q74 346 92 341T130 335Q175 335 209 361T252 436Q259 470 247 488T213 514T165 524Q162 533 164 543T170 562Q201 563 224 574T262 608T284 661Q291 695 280
708T245 721Q214 721 198 700T164 628Q152 628 138 630T116 641Q121 661 125 686T131 736Q159 749 190 755T254 761Q327 761 357 733T376 650Q363 593 323 572T233 550L230 555Q295 555 328 523T348 430Q335 369 284 330T153 291Z" />
<glyph unicode="&#xb4;" horiz-adv-x="300" d="M216 714Q248 722 277 720T326 704Q287 669 247 624T172 531Q147 532 129 547Q149 580 166 610T196 667T216 714Z" />
<glyph unicode="&#xb5;" horiz-adv-x="534" d="M2 -245Q-7 -239 -12 -229T-18 -209Q-13 -196 -8 -181T4 -141T18 -76L89 270Q97 311 99 333T98 365T80 379T44 382Q44 393 45 405T51 426Q70 428 98 434T154 449T198 467Q211 460 217 451T221 419T210 353T181 229Q164
152 168 116T195 79Q217 79 249 107T313 196T362 348L383 458H489L441 209Q428 143 424 113T422 75T434 67Q446 67 456 73T482 95Q490 89 495 79T503 58Q479 31 447 11T381 -9Q353 -9 338 6T319 46T322 104Q324 112 327 124T338 152H336Q326 124 309 96T271 44T228
6T183 -9Q158 -9 145 9T130 55T131 109L135 107L106 -44Q98 -87 96 -119T97 -177Q67 -191 48 -205T2 -245Z" />
<glyph unicode="&#xb6;" horiz-adv-x="560" d="M384 678Q428 678 463 677T533 676Q551 676 568 676T607 679Q607 667 605 655T598 631Q568 628 554 620T534 595T521 547Q503 453 488 375T461 225T437 81T412 -71T384 -247Q369 -248 355 -248T328 -243L483 644L494
626Q464 629 437 630T365 631Q286 631 248 605T199 513Q189 458 202 423T243 371T307 355H336L328 315Q317 312 302 311T273 310Q169 310 121 361T90 507Q99 558 133 596T229 656T384 678ZM371 649L429 650Q399 495 373 349T322 57T272 -248Q257 -249 243 -248T217
-239L371 649Z" />
<glyph unicode="&#xb7;" horiz-adv-x="214" d="M114 212Q83 212 67 232T57 285Q62 308 79 323T122 338Q140 338 153 329T174 304T177 266Q172 242 156 227T114 212Z" />
<glyph unicode="&#xb8;" horiz-adv-x="300" d="M-5 -242Q-7 -234 -7 -225T-6 -207Q31 -207 54 -196T83 -159Q88 -131 73 -117T29 -102Q14 -87 19 -63L87 16H147L89 -54Q126 -61 142 -86T149 -156Q140 -200 98 -221T-5 -242Z" />
<glyph unicode="&#xb9;" horiz-adv-x="268" d="M74 408Q74 419 77 429T84 448Q104 450 115 455T132 475T144 516L170 653Q178 692 171 705T137 719Q135 729 135 739T138 760Q149 759 167 759T205 758T235 758Q249 758 267 758T303 758T332 760Q332 749 330 740T322
719Q304 718 293 713T275 694T263 653L237 517Q232 490 232 475T242 455T269 448Q271 438 271 429T268 408Q255 409 236 409T198 409T171 410Q159 410 141 410T105 409T74 408Z" />
<glyph unicode="&#xba;" horiz-adv-x="429" d="M309 717Q379 717 411 669T430 539Q415 454 362 406T237 358Q167 358 136 405T118 532Q134 619 185 668T309 717ZM299 671Q270 671 248 639T215 542Q207 500 208 469T219 422T245 405Q273 405 296 438T331 535Q342
594 334 632T299 671Z" />
<glyph unicode="&#xbb;" horiz-adv-x="451" d="M295 415Q320 381 347 349T405 283Q410 272 410 260T407 236Q364 202 319 162T231 84Q212 100 210 126Q238 152 270 185T325 246Q318 267 306 295T279 353T252 404Q262 411 273 414T295 415ZM123 410Q148 375 171
346T222 283Q227 272 227 260T224 236Q181 202 142 167T60 90Q42 106 39 131Q67 158 94 188T143 246Q132 278 116 319T80 398Q90 406 101 408T123 410Z" />
<glyph unicode="&#xbc;" horiz-adv-x="862" d="M314 730Q328 726 331 718T330 688L274 402Q268 368 271 352T289 331T334 323Q335 313 334 302T331 279Q310 280 287 280T241 280T195 281Q164 281 128 281T62 279Q64 290 67 301T75 323Q107 325 126 330T157 352T175
402L210 585Q216 613 213 626T189 645T122 650Q125 662 128 673T136 696Q189 699 232 707T314 730ZM164 -7Q150 -3 139 5T121 21L765 714Q778 711 789 702T808 685L164 -7ZM547 -3Q550 9 553 24T561 46Q596 48 613 59T639 110L690 375L720 376L529 169L524 193H789Q802
193 809 191T821 181Q812 169 804 153T790 118Q705 118 645 117T544 115T471 110Q456 131 462 166Q505 209 551 255T644 350T734 449Q745 450 755 450T775 448T794 443L729 110Q724 81 726 68T738 51T767 46Q769 38 767 24T763 -3Q751 -2 731 -2T691 -1T655 0Q639
0 618 0T578 -1T547 -3Z" />
<glyph unicode="&#xbd;" horiz-adv-x="946" d="M314 730Q328 726 331 718T330 688L274 402Q268 368 271 352T289 331T334 323Q335 313 334 302T331 279Q310 280 287 280T241 280T195 281Q164 281 128 281T62 279Q64 290 67 301T75 323Q107 325 126 330T157 352T175
402L210 585Q216 613 213 626T189 645T122 650Q125 662 128 673T136 696Q189 699 232 707T314 730ZM164 -7Q150 -3 139 5T121 21L765 714Q778 711 789 702T808 685L164 -7ZM549 -2Q542 7 541 19T543 47Q585 88 613 115T666 164T720 213Q755 243 773 269T797 325Q804
359 792 376T750 394Q719 394 701 371T663 290Q646 289 632 291T604 298Q614 326 619 356T628 419Q665 435 702 442T780 449Q831 449 862 438T906 405T911 346Q904 305 875 272T792 197Q758 172 736 154T693 118T644 73L650 96H752Q780 96 795 100T820 118T839
158Q853 159 868 158T893 151Q883 108 879 77T875 22Q867 10 856 4T829 -2Q824 -2 808 -2T765 -1T707 0Q673 0 639 0T549 -2Z" />
<glyph unicode="&#xbe;" horiz-adv-x="914" d="M292 730Q370 730 407 701T434 619Q425 571 382 546T266 521L263 526Q344 526 383 494T412 403Q400 342 343 309T192 275Q151 275 116 284T55 313Q62 333 66 355T71 400Q82 403 98 403T128 397Q128 355 139 338T191
320Q235 320 263 343T299 406Q307 444 277 465T184 488Q180 512 192 534Q249 534 283 559T326 627Q331 656 318 670T275 685Q241 685 222 665T187 598Q172 600 157 605T132 619Q138 639 142 661T145 706Q178 719 214 724T292 730ZM216 -7Q202 -3 191 5T173 21L817
714Q830 711 841 702T860 685L216 -7ZM598 -3Q601 9 604 24T612 46Q647 48 664 59T690 110L741 375L771 376L580 169L575 193H840Q853 193 860 191T872 181Q863 169 855 153T841 118Q756 118 696 117T595 115T522 110Q507 131 513 166Q556 209 602 255T695 350T785
449Q796 450 806 450T826 448T845 443L780 110Q775 81 777 68T789 51T818 46Q820 38 818 24T814 -3Q802 -2 782 -2T742 -1T706 0Q690 0 669 0T629 -1T598 -3Z" />
<glyph unicode="&#xbf;" horiz-adv-x="525" d="M321 -213Q300 -229 260 -242T173 -256Q93 -256 53 -217T26 -111Q34 -73 54 -45T101 8T155 57T202 112T231 184Q234 197 235 216T235 251Q245 256 255 258T277 260Q291 249 298 215T298 137Q290 98 273 69T235 18T193
-25T157 -67T136 -118Q128 -158 141 -184T190 -210Q211 -210 229 -197T262 -156T292 -80Q310 -80 321 -82T344 -92Q332 -130 328 -154T321 -213ZM296 466Q327 466 343 446T353 393Q349 370 331 356T288 341Q270 341 257 349T236 374T233 412Q238 437 254 451T296
466Z" />
<glyph unicode="&#xc0;" horiz-adv-x="691" d="M-28 -3Q-28 10 -26 22T-19 45Q-1 51 13 61T43 94T82 155Q117 214 153 275T225 401T300 534T381 676Q392 680 403 681T426 682Q453 590 477 499T525 318T569 142Q578 103 586 84T604 57T628 45Q631 34 631 22T631
-3Q615 -1 593 -1T549 0T513 0Q500 0 485 0T454 0T421 -1T389 -3Q389 10 391 22T398 45Q441 51 452 66T452 127Q434 204 415 280T374 432Q365 464 360 492T349 558H360Q343 520 328 491T294 427Q256 356 217 286T135 144Q114 109 110 89T116 60T152 45Q154 34 155
22T155 -3Q139 -1 123 -1T91 0T58 0Q32 0 13 0T-28 -3ZM155 205L178 260H438L442 211Q397 211 348 211T248 209T155 205ZM456 740Q446 736 429 736T401 740Q390 759 374 781T340 825T303 865Q326 873 353 874T407 870Q415 839 427 806T456 740Z" />
<glyph unicode="&#xc1;" horiz-adv-x="691" d="M-28 -3Q-28 10 -26 22T-19 45Q-1 51 13 61T43 94T82 155Q117 214 153 275T225 401T300 534T381 676Q392 680 403 681T426 682Q453 590 477 499T525 318T569 142Q578 103 586 84T604 57T628 45Q631 34 631 22T631
-3Q615 -1 593 -1T549 0T513 0Q500 0 485 0T454 0T421 -1T389 -3Q389 10 391 22T398 45Q441 51 452 66T452 127Q434 204 415 280T374 432Q365 464 360 492T349 558H360Q343 520 328 491T294 427Q256 356 217 286T135 144Q114 109 110 89T116 60T152 45Q154 34 155
22T155 -3Q139 -1 123 -1T91 0T58 0Q32 0 13 0T-28 -3ZM155 205L178 260H438L442 211Q397 211 348 211T248 209T155 205ZM404 729Q391 731 380 735T358 748Q378 772 394 796T422 841T441 876Q452 878 462 879T483 880Q504 880 522 877T555 866Q517 834 478 799T404
729Z" />
<glyph unicode="&#xc2;" horiz-adv-x="691" d="M-28 -3Q-28 10 -26 22T-19 45Q-1 51 13 61T43 94T82 155Q117 214 153 275T225 401T300 534T381 676Q392 680 403 681T426 682Q453 590 477 499T525 318T569 142Q578 103 586 84T604 57T628 45Q631 34 631 22T631
-3Q615 -1 593 -1T549 0T513 0Q500 0 485 0T454 0T421 -1T389 -3Q389 10 391 22T398 45Q441 51 452 66T452 127Q434 204 415 280T374 432Q365 464 360 492T349 558H360Q343 520 328 491T294 427Q256 356 217 286T135 144Q114 109 110 89T116 60T152 45Q154 34 155
22T155 -3Q139 -1 123 -1T91 0T58 0Q32 0 13 0T-28 -3ZM155 205L178 260H438L442 211Q397 211 348 211T248 209T155 205ZM291 728Q282 736 277 749T272 773Q300 789 327 806T379 843T428 880Q441 882 452 881T474 874Q499 846 527 817T586 757Q581 747 571 741T547
733Q519 751 489 767T426 795Q403 787 380 776T334 752T291 728Z" />
<glyph unicode="&#xc3;" horiz-adv-x="691" d="M-28 -3Q-28 10 -26 22T-19 45Q-1 51 13 61T43 94T82 155Q117 214 153 275T225 401T300 534T381 676Q392 680 403 681T426 682Q453 590 477 499T525 318T569 142Q578 103 586 84T604 57T628 45Q631 34 631 22T631
-3Q615 -1 593 -1T549 0T513 0Q500 0 485 0T454 0T421 -1T389 -3Q389 10 391 22T398 45Q441 51 452 66T452 127Q434 204 415 280T374 432Q365 464 360 492T349 558H360Q343 520 328 491T294 427Q256 356 217 286T135 144Q114 109 110 89T116 60T152 45Q154 34 155
22T155 -3Q139 -1 123 -1T91 0T58 0Q32 0 13 0T-28 -3ZM155 205L178 260H438L442 211Q397 211 348 211T248 209T155 205ZM476 746Q455 746 439 752T409 765T379 777T347 783Q326 783 306 773T267 749Q260 758 258 769T256 795Q291 830 323 841T381 853Q409 853
429 844T468 827T507 818Q525 818 540 826T570 848Q579 844 587 838T601 821Q570 781 539 764T476 746Z" />
<glyph unicode="&#xc4;" horiz-adv-x="691" d="M-28 -3Q-28 10 -26 22T-19 45Q-1 51 13 61T43 94T82 155Q117 214 153 275T225 401T300 534T381 676Q392 680 403 681T426 682Q453 590 477 499T525 318T569 142Q578 103 586 84T604 57T628 45Q631 34 631 22T631
-3Q615 -1 593 -1T549 0T513 0Q500 0 485 0T454 0T421 -1T389 -3Q389 10 391 22T398 45Q441 51 452 66T452 127Q434 204 415 280T374 432Q365 464 360 492T349 558H360Q343 520 328 491T294 427Q256 356 217 286T135 144Q114 109 110 89T116 60T152 45Q154 34 155
22T155 -3Q139 -1 123 -1T91 0T58 0Q32 0 13 0T-28 -3ZM155 205L178 260H438L442 211Q397 211 348 211T248 209T155 205ZM319 730Q291 730 278 749T269 800Q272 823 287 835T328 848Q357 848 371 830T379 782Q367 730 319 730ZM521 731Q493 731 479 749T469 796Q477
848 532 848Q559 848 573 831T582 785Q574 731 521 731Z" />
<glyph unicode="&#xc5;" horiz-adv-x="691" d="M-28 -3Q-28 10 -26 22T-19 45Q-1 51 13 61T43 94T82 155Q117 214 153 275T225 401T300 534T381 676Q392 680 403 681T426 682Q453 590 477 499T525 318T569 142Q578 103 586 84T604 57T628 45Q631 34 631 22T631
-3Q615 -1 593 -1T549 0T513 0Q500 0 485 0T454 0T421 -1T389 -3Q389 10 391 22T398 45Q441 51 452 66T452 127Q434 204 415 280T374 432Q365 464 360 492T349 558H360Q343 520 328 491T294 427Q256 356 217 286T135 144Q114 109 110 89T116 60T152 45Q154 34 155
22T155 -3Q139 -1 123 -1T91 0T58 0Q32 0 13 0T-28 -3ZM155 205L178 260H438L442 211Q397 211 348 211T248 209T155 205ZM422 721Q366 721 341 746T322 807Q328 840 357 858T434 877Q475 877 497 865T528 833T533 790Q527 758 499 740T422 721ZM425 758Q441 758
453 767T470 793Q474 811 465 826T431 842Q411 842 399 830T383 801Q379 783 391 771T425 758Z" />
<glyph unicode="&#xc6;" horiz-adv-x="865" d="M263 343H490L482 296Q433 296 389 296T305 294T231 289L263 343ZM703 424Q718 427 730 427T758 426Q752 400 747 376T737 312Q732 277 730 250T725 198Q709 200 696 202T673 211Q675 243 668 261T639 288T579 296H524L532
343H584Q643 343 669 359T703 424ZM868 679Q863 641 861 596T860 513Q837 504 803 505Q802 547 794 574T756 613T664 626H571L602 676Q646 676 689 676T776 677T868 679ZM775 179Q791 177 804 172T828 155Q812 123 798 83T775 -3Q746 -1 713 -1T645 0T571 0L585
50H590Q648 50 680 64T734 108T775 179ZM512 676H603L514 149Q507 106 509 85T530 57T585 50L571 0Q537 0 503 0T436 0T372 -1T312 -3Q312 9 314 21T321 46Q351 49 366 58T389 89T404 151L466 504Q477 565 489 608T512 676ZM387 534Q417 576 409 601T354 631Q351
642 351 654T353 679Q395 678 427 677T483 676T527 676Q509 643 488 609T438 531T370 433T277 303T150 128Q122 90 123 72T152 45Q154 34 155 22T155 -3Q139 -1 123 -1T91 0T58 0Q32 0 13 0T-28 -3Q-28 10 -26 22T-19 45Q-1 51 14 59T48 87T95 142Q144 204 191
269T288 400T387 534Z" />
<glyph unicode="&#xc7;" horiz-adv-x="632" d="M665 627Q652 593 645 556T632 475Q604 464 572 473Q580 541 568 576T528 625T458 638Q379 638 320 597T226 487T180 335Q172 261 188 198T250 96T373 57Q424 57 472 71T565 112Q574 104 577 93T582 69Q526 29 466
10T341 -9Q237 -9 170 36T75 159T59 333Q72 425 110 491T204 601T323 664T452 685Q515 685 565 671T665 627ZM227 -242Q225 -234 225 -225T226 -207Q263 -207 286 -196T315 -159Q320 -131 305 -117T261 -102Q246 -87 251 -63L319 16H379L321 -54Q358 -61 374 -86T381
-156Q372 -200 330 -221T227 -242Z" />
<glyph unicode="&#xc8;" horiz-adv-x="592" d="M26 -3Q26 9 28 21T35 46Q64 49 79 58T103 89T117 151L184 534Q191 571 188 591T169 619T126 631Q124 642 124 653T125 679Q153 678 180 678T233 677T280 676T317 676L227 149Q220 106 223 85T244 57T298 50L285
0Q250 0 216 0T149 0T85 -1T26 -3ZM502 -3Q472 -1 439 -1T368 0T285 0L298 50H316Q374 50 407 64T460 108T501 179Q517 177 530 172T554 155Q538 123 524 83T502 -3ZM454 220Q438 222 425 224T402 233Q404 265 397 283T368 309T308 317H240L249 367H313Q372 367
398 383T432 446Q446 449 459 449T487 448Q481 423 476 398T465 334Q461 300 459 273T454 220ZM529 505Q528 547 520 574T482 613T390 626H285L315 676Q366 676 411 676T501 677T594 679Q589 641 587 596T587 513Q563 504 529 505ZM421 740Q411 736 394 736T366
740Q355 759 339 781T305 825T268 865Q291 873 318 874T372 870Q380 839 392 806T421 740Z" />
<glyph unicode="&#xc9;" horiz-adv-x="592" d="M26 -3Q26 9 28 21T35 46Q64 49 79 58T103 89T117 151L184 534Q191 571 188 591T169 619T126 631Q124 642 124 653T125 679Q153 678 180 678T233 677T280 676T317 676L227 149Q220 106 223 85T244 57T298 50L285
0Q250 0 216 0T149 0T85 -1T26 -3ZM502 -3Q472 -1 439 -1T368 0T285 0L298 50H316Q374 50 407 64T460 108T501 179Q517 177 530 172T554 155Q538 123 524 83T502 -3ZM454 220Q438 222 425 224T402 233Q404 265 397 283T368 309T308 317H240L249 367H313Q372 367
398 383T432 446Q446 449 459 449T487 448Q481 423 476 398T465 334Q461 300 459 273T454 220ZM529 505Q528 547 520 574T482 613T390 626H285L315 676Q366 676 411 676T501 677T594 679Q589 641 587 596T587 513Q563 504 529 505ZM369 729Q356 731 345 735T323
748Q343 772 359 796T387 841T406 876Q417 878 427 879T448 880Q469 880 487 877T520 866Q482 834 443 799T369 729Z" />
<glyph unicode="&#xca;" horiz-adv-x="592" d="M26 -3Q26 9 28 21T35 46Q64 49 79 58T103 89T117 151L184 534Q191 571 188 591T169 619T126 631Q124 642 124 653T125 679Q153 678 180 678T233 677T280 676T317 676L227 149Q220 106 223 85T244 57T298 50L285
0Q250 0 216 0T149 0T85 -1T26 -3ZM502 -3Q472 -1 439 -1T368 0T285 0L298 50H316Q374 50 407 64T460 108T501 179Q517 177 530 172T554 155Q538 123 524 83T502 -3ZM454 220Q438 222 425 224T402 233Q404 265 397 283T368 309T308 317H240L249 367H313Q372 367
398 383T432 446Q446 449 459 449T487 448Q481 423 476 398T465 334Q461 300 459 273T454 220ZM529 505Q528 547 520 574T482 613T390 626H285L315 676Q366 676 411 676T501 677T594 679Q589 641 587 596T587 513Q563 504 529 505ZM256 728Q247 736 242 749T237
773Q265 789 292 806T344 843T393 880Q406 882 417 881T439 874Q464 846 492 817T551 757Q546 747 536 741T512 733Q484 751 454 767T391 795Q368 787 345 776T299 752T256 728Z" />
<glyph unicode="&#xcb;" horiz-adv-x="592" d="M26 -3Q26 9 28 21T35 46Q64 49 79 58T103 89T117 151L184 534Q191 571 188 591T169 619T126 631Q124 642 124 653T125 679Q153 678 180 678T233 677T280 676T317 676L227 149Q220 106 223 85T244 57T298 50L285
0Q250 0 216 0T149 0T85 -1T26 -3ZM502 -3Q472 -1 439 -1T368 0T285 0L298 50H316Q374 50 407 64T460 108T501 179Q517 177 530 172T554 155Q538 123 524 83T502 -3ZM454 220Q438 222 425 224T402 233Q404 265 397 283T368 309T308 317H240L249 367H313Q372 367
398 383T432 446Q446 449 459 449T487 448Q481 423 476 398T465 334Q461 300 459 273T454 220ZM529 505Q528 547 520 574T482 613T390 626H285L315 676Q366 676 411 676T501 677T594 679Q589 641 587 596T587 513Q563 504 529 505ZM284 730Q256 730 243 749T234
800Q237 823 252 835T293 848Q322 848 336 830T344 782Q332 730 284 730ZM486 731Q458 731 444 749T434 796Q442 848 497 848Q524 848 538 831T547 785Q539 731 486 731Z" />
<glyph unicode="&#xcc;" horiz-adv-x="366" d="M184 542Q190 576 187 593T169 619T126 631Q125 642 125 654T125 679Q154 678 186 677T252 676Q285 676 317 677T382 679Q381 666 380 654T372 631Q347 627 332 619T309 593T294 538L224 135Q218 101 221 83T238
57T281 45Q283 35 284 23T283 -3Q251 -1 220 -1T155 0Q122 0 88 0T26 -3Q26 11 28 23T36 45Q62 49 77 56T100 82T114 135L184 542ZM561 740Q551 736 534 736T506 740Q495 759 479 781T445 825T408 865Q431 873 458 874T512 870Q520 839 532 806T561 740Z" />
<glyph unicode="&#xcd;" horiz-adv-x="366" d="M184 542Q190 576 187 593T169 619T126 631Q125 642 125 654T125 679Q154 678 186 677T252 676Q285 676 317 677T382 679Q381 666 380 654T372 631Q347 627 332 619T309 593T294 538L224 135Q218 101 221 83T238
57T281 45Q283 35 284 23T283 -3Q251 -1 220 -1T155 0Q122 0 88 0T26 -3Q26 11 28 23T36 45Q62 49 77 56T100 82T114 135L184 542ZM253 729Q240 731 229 735T207 748Q227 772 243 796T271 841T290 876Q301 878 311 879T332 880Q353 880 371 877T404 866Q366 834
327 799T253 729Z" />
<glyph unicode="&#xce;" horiz-adv-x="366" d="M184 542Q190 576 187 593T169 619T126 631Q125 642 125 654T125 679Q154 678 186 677T252 676Q285 676 317 677T382 679Q381 666 380 654T372 631Q347 627 332 619T309 593T294 538L224 135Q218 101 221 83T238
57T281 45Q283 35 284 23T283 -3Q251 -1 220 -1T155 0Q122 0 88 0T26 -3Q26 11 28 23T36 45Q62 49 77 56T100 82T114 135L184 542ZM422 708Q410 717 403 727T395 753Q430 777 466 809T535 873Q550 873 560 873T578 870Q597 838 619 804T667 729Q659 723 645 719T621
715Q600 736 577 755T533 789Q502 769 474 749T422 708Z" />
<glyph unicode="&#xcf;" horiz-adv-x="366" d="M184 542Q190 576 187 593T169 619T126 631Q125 642 125 654T125 679Q154 678 186 677T252 676Q285 676 317 677T382 679Q381 666 380 654T372 631Q347 627 332 619T309 593T294 538L224 135Q218 101 221 83T238
57T281 45Q283 35 284 23T283 -3Q251 -1 220 -1T155 0Q122 0 88 0T26 -3Q26 11 28 23T36 45Q62 49 77 56T100 82T114 135L184 542ZM441 733Q412 733 397 751T386 793Q390 814 406 829T453 844Q489 844 501 825T508 779Q503 759 485 746T441 733ZM608 734Q575 734
561 753T553 800Q557 821 575 832T619 844Q648 844 663 827T674 783Q670 764 655 749T608 734Z" />
<glyph unicode="&#xd0;" horiz-adv-x="735" d="M397 679Q451 679 504 670T602 638T679 576T721 474T715 325Q703 255 675 202T605 110T513 47T405 12T284 0H173L182 50H295Q349 50 397 64T485 109T554 193T597 322Q614 412 603 472T558 567T478 616T376 631Q355
631 338 629T302 621L261 676Q294 676 328 677T397 679ZM125 679Q147 678 173 678T227 677T277 676T316 676L225 141Q219 102 221 83T241 57T295 50L284 0Q256 0 223 0T154 0T85 -1T23 -3Q24 10 26 23T32 45Q62 49 77 58T101 89T116 151L185 546Q191 581 187 598T168
621T127 631Q124 644 124 656T125 679ZM70 314Q70 327 73 344T80 371H390Q390 354 388 341T380 315Q343 316 313 316T243 316Q203 316 176 316T125 315T70 314Z" />
<glyph unicode="&#xd1;" horiz-adv-x="681" d="M29 45Q55 50 72 62T100 103T119 179L195 611L249 610L176 188Q167 135 167 106T183 65T230 45Q233 34 233 23T232 -3Q201 -1 172 -1T121 0Q97 0 76 0T21 -3Q22 24 29 45ZM125 679Q142 678 159 677T195 676Q217 676
237 677T272 679Q345 551 416 415T553 147L508 -9Q431 148 352 297T186 598Q176 618 164 623T127 631Q124 642 124 654T125 679ZM532 679Q555 677 581 677T627 676Q651 676 679 676T729 679Q728 668 726 655T719 631Q697 624 683 610T660 567T642 484L557 -3Q547
-7 535 -8T508 -9L523 114L588 493Q597 545 595 573T578 613T533 631Q531 642 531 654T532 679ZM504 746Q483 746 467 752T437 765T407 777T375 783Q354 783 334 773T295 749Q288 758 286 769T284 795Q319 830 351 841T409 853Q437 853 457 844T496 827T535 818Q553
818 568 826T598 848Q607 844 615 838T629 821Q598 781 567 764T504 746Z" />
<glyph unicode="&#xd2;" horiz-adv-x="741" d="M346 -9Q244 -9 174 39T74 173T66 371Q78 439 111 496T194 595T305 661T437 685Q536 685 607 641T710 511T718 302Q701 215 650 145T521 33T346 -9ZM362 40Q425 40 473 74T554 168T600 303Q618 401 599 475T534 593T420
636Q362 636 314 602T233 509T186 378Q173 309 178 248T205 141T267 67T362 40ZM496 740Q486 736 469 736T441 740Q430 759 414 781T380 825T343 865Q366 873 393 874T447 870Q455 839 467 806T496 740Z" />
<glyph unicode="&#xd3;" horiz-adv-x="741" d="M346 -9Q244 -9 174 39T74 173T66 371Q78 439 111 496T194 595T305 661T437 685Q536 685 607 641T710 511T718 302Q701 215 650 145T521 33T346 -9ZM362 40Q425 40 473 74T554 168T600 303Q618 401 599 475T534 593T420
636Q362 636 314 602T233 509T186 378Q173 309 178 248T205 141T267 67T362 40ZM444 729Q431 731 420 735T398 748Q418 772 434 796T462 841T481 876Q492 878 502 879T523 880Q544 880 562 877T595 866Q557 834 518 799T444 729Z" />
<glyph unicode="&#xd4;" horiz-adv-x="741" d="M346 -9Q244 -9 174 39T74 173T66 371Q78 439 111 496T194 595T305 661T437 685Q536 685 607 641T710 511T718 302Q701 215 650 145T521 33T346 -9ZM362 40Q425 40 473 74T554 168T600 303Q618 401 599 475T534 593T420
636Q362 636 314 602T233 509T186 378Q173 309 178 248T205 141T267 67T362 40ZM331 728Q322 736 317 749T312 773Q340 789 367 806T419 843T468 880Q481 882 492 881T514 874Q539 846 567 817T626 757Q621 747 611 741T587 733Q559 751 529 767T466 795Q443 787
420 776T374 752T331 728Z" />
<glyph unicode="&#xd5;" horiz-adv-x="741" d="M346 -9Q244 -9 174 39T74 173T66 371Q78 439 111 496T194 595T305 661T437 685Q536 685 607 641T710 511T718 302Q701 215 650 145T521 33T346 -9ZM362 40Q425 40 473 74T554 168T600 303Q618 401 599 475T534 593T420
636Q362 636 314 602T233 509T186 378Q173 309 178 248T205 141T267 67T362 40ZM517 746Q496 746 480 752T450 765T420 777T388 783Q367 783 347 773T308 749Q301 758 299 769T297 795Q332 830 364 841T422 853Q450 853 470 844T509 827T548 818Q566 818 581 826T611
848Q620 844 628 838T642 821Q611 781 580 764T517 746Z" />
<glyph unicode="&#xd6;" horiz-adv-x="741" d="M346 -9Q244 -9 174 39T74 173T66 371Q78 439 111 496T194 595T305 661T437 685Q536 685 607 641T710 511T718 302Q701 215 650 145T521 33T346 -9ZM362 40Q425 40 473 74T554 168T600 303Q618 401 599 475T534 593T420
636Q362 636 314 602T233 509T186 378Q173 309 178 248T205 141T267 67T362 40ZM359 730Q331 730 318 749T309 800Q312 823 327 835T368 848Q397 848 411 830T419 782Q407 730 359 730ZM561 731Q533 731 519 749T509 796Q517 848 572 848Q599 848 613 831T622 785Q614
731 561 731Z" />
<glyph unicode="&#xd7;" horiz-adv-x="550" d="M67 21Q49 21 34 26T10 45L495 497Q511 494 524 487T544 467Q508 435 461 392T361 301T256 203T155 107T67 21ZM422 21Q382 74 340 130T253 243T165 355T78 464Q90 475 104 482T134 490L480 48Q470 36 454 29T422 21Z" />
<glyph unicode="&#xd8;" horiz-adv-x="741" d="M346 -9Q244 -9 174 39T74 173T66 371Q78 439 111 496T194 595T305 661T437 685Q536 685 607 641T710 511T718 302Q701 215 650 145T521 33T346 -9ZM362 40Q425 40 473 74T554 168T600 303Q618 401 599 475T534 593T420
636Q362 636 314 602T233 509T186 378Q173 309 178 248T205 141T267 67T362 40ZM106 -9Q89 -9 75 -2T56 18L674 685Q711 685 728 662Q657 589 576 504T413 330T252 154T106 -9Z" />
<glyph unicode="&#xd9;" horiz-adv-x="642" d="M307 -9Q177 -9 128 61T101 256L150 546Q157 578 155 595T142 619T108 631Q106 641 106 653T107 679Q143 677 169 677T227 676Q260 676 288 676T355 679Q354 666 353 655T345 631Q315 628 299 620T275 593T259 534L211
261Q192 148 226 98T331 48Q404 48 450 101T513 249L558 508Q566 553 565 576T550 610T507 631Q505 643 505 654T506 679Q538 677 562 677T606 676Q632 676 653 676T707 679Q707 666 705 654T697 631Q676 624 663 617T640 596T625 560T612 498L570 258Q553 166
520 107T435 20T307 -9ZM481 740Q471 736 454 736T426 740Q415 759 399 781T365 825T328 865Q351 873 378 874T432 870Q440 839 452 806T481 740Z" />
<glyph unicode="&#xda;" horiz-adv-x="642" d="M307 -9Q177 -9 128 61T101 256L150 546Q157 578 155 595T142 619T108 631Q106 641 106 653T107 679Q143 677 169 677T227 676Q260 676 288 676T355 679Q354 666 353 655T345 631Q315 628 299 620T275 593T259 534L211
261Q192 148 226 98T331 48Q404 48 450 101T513 249L558 508Q566 553 565 576T550 610T507 631Q505 643 505 654T506 679Q538 677 562 677T606 676Q632 676 653 676T707 679Q707 666 705 654T697 631Q676 624 663 617T640 596T625 560T612 498L570 258Q553 166
520 107T435 20T307 -9ZM429 729Q416 731 405 735T383 748Q403 772 419 796T447 841T466 876Q477 878 487 879T508 880Q529 880 547 877T580 866Q542 834 503 799T429 729Z" />
<glyph unicode="&#xdb;" horiz-adv-x="642" d="M307 -9Q177 -9 128 61T101 256L150 546Q157 578 155 595T142 619T108 631Q106 641 106 653T107 679Q143 677 169 677T227 676Q260 676 288 676T355 679Q354 666 353 655T345 631Q315 628 299 620T275 593T259 534L211
261Q192 148 226 98T331 48Q404 48 450 101T513 249L558 508Q566 553 565 576T550 610T507 631Q505 643 505 654T506 679Q538 677 562 677T606 676Q632 676 653 676T707 679Q707 666 705 654T697 631Q676 624 663 617T640 596T625 560T612 498L570 258Q553 166
520 107T435 20T307 -9ZM316 728Q307 736 302 749T297 773Q325 789 352 806T404 843T453 880Q466 882 477 881T499 874Q524 846 552 817T611 757Q606 747 596 741T572 733Q544 751 514 767T451 795Q428 787 405 776T359 752T316 728Z" />
<glyph unicode="&#xdc;" horiz-adv-x="642" d="M307 -9Q177 -9 128 61T101 256L150 546Q157 578 155 595T142 619T108 631Q106 641 106 653T107 679Q143 677 169 677T227 676Q260 676 288 676T355 679Q354 666 353 655T345 631Q315 628 299 620T275 593T259 534L211
261Q192 148 226 98T331 48Q404 48 450 101T513 249L558 508Q566 553 565 576T550 610T507 631Q505 643 505 654T506 679Q538 677 562 677T606 676Q632 676 653 676T707 679Q707 666 705 654T697 631Q676 624 663 617T640 596T625 560T612 498L570 258Q553 166
520 107T435 20T307 -9ZM344 730Q316 730 303 749T294 800Q297 823 312 835T353 848Q382 848 396 830T404 782Q392 730 344 730ZM546 731Q518 731 504 749T494 796Q502 848 557 848Q584 848 598 831T607 785Q599 731 546 731Z" />
<glyph unicode="&#xdd;" horiz-adv-x="586" d="M281 215Q257 299 230 378T172 536Q156 576 146 594T126 620T101 631Q99 643 99 654T100 679Q121 678 141 677T181 676T219 676Q238 676 259 676T304 677T353 679Q353 665 350 653T343 630Q295 623 283 607T286 551Q308
491 327 428T363 299L346 308Q384 361 418 415T488 530Q515 579 514 601T467 631Q463 652 466 679Q491 677 515 677T566 676Q590 676 611 676T657 679Q657 654 647 631Q636 627 625 620T598 595T559 539Q499 442 446 366T338 215H281ZM140 -3Q141 12 143 24T149
46Q184 52 202 60T229 88T244 142L269 282H379L353 132Q347 102 349 85T368 60T422 45Q424 34 425 22T424 -3Q393 -1 357 -1T285 0Q247 0 208 0T140 -3ZM403 729Q390 731 379 735T357 748Q377 772 393 796T421 841T440 876Q451 878 461 879T482 880Q503 880 521
877T554 866Q516 834 477 799T403 729Z" />
<glyph unicode="&#xde;" horiz-adv-x="600" d="M26 -3Q26 11 28 23T36 45Q62 49 77 56T100 82T114 135L184 542Q190 576 187 593T169 619T126 631Q125 642 125 654T125 679Q154 678 186 677T252 676Q285 676 317 677T382 679Q381 666 380 654T372 631Q347 627
332 619T309 593T294 538L224 135Q218 101 222 83T244 57T299 45Q301 35 302 23T301 -3Q267 -1 234 -1T165 0Q130 0 93 0T26 -3ZM325 151Q303 151 287 154T259 165Q258 176 261 187T270 208Q281 204 292 203T316 201Q351 201 383 214T440 258T474 343Q486 412 456
454T344 496Q327 496 313 494T273 486L237 539Q255 539 283 539T341 540T396 541Q455 541 494 525T555 482T584 420T584 345Q575 297 542 253T455 180T325 151Z" />
<glyph unicode="&#xdf;" horiz-adv-x="570" d="M55 448H137L131 393Q109 398 87 400T43 403Q43 415 46 427T55 448ZM390 714Q454 714 486 694T528 641T531 576Q523 538 506 512T469 468T428 435T394 407T376 376Q370 349 384 328T421 286T468 242T503 186T508
109Q498 50 456 22T344 -7Q304 -7 273 3T217 30Q227 62 231 90T236 144Q262 155 292 153Q292 98 306 69T359 39Q383 39 399 52T420 90Q425 118 410 141T372 186T325 233T288 288T283 360Q288 387 304 404T342 436T385 465T424 501T448 553Q454 583 446 608T416
648T356 664Q328 664 307 643T270 575T238 447Q226 385 216 325T198 216T185 134Q172 52 150 -17T97 -139T29 -219T-55 -248Q-76 -248 -99 -239T-145 -210Q-146 -193 -144 -175T-136 -143Q-104 -153 -78 -156T-24 -160Q-5 -160 8 -152T32 -122T51 -57T70 55Q76
101 85 167T104 309T126 452Q135 507 153 554T202 638T279 694T390 714Z" />
<glyph unicode="&#xe0;" horiz-adv-x="497" d="M431 467Q439 464 443 456T447 428T437 372L388 153Q377 98 377 83T394 67Q405 67 416 73T446 94Q453 87 458 78T466 58Q440 29 410 10T344 -9Q315 -9 300 4T280 38T276 80T283 121Q287 132 293 147T305 178T316
203L352 353L342 456Q366 455 390 458T431 467ZM375 453L350 397Q336 405 317 408T279 412Q221 412 188 367T141 250Q123 168 131 124T169 80Q186 80 216 109T275 196T324 336L343 416L387 409L334 195H310Q291 142 259 95T188 20T107 -9Q77 -9 57 5T27 46T16 114T27
207Q42 282 80 340T174 433T301 467Q321 467 342 463T375 453ZM286 706Q293 665 304 623T330 537Q321 533 307 533T282 539Q263 579 237 623T183 703Q205 711 233 712T286 706Z" />
<glyph unicode="&#xe1;" horiz-adv-x="497" d="M431 467Q439 464 443 456T447 428T437 372L388 153Q377 98 377 83T394 67Q405 67 416 73T446 94Q453 87 458 78T466 58Q440 29 410 10T344 -9Q315 -9 300 4T280 38T276 80T283 121Q287 132 293 147T305 178T316
203L352 353L342 456Q366 455 390 458T431 467ZM375 453L350 397Q336 405 317 408T279 412Q221 412 188 367T141 250Q123 168 131 124T169 80Q186 80 216 109T275 196T324 336L343 416L387 409L334 195H310Q291 142 259 95T188 20T107 -9Q77 -9 57 5T27 46T16 114T27
207Q42 282 80 340T174 433T301 467Q321 467 342 463T375 453ZM355 714Q387 722 416 720T465 704Q426 669 386 624T311 531Q286 532 268 547Q288 580 305 610T335 667T355 714Z" />
<glyph unicode="&#xe2;" horiz-adv-x="497" d="M431 467Q439 464 443 456T447 428T437 372L388 153Q377 98 377 83T394 67Q405 67 416 73T446 94Q453 87 458 78T466 58Q440 29 410 10T344 -9Q315 -9 300 4T280 38T276 80T283 121Q287 132 293 147T305 178T316
203L352 353L342 456Q366 455 390 458T431 467ZM375 453L350 397Q336 405 317 408T279 412Q221 412 188 367T141 250Q123 168 131 124T169 80Q186 80 216 109T275 196T324 336L343 416L387 409L334 195H310Q291 142 259 95T188 20T107 -9Q77 -9 57 5T27 46T16 114T27
207Q42 282 80 340T174 433T301 467Q321 467 342 463T375 453ZM184 527Q175 536 171 550T167 576Q196 596 223 617T278 661T329 707Q341 709 352 707T374 700Q397 664 423 630T479 560Q474 549 464 541T440 530Q412 553 383 573T322 611Q298 599 275 586T228 557T184
527Z" />
<glyph unicode="&#xe3;" horiz-adv-x="497" d="M431 467Q439 464 443 456T447 428T437 372L388 153Q377 98 377 83T394 67Q405 67 416 73T446 94Q453 87 458 78T466 58Q440 29 410 10T344 -9Q315 -9 300 4T280 38T276 80T283 121Q287 132 293 147T305 178T316
203L352 353L342 456Q366 455 390 458T431 467ZM375 453L350 397Q336 405 317 408T279 412Q221 412 188 367T141 250Q123 168 131 124T169 80Q186 80 216 109T275 196T324 336L343 416L387 409L334 195H310Q291 142 259 95T188 20T107 -9Q77 -9 57 5T27 46T16 114T27
207Q42 282 80 340T174 433T301 467Q321 467 342 463T375 453ZM385 551Q366 551 350 558T319 574T289 589T257 596Q234 596 213 587T165 556Q159 562 156 570T153 590Q193 638 225 655T280 672Q300 672 316 665T347 650T375 635T404 628Q425 628 443 638T478 666Q485
663 492 657T503 641Q467 589 439 570T385 551Z" />
<glyph unicode="&#xe4;" horiz-adv-x="497" d="M431 467Q439 464 443 456T447 428T437 372L388 153Q377 98 377 83T394 67Q405 67 416 73T446 94Q453 87 458 78T466 58Q440 29 410 10T344 -9Q315 -9 300 4T280 38T276 80T283 121Q287 132 293 147T305 178T316
203L352 353L342 456Q366 455 390 458T431 467ZM375 453L350 397Q336 405 317 408T279 412Q221 412 188 367T141 250Q123 168 131 124T169 80Q186 80 216 109T275 196T324 336L343 416L387 409L334 195H310Q291 142 259 95T188 20T107 -9Q77 -9 57 5T27 46T16 114T27
207Q42 282 80 340T174 433T301 467Q321 467 342 463T375 453ZM399 527Q370 527 357 546T348 594Q354 622 371 634T411 646Q438 646 452 631T461 583Q451 527 399 527ZM232 527Q202 527 190 548T183 597Q189 620 203 633T242 646Q274 646 287 628T294 580Q289 556
273 542T232 527Z" />
<glyph unicode="&#xe5;" horiz-adv-x="497" d="M431 467Q439 464 443 456T447 428T437 372L388 153Q377 98 377 83T394 67Q405 67 416 73T446 94Q453 87 458 78T466 58Q440 29 410 10T344 -9Q315 -9 300 4T280 38T276 80T283 121Q287 132 293 147T305 178T316
203L352 353L342 456Q366 455 390 458T431 467ZM375 453L350 397Q336 405 317 408T279 412Q221 412 188 367T141 250Q123 168 131 124T169 80Q186 80 216 109T275 196T324 336L343 416L387 409L334 195H310Q291 142 259 95T188 20T107 -9Q77 -9 57 5T27 46T16 114T27
207Q42 282 80 340T174 433T301 467Q321 467 342 463T375 453ZM319 524Q263 524 240 554T223 626Q231 665 261 688T339 711Q380 711 402 695T431 655T433 606Q426 569 397 547T319 524ZM324 565Q340 565 353 575T370 608Q376 633 367 653T334 674Q314 674 301 659T284
621Q280 597 291 581T324 565Z" />
<glyph unicode="&#xe6;" horiz-adv-x="612" d="M130 -9Q93 -9 68 6T31 50T17 118T27 207Q46 291 86 349T181 437T298 467Q327 467 354 460T409 436L358 395Q336 406 320 409T288 412Q222 412 189 370T137 250Q117 163 131 121T190 78Q210 78 233 86T286 113L303
66Q266 35 221 13T130 -9ZM376 -9Q331 -9 305 10T267 64T255 139T264 223Q281 304 317 358T401 440T499 467Q541 467 565 450T598 405T599 344Q589 301 554 255T467 167T352 89L333 131Q375 153 412 182T476 249T510 333Q517 374 505 392T470 410Q453 410 439 401T411
373T387 329T370 271Q365 244 362 210T363 144T383 92T429 71Q452 71 480 84T530 121Q539 113 543 105T551 83Q518 47 473 19T376 -9Z" />
<glyph unicode="&#xe7;" horiz-adv-x="381" d="M152 -9Q103 -9 75 12T34 69T22 148T33 237Q43 284 63 325T112 399T181 449T275 467Q304 467 331 461T375 441Q366 416 361 388T352 333Q330 323 298 329Q302 376 290 395T251 414Q218 414 196 391T160 332T139 253Q134
221 132 188T135 128T158 83T206 66Q235 66 263 81T315 120Q324 113 328 104T336 83Q295 35 248 13T152 -9ZM65 -242Q63 -234 63 -225T64 -207Q101 -207 124 -196T153 -159Q158 -131 143 -117T99 -102Q84 -87 89 -63L157 16H217L159 -54Q196 -61 212 -86T219 -156Q210
-200 168 -221T65 -242Z" />
<glyph unicode="&#xe8;" horiz-adv-x="389" d="M147 -9Q100 -9 73 12T33 67T21 142T29 223Q46 305 82 359T167 440T266 467Q309 467 335 451T370 408T374 353Q367 321 342 294T281 245T205 212T126 198L129 241Q187 245 231 270T285 341Q291 372 280 392T244 413Q212
413 183 372T138 246Q131 204 132 163T149 95T204 68Q230 68 256 81T307 121Q315 113 320 105T327 83Q294 43 250 17T147 -9ZM242 706Q249 665 260 623T286 537Q277 533 263 533T238 539Q219 579 193 623T139 703Q161 711 189 712T242 706Z" />
<glyph unicode="&#xe9;" horiz-adv-x="389" d="M147 -9Q100 -9 73 12T33 67T21 142T29 223Q46 305 82 359T167 440T266 467Q309 467 335 451T370 408T374 353Q367 321 342 294T281 245T205 212T126 198L129 241Q187 245 231 270T285 341Q291 372 280 392T244 413Q212
413 183 372T138 246Q131 204 132 163T149 95T204 68Q230 68 256 81T307 121Q315 113 320 105T327 83Q294 43 250 17T147 -9ZM311 714Q343 722 372 720T421 704Q382 669 342 624T267 531Q242 532 224 547Q244 580 261 610T291 667T311 714Z" />
<glyph unicode="&#xea;" horiz-adv-x="389" d="M147 -9Q100 -9 73 12T33 67T21 142T29 223Q46 305 82 359T167 440T266 467Q309 467 335 451T370 408T374 353Q367 321 342 294T281 245T205 212T126 198L129 241Q187 245 231 270T285 341Q291 372 280 392T244 413Q212
413 183 372T138 246Q131 204 132 163T149 95T204 68Q230 68 256 81T307 121Q315 113 320 105T327 83Q294 43 250 17T147 -9ZM140 527Q131 536 127 550T123 576Q152 596 179 617T234 661T285 707Q297 709 308 707T330 700Q353 664 379 630T435 560Q430 549 420
541T396 530Q368 553 339 573T278 611Q254 599 231 586T184 557T140 527Z" />
<glyph unicode="&#xeb;" horiz-adv-x="389" d="M147 -9Q100 -9 73 12T33 67T21 142T29 223Q46 305 82 359T167 440T266 467Q309 467 335 451T370 408T374 353Q367 321 342 294T281 245T205 212T126 198L129 241Q187 245 231 270T285 341Q291 372 280 392T244 413Q212
413 183 372T138 246Q131 204 132 163T149 95T204 68Q230 68 256 81T307 121Q315 113 320 105T327 83Q294 43 250 17T147 -9ZM355 527Q326 527 313 546T304 594Q310 622 327 634T367 646Q394 646 408 631T417 583Q407 527 355 527ZM188 527Q158 527 146 548T139
597Q145 620 159 633T198 646Q230 646 243 628T250 580Q245 556 229 542T188 527Z" />
<glyph unicode="&#xec;" horiz-adv-x="262" d="M110 -9Q73 -9 56 10T37 62T48 141L85 276Q99 325 101 347T90 376T44 382Q43 394 44 405T51 426Q70 428 95 434T143 450T182 467Q211 454 218 425T210 337L158 145Q144 96 146 82T163 68Q172 68 184 74T211 94Q220
89 225 79T232 57Q202 26 171 9T110 -9ZM415 706Q422 665 433 623T459 537Q450 533 436 533T411 539Q392 579 366 623T312 703Q334 711 362 712T415 706Z" />
<glyph unicode="&#xed;" horiz-adv-x="262" d="M110 -9Q73 -9 56 10T37 62T48 141L85 276Q99 325 101 347T90 376T44 382Q43 394 44 405T51 426Q70 428 95 434T143 450T182 467Q211 454 218 425T210 337L158 145Q144 96 146 82T163 68Q172 68 184 74T211 94Q220
89 225 79T232 57Q202 26 171 9T110 -9ZM228 714Q260 722 289 720T338 704Q299 669 259 624T184 531Q159 532 141 547Q161 580 178 610T208 667T228 714Z" />
<glyph unicode="&#xee;" horiz-adv-x="262" d="M110 -9Q73 -9 56 10T37 62T48 141L85 276Q99 325 101 347T90 376T44 382Q43 394 44 405T51 426Q70 428 95 434T143 450T182 467Q211 454 218 425T210 337L158 145Q144 96 146 82T163 68Q172 68 184 74T211 94Q220
89 225 79T232 57Q202 26 171 9T110 -9ZM347 516Q335 526 329 537T321 564Q356 594 394 632T466 710Q480 710 490 710T508 705Q526 668 547 626T591 536Q584 531 570 528T546 525Q526 551 505 576T462 620Q430 593 401 567T347 516Z" />
<glyph unicode="&#xef;" horiz-adv-x="262" d="M110 -9Q73 -9 56 10T37 62T48 141L85 276Q99 325 101 347T90 376T44 382Q43 394 44 405T51 426Q70 428 95 434T143 450T182 467Q211 454 218 425T210 337L158 145Q144 96 146 82T163 68Q172 68 184 74T211 94Q220
89 225 79T232 57Q202 26 171 9T110 -9ZM360 528Q331 528 317 546T306 592Q310 613 326 629T374 646Q409 646 421 626T428 577Q423 555 405 542T360 528ZM528 529Q494 529 480 548T472 598Q477 622 495 634T539 646Q568 646 584 628T595 582Q591 561 576 545T528
529Z" />
<glyph unicode="&#xf0;" horiz-adv-x="470" d="M187 -8Q90 -8 49 56T31 231Q53 341 117 403T269 466Q300 466 319 459T351 437L352 376Q339 395 317 404T275 414Q227 414 193 364T142 225Q126 136 142 90T198 44Q246 44 280 103T333 265Q353 368 345 445T300 577T194
667Q194 677 198 688T207 708Q234 705 261 708T312 716Q370 671 407 604T455 451T446 264Q420 134 354 63T187 -8ZM214 485Q210 497 209 515T209 542L487 674Q491 660 492 646T491 617Q441 594 398 575T311 535T214 485Z" />
<glyph unicode="&#xf1;" horiz-adv-x="541" d="M41 0L95 286Q103 332 103 352T90 377T44 382Q44 394 45 406T51 426Q70 428 99 434T156 449T201 467Q218 461 223 445T223 402Q216 361 207 333T186 278L170 118L147 0H41ZM394 467Q412 467 431 459T463 429T479
370T468 274L441 158Q431 114 428 95T427 71T438 66Q448 66 463 74T490 94Q499 87 504 78T511 57Q478 23 448 7T388 -9Q346 -9 331 11T318 68T332 155L357 266Q368 312 368 337T361 372T342 382Q324 382 300 364T250 311T203 227T170 118L163 228L202 311Q215 337
236 364T283 415T337 452T394 467ZM399 551Q380 551 364 558T333 574T303 589T271 596Q248 596 227 587T179 556Q173 562 170 570T167 590Q207 638 239 655T294 672Q314 672 330 665T361 650T389 635T418 628Q439 628 457 638T492 666Q499 663 506 657T517 641Q481
589 453 570T399 551Z" />
<glyph unicode="&#xf2;" horiz-adv-x="479" d="M194 -9Q129 -9 89 22T33 108T31 230Q45 302 80 355T169 437T286 467Q349 467 389 438T445 356T450 236Q438 165 402 110T312 23T194 -9ZM207 43Q235 43 260 66T305 131T335 227Q350 309 333 362T271 415Q229 415
195 367T146 240Q135 182 139 138T160 68T207 43ZM273 706Q280 665 291 623T317 537Q308 533 294 533T269 539Q250 579 224 623T170 703Q192 711 220 712T273 706Z" />
<glyph unicode="&#xf3;" horiz-adv-x="479" d="M194 -9Q129 -9 89 22T33 108T31 230Q45 302 80 355T169 437T286 467Q349 467 389 438T445 356T450 236Q438 165 402 110T312 23T194 -9ZM207 43Q235 43 260 66T305 131T335 227Q350 309 333 362T271 415Q229 415
195 367T146 240Q135 182 139 138T160 68T207 43ZM342 714Q374 722 403 720T452 704Q413 669 373 624T298 531Q273 532 255 547Q275 580 292 610T322 667T342 714Z" />
<glyph unicode="&#xf4;" horiz-adv-x="479" d="M194 -9Q129 -9 89 22T33 108T31 230Q45 302 80 355T169 437T286 467Q349 467 389 438T445 356T450 236Q438 165 402 110T312 23T194 -9ZM207 43Q235 43 260 66T305 131T335 227Q350 309 333 362T271 415Q229 415
195 367T146 240Q135 182 139 138T160 68T207 43ZM170 527Q161 536 157 550T153 576Q182 596 209 617T264 661T315 707Q327 709 338 707T360 700Q383 664 409 630T465 560Q460 549 450 541T426 530Q398 553 369 573T308 611Q284 599 261 586T214 557T170 527Z"
/>
<glyph unicode="&#xf5;" horiz-adv-x="479" d="M194 -9Q129 -9 89 22T33 108T31 230Q45 302 80 355T169 437T286 467Q349 467 389 438T445 356T450 236Q438 165 402 110T312 23T194 -9ZM207 43Q235 43 260 66T305 131T335 227Q350 309 333 362T271 415Q229 415
195 367T146 240Q135 182 139 138T160 68T207 43ZM371 551Q352 551 336 558T305 574T275 589T243 596Q220 596 199 587T151 556Q145 562 142 570T139 590Q179 638 211 655T266 672Q286 672 302 665T333 650T361 635T390 628Q411 628 429 638T464 666Q471 663 478
657T489 641Q453 589 425 570T371 551Z" />
<glyph unicode="&#xf6;" horiz-adv-x="479" d="M194 -9Q129 -9 89 22T33 108T31 230Q45 302 80 355T169 437T286 467Q349 467 389 438T445 356T450 236Q438 165 402 110T312 23T194 -9ZM207 43Q235 43 260 66T305 131T335 227Q350 309 333 362T271 415Q229 415
195 367T146 240Q135 182 139 138T160 68T207 43ZM386 527Q357 527 344 546T335 594Q341 622 358 634T398 646Q425 646 439 631T448 583Q438 527 386 527ZM219 527Q189 527 177 548T170 597Q176 620 190 633T229 646Q261 646 274 628T281 580Q276 556 260 542T219
527Z" />
<glyph unicode="&#xf7;" horiz-adv-x="550" d="M46 234Q46 247 49 264T56 291H504Q504 274 503 261T494 235Q455 236 429 236T381 237T338 237T285 237Q223 237 167 236T46 234ZM246 51Q222 51 206 66T190 104Q190 127 202 143T244 159Q274 159 287 145T300 104Q300
80 284 66T246 51ZM306 367Q277 367 264 382T250 421Q250 450 267 463T305 476Q328 476 344 463T361 423Q361 401 349 384T306 367Z" />
<glyph unicode="&#xf8;" horiz-adv-x="479" d="M194 -9Q129 -9 89 22T33 108T31 230Q45 302 80 355T169 437T286 467Q349 467 389 438T445 356T450 236Q438 165 402 110T312 23T194 -9ZM207 43Q235 43 260 66T305 131T335 227Q350 309 333 362T271 415Q229 415
195 367T146 240Q135 182 139 138T160 68T207 43ZM43 -27Q29 -27 16 -21T-6 -4L446 484Q462 485 475 480T498 466Q462 430 416 382T319 280T218 170T123 64T43 -27Z" />
<glyph unicode="&#xf9;" horiz-adv-x="533" d="M132 -9Q99 -9 82 10T59 62T59 136T75 221Q90 280 96 313T99 360T83 378T44 383Q44 393 45 405T51 426Q69 428 97 434T154 449T198 467Q209 460 215 451T220 420T209 353T180 228Q168 177 166 144T172 94T197 78Q217
78 248 107T312 195T361 348L382 458H488L440 209Q427 143 423 113T421 75T435 67Q452 67 481 95Q489 89 494 79T502 58Q477 29 445 10T382 -9Q349 -9 332 6T310 46T312 104Q314 116 318 128T328 152H326Q313 125 293 97T246 45T191 6T132 -9ZM282 706Q289 665
300 623T326 537Q317 533 303 533T278 539Q259 579 233 623T179 703Q201 711 229 712T282 706Z" />
<glyph unicode="&#xfa;" horiz-adv-x="533" d="M132 -9Q99 -9 82 10T59 62T59 136T75 221Q90 280 96 313T99 360T83 378T44 383Q44 393 45 405T51 426Q69 428 97 434T154 449T198 467Q209 460 215 451T220 420T209 353T180 228Q168 177 166 144T172 94T197 78Q217
78 248 107T312 195T361 348L382 458H488L440 209Q427 143 423 113T421 75T435 67Q452 67 481 95Q489 89 494 79T502 58Q477 29 445 10T382 -9Q349 -9 332 6T310 46T312 104Q314 116 318 128T328 152H326Q313 125 293 97T246 45T191 6T132 -9ZM351 714Q383 722
412 720T461 704Q422 669 382 624T307 531Q282 532 264 547Q284 580 301 610T331 667T351 714Z" />
<glyph unicode="&#xfb;" horiz-adv-x="533" d="M132 -9Q99 -9 82 10T59 62T59 136T75 221Q90 280 96 313T99 360T83 378T44 383Q44 393 45 405T51 426Q69 428 97 434T154 449T198 467Q209 460 215 451T220 420T209 353T180 228Q168 177 166 144T172 94T197 78Q217
78 248 107T312 195T361 348L382 458H488L440 209Q427 143 423 113T421 75T435 67Q452 67 481 95Q489 89 494 79T502 58Q477 29 445 10T382 -9Q349 -9 332 6T310 46T312 104Q314 116 318 128T328 152H326Q313 125 293 97T246 45T191 6T132 -9ZM179 527Q170 536
166 550T162 576Q191 596 218 617T273 661T324 707Q336 709 347 707T369 700Q392 664 418 630T474 560Q469 549 459 541T435 530Q407 553 378 573T317 611Q293 599 270 586T223 557T179 527Z" />
<glyph unicode="&#xfc;" horiz-adv-x="533" d="M132 -9Q99 -9 82 10T59 62T59 136T75 221Q90 280 96 313T99 360T83 378T44 383Q44 393 45 405T51 426Q69 428 97 434T154 449T198 467Q209 460 215 451T220 420T209 353T180 228Q168 177 166 144T172 94T197 78Q217
78 248 107T312 195T361 348L382 458H488L440 209Q427 143 423 113T421 75T435 67Q452 67 481 95Q489 89 494 79T502 58Q477 29 445 10T382 -9Q349 -9 332 6T310 46T312 104Q314 116 318 128T328 152H326Q313 125 293 97T246 45T191 6T132 -9ZM395 527Q366 527
353 546T344 594Q350 622 367 634T407 646Q434 646 448 631T457 583Q447 527 395 527ZM228 527Q198 527 186 548T179 597Q185 620 199 633T238 646Q270 646 283 628T290 580Q285 556 269 542T228 527Z" />
<glyph unicode="&#xfd;" horiz-adv-x="470" d="M137 467Q153 462 162 454T177 429T189 378Q208 288 218 207T232 39L148 -97Q144 -12 136 65T117 207T92 321Q82 357 70 370T18 382Q17 395 18 406T24 426Q42 428 64 435T106 450T137 467ZM397 468Q425 458 438 437T451
387Q451 357 441 322T407 242T349 144T263 21Q200 -67 157 -120T83 -202T27 -239T-25 -248Q-50 -248 -74 -238T-119 -210Q-119 -193 -117 -175T-109 -143Q-86 -151 -59 -155T-7 -160Q16 -160 37 -152T85 -121T147 -54T231 62Q272 121 297 170T335 259T347 325Q347
348 334 363T287 381Q281 402 284 424Q304 429 326 437T367 453T397 468ZM304 714Q336 722 365 720T414 704Q375 669 335 624T260 531Q235 532 217 547Q237 580 254 610T284 667T304 714Z" />
<glyph unicode="&#xfe;" horiz-adv-x="473" d="M224 710Q241 703 246 688T246 642L206 428Q199 390 192 361T178 308T160 259L118 57Q126 20 126 -11T119 -78L89 -245H-17L119 530Q126 575 126 595T113 620T67 625Q67 637 68 648T75 669Q94 671 123 677T179 692T224
710ZM98 6L123 62Q137 54 156 50T194 46Q253 46 285 91T333 208Q350 291 342 335T305 379Q288 379 258 350T198 263T150 123L131 43L86 50L140 264H164Q184 318 215 364T285 439T367 468Q396 468 416 454T446 413T457 345T447 252Q432 177 394 118T299 26T172 -8Q153
-8 132 -4T98 6Z" />
<glyph unicode="&#xff;" horiz-adv-x="470" d="M137 467Q153 462 162 454T177 429T189 378Q208 288 218 207T232 39L148 -97Q144 -12 136 65T117 207T92 321Q82 357 70 370T18 382Q17 395 18 406T24 426Q42 428 64 435T106 450T137 467ZM397 468Q425 458 438 437T451
387Q451 357 441 322T407 242T349 144T263 21Q200 -67 157 -120T83 -202T27 -239T-25 -248Q-50 -248 -74 -238T-119 -210Q-119 -193 -117 -175T-109 -143Q-86 -151 -59 -155T-7 -160Q16 -160 37 -152T85 -121T147 -54T231 62Q272 121 297 170T335 259T347 325Q347
348 334 363T287 381Q281 402 284 424Q304 429 326 437T367 453T397 468ZM348 527Q319 527 306 546T297 594Q303 622 320 634T360 646Q387 646 401 631T410 583Q400 527 348 527ZM181 527Q151 527 139 548T132 597Q138 620 152 633T191 646Q223 646 236 628T243
580Q238 556 222 542T181 527Z" />
<glyph unicode="&#x2013;" horiz-adv-x="535" d="M48 230Q48 247 52 263T64 290H500Q499 275 495 260T482 233Q416 233 343 233T195 233T48 230Z" />
<glyph unicode="&#x2014;" horiz-adv-x="1024" d="M46 228Q49 266 65 289H989Q988 271 984 257T970 231Q861 231 724 231T419 231T46 228Z" />
<glyph unicode="&#x2018;" horiz-adv-x="253" d="M151 448Q130 460 127 487T130 547Q137 587 162 630T238 717Q252 716 261 710T276 693Q220 637 216 599T263 548Q263 530 259 510T246 478Q222 476 195 468T151 448Z" />
<glyph unicode="&#x2019;" horiz-adv-x="254" d="M240 717Q261 705 264 678T261 618Q254 578 229 535T153 448Q139 449 130 455T115 472Q171 528 175 566T128 617Q128 635 132 655T145 687Q169 689 196 697T240 717Z" />
<glyph unicode="&#x201a;" horiz-adv-x="197" d="M104 116Q125 104 128 77T125 17Q118 -23 93 -66T17 -153Q3 -152 -6 -146T-21 -129Q35 -73 39 -35T-8 16Q-8 34 -4 54T9 86Q33 88 60 96T104 116Z" />
<glyph unicode="&#x201c;" horiz-adv-x="412" d="M141 447Q120 459 117 486T120 546Q127 586 151 629T228 716Q242 715 251 709T266 692Q214 640 208 602T250 547Q250 529 246 509T232 477Q208 475 183 467T141 447ZM304 447Q281 459 278 488T283 549Q291 590
313 630T383 711Q396 711 405 705T421 688Q366 633 365 596T412 547Q412 529 408 509T395 477Q371 475 346 467T304 447Z" />
<glyph unicode="&#x201d;" horiz-adv-x="413" d="M408 717Q429 705 432 678T429 618Q422 578 398 535T321 448Q307 449 298 455T283 472Q335 524 341 562T299 617Q299 635 303 655T317 687Q341 689 366 697T408 717ZM245 717Q268 705 271 676T266 615Q258 574
236 534T166 453Q153 453 144 459T128 476Q183 531 184 568T137 617Q137 635 141 655T154 687Q178 689 203 697T245 717Z" />
<glyph unicode="&#x201e;" horiz-adv-x="356" d="M263 116Q284 104 287 77T284 17Q277 -23 253 -66T176 -153Q162 -152 153 -146T138 -129Q190 -77 196 -39T154 16Q154 34 158 54T172 86Q196 88 221 96T263 116ZM100 116Q123 104 126 75T121 14Q113 -27 91 -67T21
-148Q8 -148 -1 -142T-17 -125Q38 -70 39 -33T-8 16Q-8 34 -4 54T9 86Q33 88 58 96T100 116Z" />
<glyph unicode="&#x2022;" horiz-adv-x="325" d="M168 170Q127 170 101 189T64 240T60 306Q68 344 100 370T183 396Q220 396 246 378T283 332T287 269Q279 223 248 197T168 170Z" />
<glyph unicode="&#x2039;" horiz-adv-x="275" d="M217 417Q181 380 144 349T64 281Q57 273 53 261T48 235Q77 203 110 164T176 79Q186 85 194 94T206 116Q197 133 184 159T159 213T140 260Q152 279 173 304T217 354T257 397Q252 405 241 411T217 417Z" />
<glyph unicode="&#x203a;" horiz-adv-x="280" d="M124 415Q149 381 176 349T234 283Q240 272 240 260T236 236Q193 202 148 162T60 84Q42 100 39 126Q67 152 100 185T155 246Q147 267 135 295T108 353T82 404Q91 411 102 414T124 415Z" />
</font>
</defs>
</svg>
